This file was generated by Ched 2.7.0.0.
#TITLE ""
#ARTIST ""
#DESIGNER ""
#DIFFICULTY 0
#PLAYLEVEL
#SONGID ""
#WAVE ""
#WAVEOFFSET 0
#JACKET ""
#REQUEST "ticks_per_beat 480"
#00002: 4
#BPM01: 225.2
#00008: 01
#TIL00: "118'357:10000, 118'358:1"
#VOLUME: ""
#HISPEED 00
#MEASUREHS 00
#00918:0000131300000000
#00912:0013
#00915:13
#0091b:00000013
#0091a:24
#00910:41
#05912:13000013
#05917:13000013
#05916:0013
#0591b:0013
#04417:13
#04415:00131300
#04418:0000001300001300
#04412:13
#00212:00130013
#00218:13000013
#00215:0013
#01118:0000131300000000
#0111b:1300000000001313
#01115:13
#01112:0013
#01316:13
#01314:00000013
#01317:0013
#01319:00000013
#0141b:13
#01416:13
#01412:0013
#0151b:0013
#01517:13000013
#01519:00130000
#01512:23000023
#01514:00230000
#01516:0023
#03415:13
#03418:23
#03512:00140014
#03516:0014
#0351a:00140014
#03615:00000013
#03618:0000000000000013
#0361b:13
#03612:13
#03715:13
#03719:00230000
#0371a:0023
#0371b:00000023
#0391b:1313
#03917:00130000
#03912:0000130000000013
#03916:0013
#04118:13
#04116:0000001300000000
#0411b:0013
#04112:00000013
#0421b:13
#04216:13
#04212:0013
#04217:0013
#0431b:13
#0431a:00130000
#04319:0013
#04313:00000013
#04316:13
#04315:00130000
#04314:0013
#04318:00000013
#11014:0012
#1101a:0012
#11016:0000000000000012
#0011b:00130013
#00118:2313
#00115:23
#00315:13
#00312:0000001300001300
#0031b:13
#00318:0013
#0041b:13000013
#00415:0013
#00418:0013
#0061b:00130013
#00615:13000013
#00618:0013
#00512:00130013
#00515:0013
#00518:23
#00718:13
#0071b:0000001300001300
#00712:13
#00715:0013
#00812:13
#0081b:0013
#01015:0000131300000000
#0101b:0013
#01018:13
#01012:13000013
#01615:0000000000130013
#01618:00002313
#01612:00230000
#0161b:00230000
#02712:13130013
#02714:0013
#0271b:00130000
#02719:0013
#02717:00000013
#0261b:0013
#02617:00130000
#02619:13
#02614:23
#02612:00230000
#02616:0023
#02516:00001323
#0251b:2300001300001300
#02512:13
#01712:2300131300000000
#01718:0013
#0171b:13
#01715:00000013
#02117:13
#02119:00000013
#02116:0013
#02114:00000013
#02110:41
#02212:13000013
#02217:13000013
#0221b:0013
#0181b:0000131300000000
#01812:13
#01818:13000013
#01815:0013
#01918:13
#0191b:0013
#01912:1300000000001313
#01915:0000131300000000
#02316:13
#02318:00130000
#02312:0000001300000000
#0231b:00000013
#02418:0000130000130013
#02415:00001313
#02412:13130000
#02817:00001323
#02812:0000001300001300
#0281b:13
#02816:23
#02916:00130000
#02914:13
#0291b:0000230000000013
#02912:0013
#02919:23
#02917:0023
#03016:13130000
#0301b:0013000000001300
#0321b:00132300
#03219:13
#03217:0000000000000013
#03216:00231300
#03214:23
#03117:13000013
#0311b:0013
#03116:0000001300000000
#03112:23000023
#03312:13000013
#03314:0013
#03316:00130000
#0331b:00230000
#03319:0023
#03317:00000023
#04018:13
#04012:00130000
#0401b:0013
#04015:00000013
#04512:13
#04515:00130000
#04518:0013
#0451b:00000013
#05212:13001313
#05218:00130000
#05215:0000001300000000
#0521b:1313
#05210:41
#05112:1313
#05115:0000001300001300
#05118:0000130000000013
#0511b:0013
#0531b:13130000
#05312:00130000
#05315:00001313
#05318:0000000000130013
#05519:00000013
#05514:00000013
#05515:13130000
#05518:0013000000000000
#0551a:0024
#05512:0024
#05619:13
#05614:13
#05618:00001313
#05615:0000000000130013
#0561a:00240000
#05612:00240000
#05816:0013
#0581b:00131300
#05814:00000013
#05819:00000013
#05815:13
#06012:13000013
#0601b:0013
#06017:13
#06115:13
#0611a:0014
#06118:00230023
#06318:00130000
#06315:0000000000131300
#0631a:14
#06312:00260000
#06419:23230013
#06414:13130023
#06412:0016
#06410:00000041
#06519:13001313
#06514:23001313
#06518:00160000
#0661a:13230000
#06613:13230000
#06612:00002323
#0661b:00002323
#06716:12
#0671b:00120000
#06714:0012
#06719:00000012
#0671f:11
#06816:12
#0681b:00120000
#06814:0012
#06819:00000012
#06914:12
#06916:00120000
#06918:0012
#0691a:00000012
#07015:12
#07017:00120000
#07019:0012
#0701b:00000012
#0731a:00120000
#07318:0012
#07316:00000012
#07314:12
#07414:12
#09018:0000130000000013
#09012:13000013
#09015:0000001300000000
#0901b:0023
#0871b:0013
#08712:13
#08715:0000001300001300
#08718:0000130000000013
#08812:1313
#08817:0013
#08915:00000013
#0891b:13
#08916:13
#08918:0000000000000013
#08912:0023
#08917:0023
#10018:1300130000001313
#10015:0013001300000000
#1001a:0024
#10012:0024
#10115:1300000013130000
#10118:00000013
#10112:00240000
#1011a:00240000
#10415:00131300
#10418:0000001300001300
#10412:13
#1041b:0013
#08615:0013
#08618:00000013
#08612:13
#0861b:0000001300000000
#08617:23
#09115:13
#09118:00130013
#09112:0013
#09215:13
#09212:0000130023000013
#09217:0023
#10214:00131300
#10219:00131300
#10212:24000024
#1021a:24000024
#10312:00000013
#10315:00131300
#10318:1313000000000000
#1031b:0023
#1051b:13
#10516:13
#10519:00130000
#10514:00130000
#10517:00001313
#10512:0024
#1061b:13130000
#10612:00001313
#10614:24
#10618:0024
#10715:0013001300000000
#10718:00130000
#1071b:0013
#10712:0013
#1071a:24
#04712:1313
#04716:00130000
#0471b:0000130000000013
#04717:0013
#04915:13
#04917:0000001300000000
#04912:0013
#0491b:0000000000001313
#05012:13
#05016:0013
#0501b:0000001300000000
#05017:0000000000000013
#04815:13
#0481b:00130000
#04812:0013
#04818:00000013
#0461b:2300001323000000
#04612:0000000000000013
#04616:23
#05418:00131300
#05415:0000001300000000
#05412:24000024
#0541a:24000024
#05715:00000013
#05718:2300000000000013
#05712:00131300
#08516:00000013
#0851b:23000023
#08512:0023
#08510:0041
#09317:00000013
#0931b:0000001323000000
#09312:23000023
#0941b:13
#09412:0000001300001300
#09418:0013
#09416:23
#09518:0013
#0951b:13
#09515:00130000
#09516:0000000000000013
#09815:0000001300001300
#09818:0000130000000013
#09812:2323
#0981b:2323
#09718:0000000000000013
#09717:13
#09716:0000001300000000
#09715:00000013
#0971b:0023
#09912:13001313
#0991b:13130013
#0961b:1313
#09612:0000131300000013
#07115:12
#0711a:00120000
#07113:0012
#07118:00000012
#07215:12
#0721a:00120000
#07213:0012
#07218:00000012
#07518:12
#07513:00120000
#0751a:0012
#07515:00000012
#07618:12
#07613:00120000
#0761a:0012
#07615:00000012
#0771a:12
#07718:00120000
#07716:0012
#07714:00000012
#07819:12
#07817:00120000
#07815:0012
#07813:00000012
#07919:12
#07914:00120000
#0791b:0012
#07916:00000012
#08019:12
#08014:00120000
#0801b:0012
#11116:12000012
#1111a:00120000
#11118:0012
#11214:12000012
#11218:0000001212000000
#11316:12
#11318:00120000
#1131a:0012
#0621a:00140000
#06218:23002323
#03812:2323
#03817:23
#03810:41
#08214:0024
#08218:0024
#08212:0000000000343434
#0821a:0000000000343434
#08416:0023
#0841b:0023
#0841f:0021
#0001c:00002222
#08312:34003400340034343434343434345400
#0831a:34003400340034343434343434345400
#1141a:00520000
#11418:0052
#11416:00000052
#11514:52
#11516:00520000
#11518:0052
#1151a:00000052
#11618:52
#11616:00520000
#11614:0052
#00258:53
#00952:0053
#00955:63
#01356:53
#0145b:53
#03455:63
#03458:53
#03755:53
#03852:1353
#03857:53
#0395b:0053
#03956:0013
#04158:63
#0415b:0053
#0425b:53
#04256:53
#04252:0063
#04257:0063
#05452:14000014
#0545a:14000014
#0565a:00140000
#05652:00140000
#08254:0054
#08258:0064
#0035b:53
#00358:0063
#00352:00000063
#00455:1353
#0045b:13
#00655:63
#00752:63
#00755:0053
#0075b:00000053
#00852:63
#00856:0013
#0085b:0013
#00858:13
#0105b:0063
#01058:53
#01155:63
#01152:0053
#0265b:0063
#01758:0063
#0175b:53
#02157:63
#02252:63
#02257:00000063
#01852:53
#01855:0063
#01958:53
#0195b:0063
#02356:13
#0235b:13000063
#02352:0000005300000000
#02458:00530000
#02452:13
#02457:13
#02552:53
#0285b:63
#02952:0053
#03056:00630000
#03157:53
#0365b:53
#03652:63
#04058:53
#04052:00530000
#0405b:0063
#04055:00000063
#04455:0053
#04458:00000063
#04552:13
#04555:00130000
#04558:0013
#0455b:13000013
#0525b:0053
#05252:00000063
#05356:13
#0535b:13
#0555a:0014
#05552:0014
#05952:53
#05957:53
#06052:53
#0605b:0063
#06155:53
#0615a:0044
#06358:00530000
#06352:00160000
#0635a:44
#0875b:0063
#08752:53
#08852:1363
#08857:0063
#08655:0063
#08658:00000063
#08652:63
#08657:13
#0895b:53
#08956:53
#09155:53
#09158:00630013
#09152:0013
#0915b:0013
#09255:13
#09252:00131300
#09257:0053
#10455:0053
#1005a:0014
#10052:0014
#1035b:0063
#10152:00140000
#1015a:00140000
#10252:14000014
#1025a:14000014
#09052:53
#10552:0014
#10654:14
#10658:0014
#1075a:14
#1075b:0023
#10752:0023
#03256:0063
#04752:0063
#04757:0013
#04955:53
#04952:0063
#05052:63
#05056:0053
#04855:63
#0485b:00630000
#04852:0053
#04858:00000053
#0465b:1363
#04656:63
#05855:53
#05758:63
#0855b:63
#08456:0063
#0845b:0013
#0945b:53
#09458:0053
#09452:00000053
#09456:13
#09558:0063
#0955b:63
#09555:00630000
#09352:53
#09952:6313
#0995b:00530000
#09957:0013
#0965b:5353
#09757:63
#00155:53
#0625a:00440000
#06452:0036
#06558:00460000
#00558:63
#001350:13
#002320:23
#002381:13
#0023b1:0023
#0033b1:13
#003381:0000002300000000
#003381:0013
#0033b1:00000023
#003320:00000013
#004350:23
#004350:0013
#005320:23
#005381:13
#0063b1:23
#006350:13
#006320:0023
#007320:13
#007350:0000002300000000
#007350:0013
#007320:00000023
#0073b1:00000013
#008381:23
#008320:13
#008360:0023
#009350:13
#009320:00230000
#009320:0013
#009350:00000023
#010380:13
#0103b0:00230000
#0103b0:0013
#010380:00000023
#011350:13
#011320:00230000
#011320:0013
#011350:00000023
#012320:13230000
#012381:00132300
#012350:00001323
#0123b1:00000013
#0133b1:23
#013360:13
#013320:0023
#0143b0:13
#014370:0023
#0173b0:13
#017380:00230000
#017380:0013
#0173b0:00000023
#018320:13
#018350:00230000
#018350:0013
#018320:00000023
#019380:13
#0193b0:00230000
#0193b0:0013
#019380:00000023
#0203b0:13230000
#020351:00132300
#020380:00001323
#020321:00000013
#021321:23
#021370:13
#0213b0:0023
#022320:13
#022360:0023
#022370:00000013
#0233b0:23
#023320:0000001300000000
#023360:00000023
#0233b1:00000013
#024371:23
#024381:00130000
#0243b1:0023
#025321:13
#025361:0000002300000000
#0263b1:0013
#027371:23
#0283b1:13
#028371:0000002300000000
#029321:0013
#029361:0000000000000023
#030361:00130000
#030321:00000023
#031371:13
#0313b1:0000002300000000
#032361:0013
#032321:0000000000000023
#034351:13
#035321:23
#034380:13
#0353b0:23
#0363b0:13
#036380:0023
#036321:13
#036351:0023
#037351:13
#037321:00000023
#038371:13
#0383b1:0023
#038320:0013
#039360:23
#0393b0:0013
#039380:0000000000000023
#040380:13
#0403b0:00230000
#040321:00130000
#040351:0023
#0403b0:0013
#040380:00000023
#040351:00000013
#041321:23
#041380:13
#0413b0:0000002300000000
#0413b0:0013
#041370:00000023
#0423b0:13
#042370:0000002300000000
#042361:13
#042321:0000002300000000
#042321:0013
#042361:0000000000000023
#042370:0013
#0423b0:0000000000000023
#044350:0013
#044320:00000023
#044381:00000013
#0453b1:23
#046361:13
#046321:0023
#0463b0:0013
#047370:23
#047320:0013
#047350:0000000000000023
#048350:13
#048320:00230000
#0483b1:00130000
#048381:0023
#048320:0013
#048350:00000023
#048381:00000013
#0493b1:23
#049350:13
#049320:0000002300000000
#049320:0013
#049360:00000023
#050320:13
#050360:0000002300000000
#050360:0013
#050320:0000000000000023
#0523b0:0013
#052370:00000023
#052321:00000013
#053361:23
#057381:13
#0573b1:00000023
#058351:13
#058321:00230000
#059371:13
#0593b1:00230000
#059320:13
#059360:00230000
#060320:13
#060360:0023
#0603b1:0013
#061381:23
#061350:13
#063320:23
#063380:00130000
#0633b0:0000000000230000
#082340:0014
#082320:0000000000343434
#083320:34003400340034343434343434342400
#082381:0014
#0823a1:0000000000343434
#0833a1:34003400340034343434343434342400
#084361:0013
#085321:23
#0853b0:13
#085370:0023
#086320:13
#086350:0000002300000000
#086350:0013
#086320:00000023
#086381:00000013
#0873b1:23
#087320:13
#087350:00230000
#0873b0:0013
#087380:00000023
#088320:0013
#088360:0000000000000023
#088371:0013
#0883b1:0000000000000023
#0893b1:13
#089371:0000002300000000
#089360:13
#089320:0000002300000000
#090320:13
#090350:00230000
#091350:13
#091320:00230000
#091381:00130000
#0913b1:0023
#092371:0013
#0933b1:23
#093320:13
#093360:0023
#0943b0:13
#094380:0000002300000000
#094380:0013
#0943b0:00000023
#094321:00000013
#095351:23
#0953b0:13
#095380:00230000
#095351:00130000
#095321:0023
#095380:0013
#0953b0:0000000000000023
#0963b0:13
#096370:00230000
#0963b0:0013
#096370:0000000000000023
#097370:13
#0973b0:0000002300000000
#099320:13
#099360:00230000
#0993b1:00130000
#099371:0023
#1033b1:0013
#104381:00230000
#104351:0013
#104321:00000023
#107321:0013
#109321:00000026
#1073b0:0013
#109380:00000026
#1189d0:000000000000000000000000000000000000000000000000000000000000000000000000000000000000000000000000000000000000000000000000000000000000000000000000000000000000000000000000000000000000000000000000000000000000000000000000000000000000000000000000000000000000000000000000000000000000000000000000000000000000000000000000000000000000000000000000000000000000000000000000000000000000000000000000000000000000000000000000000000000000000000000000000000000000000000000000000000000000000000000000000000000000000000000000000000000000000000000000000000000000000000000000000000000000000000000000000000000000000000000000000000000000000000000000000000000000000000000000000000000000000000000000000000000000000000000000000000000000000000001121000000000000000000000000000000000000000000000000000000000000000000000000000000000000000000000000000000000000000000000000000000000000000000000000000000000000000000000000000000000000000000000000000000000000000000000000000000000000000000000000000000000000000000000000000000000000000000000000000000000000000000000000000000000000000000000000000000000000000000000000000000000000000000000000000000000000000000000000000000000000000000000000000000000000000000000000000000000000000000000000000000000000000000000000000000000000000000000000000000000000000000000000000000000000000000000000000000000000000000000000000000000000000000000000000000000000000000000000000000000000000000000000000000000000000000000000000000000000000000000000000000000000000000000000000000000000000000000000000000000000000000000000000000000000000000000000000000000000000000000000000000000000000000000000000000000000000000000000000000000000000000000000000000000000000000000000000000000000000000000000000000000000000000000000000000000000000000000000000000000000000000000000000000000000000000000000000000000000000000000000000000000000000000000000000000000000000000000000000000000000000000000000000000000000000000000000000000000000000000000000000000000000000000000000000000000000000000000000000000000000000000000000000000000000000000000000000000000000000000000000000000000000000000000000000000000000000000000000000000000000000000000000000000000000000000000000000000000000000000000000000000000000000000000000000000000000000000000000000000000000000000000000000000000000000000000000000000000000000000000000000000000000000000000000000000000000000000000000000000000000000000000000000000000000000000000000000000000000000000000000000000000000000000000000000000000000000000000000000000000000000000000000000000000000000000000000000000000000000000000000000000000000000000000000000000000000000000000000000000000000000000000000000000000000000000000000000000000000000000000000000000000000000000000000000000000000000000000000000000000000000000000000000000000000000000000000000000000000000000000000000000000000000000000000000000000000000000000000000000000000000000000000000000000000000000000000000000000000000000000000000000000000000000000000000000000000000000000000000000000000000000000000000000000000000000000000000000000000000000000000000000000000000000000000000000000000000000000000000000000000000000000000000000000000000000000000000000000000000000000000000000000000000000000000000000000000000000000000000000000000000000000000000000000000000000000000000000000000000000000000000000000000000000000000000000000000000000000000000000000000000000000000000000000000000000000000000000000000000000000000000000000000000000000000000000000000000000000000000000000000000000000000000000000000000000000000000000000000000000000000000000000000000000000000000000000000000000000000000000000000000000000000000000000000000000000000000000000000000000000000000000000000000000000000000000000000000000000000000000000000000000000000000000000000000000000000000000000000000000000000000000000000000000000000000000000000000000000000000000000000000000000000000000000000000000000000000000000000000000000000
