This file was generated by Ched 2.7.0.0.
#TITLE ""
#ARTIST ""
#DESIGNER ""
#DIFFICULTY 0
#PLAYLEVEL
#SONGID ""
#WAVE ""
#WAVEOFFSET 0
#JACKET ""
#REQUEST "ticks_per_beat 480"
#00002: 4
#BPM01: 225.2
#00008: 01
#TIL00: "118'357:10000, 118'358:1, 83'1680:10000.0, 83'1684:1.0"
#VOLUME: ""
#HISPEED 00
#MEASUREHS 00
#00918:00130000
#00915:1300001300000000
#00912:0013
#0091b:0013
#0091a:24
#00910:41
#05912:00000013
#05916:1313
#0591b:1313
#05917:00000013
#04412:00131300
#04418:0000001300000000
#04416:1800000000140014
#0441b:00130013
#00212:00130013
#00217:13
#00215:0000000013130000
#00216:00000014
#01118:0000131300000000
#0111b:1300000013001313
#01116:13
#01112:0013
#01316:13
#01312:0000000000130000
#01317:0013
#0131b:0000131300001300
#0141b:1300000000130013
#01416:13000014
#01412:00131300
#0391b:1313
#03917:00130000
#03912:0000130000001313
#03916:0013
#04117:13
#04112:0000001313000000
#04116:0000000000001414
#04115:00130000
#0421b:13
#04217:0013
#04212:1300131300000000
#04215:0000000000001313
#0571b:00131313
#05714:0000000000000014
#0571a:14
#05712:24
#11013:0012
#1101b:0012
#11018:0000000000000012
#11116:12
#1111a:0012
#11115:00000012
#11113:00120000
#11114:0012
#11119:00000012
#1111b:00120000
#0011b:00130013
#00118:0000000013130000
#00116:23
#00119:23
#00316:14
#00315:00131300
#0031b:13001313
#00318:0000001300000000
#00412:1300130000000013
#0041b:00131300
#00415:00000013
#00418:0000000000130000
#00616:13000014
#0061b:00130013
#00618:0000000013130000
#00512:00130013
#00515:0000000013130000
#00517:13
#01015:00130000
#01018:1300001300000000
#0101b:0013
#01012:1313
#01515:0013000000130000
#01518:0000001300000000
#01512:2424
#0151a:00240024
#0261b:1313
#02612:00130013
#02616:24242400
#02619:0000000000530000
#02617:00000053
#02615:0000000000000053
#0251b:2300001313000000
#02512:13000013
#02516:00001324
#02217:1300000000131300
#02212:13001513
#0221b:0000131300000000
#02316:13000013
#02312:0000131300000000
#0231b:0000000000131300
#02317:0000001300000000
#02416:0000000014141414
#0241b:00130000
#02412:00130000
#03717:00130000
#03719:0013
#0371b:23000013
#03716:14000023
#03712:00230000
#03714:0023
#04017:13
#04016:0013
#04012:00130000
#0401b:00000013
#04512:1300000014000014
#04516:00000000140014000000001200000000
#0451a:00001414
#04518:0000000000120000
#0551b:00000013
#05516:0014000000001400
#05512:14140000
#05514:0028
#05616:1400000000140014
#05612:1314
#0561a:00001414
#05614:00280000
#05818:13
#05815:0000131300000000
#05819:0000000000130000
#0581b:0013
#05812:14001313
#05817:00000013
#05814:0000000000000013
#06012:1313
#0601b:13131353
#06016:00130013
#06019:0000000000530000
#06318:00130013
#06315:0000000000130000
#06312:00260013
#06412:00131c13
#0641b:13
#06416:24240024
#06410:00000041
#0651b:13
#06517:0013
#06512:001c1300
#06514:00000013
#06519:00000013
#06516:24
#0661b:13
#06616:13
#06614:00230000
#06613:0024
#06612:00000025
#06619:00232425
#06718:12
#0671a:0012
#0671f:11
#06715:0052
#06713:52
#01218:13
#01616:0000000000120012
#01618:0013000022001200
#01615:13
#01612:00240000
#0161a:00240000
#01715:00131300
#01718:0000001313000000
#0171b:13
#01712:24
#02712:13131313
#02718:0000001400140000
#02717:53
#02719:0053000000000000
#0271b:00530000
#02912:1313
#0291b:0000130000000013
#02916:24242400
#02812:0000001313000000
#0281b:13000013
#02817:0013
#02816:23000024
#03216:1400140014000013
#03212:2323
#0321b:00230000
#03116:00000014
#03112:0000001313000000
#03117:13
#0311b:00000023
#03114:53
#0331b:1323
#03316:13141414
#03312:00230023
#03816:00140000
#03818:00000013
#03812:2323
#03817:23
#03810:41
#04318:00140000
#04314:00131400
#04312:13000014
#04319:0013
#0431b:00000013
#05316:0000141400120000
#0531a:0000000014000014
#05312:00001414
#05318:00000000000000000000001200000000
#0531b:13
#0901b:0000001300001300
#09012:00192c13
#09015:29
#09014:0000000000000053
#08616:14141400
#0861b:0013001300001300
#08612:2413
#08812:0013
#08816:0000141400000000
#0881b:1300000000001313
#0881a:0024
#08916:13
#08918:0000131300001600
#08915:0000000000000013
#0891a:24
#08912:0029
#0911b:1313
#09117:0013000000000000
#09112:00130000
#09116:5300001300001414
#08515:0013130000000000
#08516:00000014
#0851b:23
#08512:2424
#0851a:00000024
#08510:0041
#0921a:1400001400000000
#09212:14142300
#09216:0012000024001400
#09218:00000012000000000000000000000000
#09916:0013000000001414
#09912:1313
#0991b:00130000
#09917:5300001300000000
#10012:140000142c001400
#1001a:14140000
#10018:0012000000000000
#10016:00000012000000000000000000000000
#10015:0000000000000013
#10017:00000013
#00816:0000000000121200
#00818:00000000130000000000001200001200
#0081b:1313
#00815:00130000
#00812:0013
#01812:13
#01818:13131300
#01815:0000001313000000
#00716:14
#00718:00131300
#00712:13001313
#00715:0000001300000000
#01915:0000131300000000
#01912:1300000013001313
#01917:13
#0191b:0013
#02117:13
#02116:0013
#02112:0000131300001300
#0211b:0000000000130000
#02110:41
#02015:13
#03018:13
#03015:0013000000000000
#03012:0000130000000053
#03017:00130000
#03016:0000000000130000
#03019:0000005300530000
#0301b:0053
#03014:00000053
#03412:13140014
#0341a:00240014
#03415:0000001300000000
#03417:0013
#0341b:23
#0351a:00140014
#03512:00240014
#03517:1313
#03519:0000001300000000
#0521b:00131300
#05215:0000001300000000
#05212:18130013
#05216:0000000000140014
#05210:41
#04712:1313
#04716:00130000
#0471b:0000130000001313
#04715:0000000000130000
#04718:0013
#05012:13
#05016:0013
#0501b:1300131300000000
#05018:0000000000001313
#0491b:0000001313000000
#04916:1300000000001414
#04918:00130000
#04912:00330000
#04616:23140000
#04615:00000013
#0461b:2323
#05114:00141300
#05118:0014
#0511a:00000014
#0511b:13
#05119:00130000
#05112:00000013
#05416:0000001400000000
#0541a:00141400
#05414:28000028
#09812:290000132c001300
#0981b:00000013
#09815:00190000
#09819:0000000000000053
#10412:13130000
#10418:0000001400001313
#10415:0013
#1041a:0014
#10212:2c13002c
#10216:00141400
#1021b:0013
#1031a:1424
#10316:0014001400000000
#10312:14141413
#10514:0013000000000000
#10512:132c
#1051b:13130000
#10516:00130000
#10519:0000001300000000
#1051a:00000014
#10112:142c0000
#10118:0000000000130000
#1011a:00001414
#10117:13
#10116:00001313
#10612:00140000
#1061a:00000014
#10614:28
#10616:0024
#10712:00140000
#10717:22
#09712:24000016
#09718:0000000000000013
#09717:13
#09715:0000131329000000
#08414:00000013
#08419:00000013
#08418:0026
#08412:0026
#0841f:0021
#08014:00120052
#08017:0000001200000000
#0801a:0012
#08018:12
#0751a:12
#07518:0012
#07515:0052
#07513:52
#0761a:12
#07619:00120000
#07618:0012
#07615:0052
#07613:52
#07719:00120000
#07718:12000012
#0771a:0012
#07715:0052
#07713:52
#07818:00120000
#07816:0012
#07814:00000012
#0781a:12
#07813:52
#07918:1212
#07916:00120012
#06918:12
#0691a:0012
#06915:0052
#06913:52
#07018:12
#07017:00120000
#07016:0012
#07013:52
#07116:12
#07114:0012
#07119:0052
#0711b:52
#07314:0012
#0731b:52
#07319:0052
#07316:52
#04816:13
#04817:0013
#0481b:00130000
#04812:00000013
#09416:14141400
#0941b:0013
#09412:0013001300001300
#0941a:24
#0951a:0014
#09512:0000140000001313
#0951b:13
#09516:0014
#0961b:0013
#09616:0000141400000000
#09612:1300000024001313
#09318:0013130000000000
#09316:00000014
#09312:23000024
#0931a:0024
#11215:1212
#11219:12120012
#11217:0000001200000000
#11317:1212
#11315:00120000
#08712:1314
#0871b:0000000000001313
#0871a:00140000
#08716:0014
#03612:00140014
#0361a:00240014
#03614:0000001300000000
#03616:1414
#06112:001c
#0611a:24240000
#06118:00000024
#06212:001c0000
#06218:24
#06216:00002424
#0001c:00002222
#00012:00002222
#07418:00220022
#07416:2222
#0741b:52
#06815:0052
#06813:52
#0681a:0052
#07219:0052
#0721b:52
#11414:00520000
#11416:0052
#11418:00000052
#1141b:00520000
#1151a:52
#11513:52
#11515:00520000
#11517:0052
#11519:00000052
#11617:52
#11615:00520000
#11613:0052
#0821a:52525252
#08214:0052005200520052
#0831a:52000000520000520052005200520000
#08314:0052005252525252
#0811a:5252
#08114:00520052
#00156:53
#00257:53
#00952:0053
#00955:63000013
#0095b:0063
#00958:00000013
#01356:53
#0135b:13
#0145b:53
#03857:53
#03852:1323
#0395b:0053
#03956:0013
#04157:63
#0425b:53
#04257:0063
#05454:18000018
#05752:54
#0035b:53000053
#00355:0053
#00458:13
#00452:13
#00656:63
#00557:63
#0105b:0063
#01058:53000013
#01052:0053
#01055:00000013
#01156:63
#01152:0053
#02257:00000063
#02356:13000053
#0235b:13000063
#02352:0000005300000000
#02552:53000013
#04057:53
#04056:0063
#05554:0018
#05654:00180000
#05858:63
#0595b:63
#05956:63
#06052:5353
#06056:00230023
#06358:00530000
#06352:4c360000
#01252:00130000
#01255:00000013
#01258:0013
#0175b:63000013
#01758:0053
#01755:0063
#01752:00000013
#02452:13
#02457:13
#0285b:63000013
#0265b:13
#02652:00130000
#02952:1353
#0295b:00130000
#03156:00000014
#03157:53
#03256:14145400
#03356:00141414
#04358:00140000
#04354:0014
#04352:00000014
#0435a:14
#04452:0053
#04456:0000000000240024
#0445b:00000063
#08852:0063
#08856:14
#08956:53
#08952:0019
#0915b:6343
#09157:0023000000000000
#09152:00533300
#09156:0000002300000000
#10654:18
#10656:0014
#10757:12
#01852:53000013
#01855:0063
#01858:0053
#0185b:00000013
#02752:00000033
#00752:63000063
#00758:0063
#0085b:13
#00855:13
#02157:63
#02152:13
#01957:53
#0195b:0063
#0205b:00130000
#02055:0013
#02058:00000013
#0455b:43
#04552:33
#05052:63
#05056:0053
#0535b:43
#05352:33
#05154:00140000
#05158:0014
#0515a:00000014
#05152:14
#0525b:0063
#05256:0000000000240024
#05252:00000053
#04656:63
#0465b:1323
#09952:5333
#09956:0023000000000000
#0995b:00634300
#09957:0000002300000000
#09256:0054
#09252:0013
#10455:0053
#10052:001c
#1035a:0064
#10152:001c0000
#10252:1c00001c
#10552:001c
#0855b:23
#08458:0016
#08452:0016
#09055:19
#09052:001c
#09755:0019
#09757:63
#09852:191c
#08652:1463
#0865b:00000063
#04956:53
#04856:63
#04857:0053
#0955a:0064
#0955b:53
#09552:00140000
#0965b:0053
#09656:14
#0945b:0053
#09452:00000053
#0945a:14
#09352:23
#08752:6354
#0875a:00140000
#03656:1414
#03756:14
#06152:004c
#06252:004c0000
#06452:001c
#06552:001c0000
#04758:0013
#001360:13
#002320:23
#002371:13
#0023b1:0023
#0033b1:13
#003381:00230000
#003351:0013
#003321:00000023
#0033b0:00000013
#004380:23
#005370:13
#0063b0:23
#006361:13
#006321:0023
#007321:13
#007351:00230000
#007381:0013
#0073b1:00000023
#007320:00000013
#008350:23
#009350:13
#009320:00230000
#009320:0013
#009350:00000023
#0093b1:0013
#009381:00000023
#010381:13
#0103b1:00230000
#0103b1:0013
#010381:00000023
#010320:0013
#010350:00000023
#011360:13
#011320:00230000
#011320:0013
#011360:00000023
#012320:13230000
#012381:00132300
#012350:00001323
#0123b1:00000013
#0133b1:23
#013360:13
#013320:0023
#0143b0:13
#014370:0023
#0173b0:13
#017380:00230000
#017380:0013
#0173b0:00000023
#017351:0013
#017321:00000023
#018321:13
#018351:00230000
#018351:0013
#018321:00000023
#018380:0013
#0183b0:00000023
#019370:13
#0193b0:00230000
#0193b0:0013
#019370:00000023
#0203b0:13230000
#020351:00132300
#020380:00001323
#020321:00000013
#021321:23
#021370:13
#0213b0:0023
#022370:00000013
#0233b0:23
#023320:0000001300000000
#023360:00000033
#024320:23
#0233b1:00000013
#024371:23
#025321:13
#025361:0000002300000000
#0283b1:13
#028371:0000002300000000
#029321:0013
#029361:0000000000000024
#031371:13
#0313b1:0000003323000000
#032361:0014
#0323b1:0000000000000023
#038371:13
#0383b1:0023
#038320:0013
#039360:23
#0393b0:0013
#039370:00000023
#040370:13
#0403b0:0023
#040361:0013
#041321:23
#041370:13
#0413b0:0000003323000000
#0423b0:13
#042370:0000002300000000
#042370:0013
#0433a0:24
#044320:00001323
#044360:0000000000540000
#0443b1:00000013
#044361:0000000000000054
#0453b1:23
#046361:13
#046321:0023
#0463b0:0013
#047370:23
#048360:13
#048320:0023
#048371:0013
#0493b1:23
#049360:13
#049320:0000333323000000
#050320:13
#050360:0000002300000000
#050360:0013
#051320:24
#0523b0:00001323
#052360:0000000000540000
#052321:00000013
#052361:0000000000000054
#053321:23
#057321:14
#057361:00000024
#058381:13
#0583b1:00230000
#059361:13
#059321:00230000
#0593b0:13
#059370:00230000
#060320:1333
#060360:00530053
#061320:36
#062320:000000000000000000000000000000000000000000000000000000000000000000000000000000000000000000000000000000000000000000000000000000000000000000000000000000000000000000000000000000000000000000000000000000000000000000000000000000000000000000000000000000000000000000000000000000000000000000000000000000000000000000000000000000000000000000000000000000000000000000000000000000000000000000000000000000000000000000000000000000000000000000000000000000000000000000000000000000000000000000000000000000000000000000000000000000000000000000000000000000000000000000000000000000000000000000000000000000000000000000000000000000000000000000000000000000000000000000000000000000000000000000000000000000000000000000000000000000000000000000000000000000000000000000000000000000000000000000000000000000000000000000000000000000000000000000000000000000000000000000000000000000000000000000000000000000000000000000000000000000000000000000000000000000000000000000000000000000000000000000000000000000000000000000000000000000000000000000000000000000000000000000000000000000000000000000000000000000000000000000000000000000000000000000000000000000000000000000000000000000000000000000000000000000000000000000000000000000000000000000000000000000000000000000000000000000000000000000000000000000000000000000000000000000000000000000000000000000000000000000000000000000000000000000000000000000000000000000000000000000000000000000000000000000000000000000000000000000000000000000000000000000000000000000000000000000000000000000000000000000000000000000000000000000000000000000000000000000000000000000000000000000000000000000000000000000000000000000000000000000000000000000000000000000000000000000000000000000000000000000000000000000000000000000000000000000000000000000000000000000000000000000000000000000000000000000000000000000000000000000000000000000000000000000000000000000000000000000000000000000000000000000000000000000000000000000000000000000000000000000000053
#063320:2c
#063380:00130000
#0633b0:0000000000230000
#068380:12
#068390:00320000
#0683a0:0022
#072360:12
#072350:00320032
#072340:0032
#073360:22
#0853b0:13
#085360:0024
#086320:0013
#086370:00000023
#0863b1:00000013
#087361:23
#087320:13
#087370:00230000
#087320:0014
#088360:24
#088320:0013
#088360:0000000000000023
#089360:13
#089320:0000002300000000
#0913b0:13230000
#091370:0053000000000000
#091321:00132300
#091361:0000005300000000
#092361:0014
#0933b1:23
#093320:13
#093360:0024
#0943b0:0013
#094360:00000023
#094321:00000013
#095371:23
#0953b0:13
#095360:00230000
#0953a0:0014
#096360:24
#0963b0:0013
#096370:0000000000000023
#097370:13
#0973b0:0000002300000000
#099320:13230000
#099360:0053000000000000
#0993b1:00132300
#099371:0000005300000000
#1033a1:0014
#104361:00240000
#104351:0013
#104321:00000023
#107371:0012
#109321:0000002c
#0269b0:0013
#026950:0000000000000053
#0279b0:00230000
#030970:00130000
#0309b0:0053
#030990:0000000000230000
#030961:0000000000130000
#030921:0000000000000053
#031941:23
#0609b1:00001323
#060991:0000000000530000
#067931:12
#067951:000000000000000000000000000000000000000000000000000000000000000000000000000000000000000000000000000000000000000000000000000000000000000000000000000000000000000000000000000000000000000000000000000000000000000000000000000000000000000000000000000000000000000000000000000000000000000000000000000000000000000000000000000000000000000000000000000000000000000000000000000000000000000000000022000000000000000000000000000000000000000000000000000000000000000000000000000000000000000000000000000000000000000000000000000000000000000000000000000000000000000000000000000000000000000000000000000000000000000000000000000000000000000000000000000000000000000000000000000000000000000000000000000000000000000000000000000000000000000000000000000000000000000000000000000000000000000000000000
#067951:0012
#067931:000000000000000000000000000000000000000000000000000000000000000000000000000000000000000000000000000000000000000000000000000000000000000000000000000000000000000000000000000000000000000000000000000000000000000000000000000000000000000000000000000000000000000000000000000000000000000000000000000000000000000000000000000000000000000000000000000000000000000000000000000000000000000000000000000000000000000000000000000000000000000000000000000000000000000000000000000000000000000000000000000000000000000000000000000000000000000000000000000000000000000000000000000000000000000000000000000000000000000000000000000000000000000000000000000000000000000000000000000000000000000000000000000000000000000000000000000000000000000000000000000000000000000000000000000000000000000000000022
#068931:12
#068951:000000000000000000000000000000000000000000000000000000000000000000000000000000000000000000000000000000000000000000000000000000000000000000000000000000000000000000000000000000000000000000000000000000000000000000000000000000000000000000000000000000000000000000000000000000000000000000000000000000000000000000000000000000000000000000000000000000000000000000000000000000000000000000000022000000000000000000000000000000000000000000000000000000000000000000000000000000000000000000000000000000000000000000000000000000000000000000000000000000000000000000000000000000000000000000000000000000000000000000000000000000000000000000000000000000000000000000000000000000000000000000000000000000000000000000000000000000000000000000000000000000000000000000000000000000000000000000000000
#068951:0012
#068931:000000000000000000000000000000000000000000000000000000000000000000000000000000000000000000000000000000000000000000000000000000000000000000000000000000000000000000000000000000000000000000000000000000000000000000000000000000000000000000000000000000000000000000000000000000000000000000000000000000000000000000000000000000000000000000000000000000000000000000000000000000000000000000000000000000000000000000000000000000000000000000000000000000000000000000000000000000000000000000000000000000000000000000000000000000000000000000000000000000000000000000000000000000000000000000000000000000000000000000000000000000000000000000000000000000000000000000000000000000000000000000000000000000000000000000000000000000000000000000000000000000000000000000000000000000000000000000000022
#069931:12
#069951:000000000000000000000000000000000000000000000000000000000000000000000000000000000000000000000000000000000000000000000000000000000000000000000000000000000000000000000000000000000000000000000000000000000000000000000000000000000000000000000000000000000000000000000000000000000000000000000000000000000000000000000000000000000000000000000000000000000000000000000000000000000000000000000022000000000000000000000000000000000000000000000000000000000000000000000000000000000000000000000000000000000000000000000000000000000000000000000000000000000000000000000000000000000000000000000000000000000000000000000000000000000000000000000000000000000000000000000000000000000000000000000000000000000000000000000000000000000000000000000000000000000000000000000000000000000000000000000000
#069951:0012
#069931:000000000000000000000000000000000000000000000000000000000000000000000000000000000000000000000000000000000000000000000000000000000000000000000000000000000000000000000000000000000000000000000000000000000000000000000000000000000000000000000000000000000000000000000000000000000000000000000000000000000000000000000000000000000000000000000000000000000000000000000000000000000000000000000000000000000000000000000000000000000000000000000000000000000000000000000000000000000000000000000000000000000000000000000000000000000000000000000000000000000000000000000000000000000000000000000000000000000000000000000000000000000000000000000000000000000000000000000000000000000000000000000000000000000000000000000000000000000000000000000000000000000000000000000000000000000000000000000022
#0719b1:12
#071991:000000000000000000000000000000000000000000000000000000000000000000000000000000000000000000000000000000000000000000000000000000000000000000000000000000000000000000000000000000000000000000000000000000000000000000000000000000000000000000000000000000000000000000000000000000000000000000000000000000000000000000000000000000000000000000000000000000000000000000000000000000000000000000000022000000000000000000000000000000000000000000000000000000000000000000000000000000000000000000000000000000000000000000000000000000000000000000000000000000000000000000000000000000000000000000000000000000000000000000000000000000000000000000000000000000000000000000000000000000000000000000000000000000000000000000000000000000000000000000000000000000000000000000000000000000000000000000000000
#071991:0012
#0719b1:000000000000000000000000000000000000000000000000000000000000000000000000000000000000000000000000000000000000000000000000000000000000000000000000000000000000000000000000000000000000000000000000000000000000000000000000000000000000000000000000000000000000000000000000000000000000000000000000000000000000000000000000000000000000000000000000000000000000000000000000000000000000000000000000000000000000000000000000000000000000000000000000000000000000000000000000000000000000000000000000000000000000000000000000000000000000000000000000000000000000000000000000000000000000000000000000000000000000000000000000000000000000000000000000000000000000000000000000000000000000000000000000000000000000000000000000000000000000000000000000000000000000000000000000000000000000000000000022
#0729b1:12
#072991:000000000000000000000000000000000000000000000000000000000000000000000000000000000000000000000000000000000000000000000000000000000000000000000000000000000000000000000000000000000000000000000000000000000000000000000000000000000000000000000000000000000000000000000000000000000000000000000000000000000000000000000000000000000000000000000000000000000000000000000000000000000000000000000022000000000000000000000000000000000000000000000000000000000000000000000000000000000000000000000000000000000000000000000000000000000000000000000000000000000000000000000000000000000000000000000000000000000000000000000000000000000000000000000000000000000000000000000000000000000000000000000000000000000000000000000000000000000000000000000000000000000000000000000000000000000000000000000000
#072991:0012
#0729b1:000000000000000000000000000000000000000000000000000000000000000000000000000000000000000000000000000000000000000000000000000000000000000000000000000000000000000000000000000000000000000000000000000000000000000000000000000000000000000000000000000000000000000000000000000000000000000000000000000000000000000000000000000000000000000000000000000000000000000000000000000000000000000000000000000000000000000000000000000000000000000000000000000000000000000000000000000000000000000000000000000000000000000000000000000000000000000000000000000000000000000000000000000000000000000000000000000000000000000000000000000000000000000000000000000000000000000000000000000000000000000000000000000000000000000000000000000000000000000000000000000000000000000000000000000000000000000000000022
#0739b1:12
#073991:000000000000000000000000000000000000000000000000000000000000000000000000000000000000000000000000000000000000000000000000000000000000000000000000000000000000000000000000000000000000000000000000000000000000000000000000000000000000000000000000000000000000000000000000000000000000000000000000000000000000000000000000000000000000000000000000000000000000000000000000000000000000000000000022000000000000000000000000000000000000000000000000000000000000000000000000000000000000000000000000000000000000000000000000000000000000000000000000000000000000000000000000000000000000000000000000000000000000000000000000000000000000000000000000000000000000000000000000000000000000000000000000000000000000000000000000000000000000000000000000000000000000000000000000000000000000000000000000
#073991:0012
#0739b1:000000000000000000000000000000000000000000000000000000000000000000000000000000000000000000000000000000000000000000000000000000000000000000000000000000000000000000000000000000000000000000000000000000000000000000000000000000000000000000000000000000000000000000000000000000000000000000000000000000000000000000000000000000000000000000000000000000000000000000000000000000000000000000000000000000000000000000000000000000000000000000000000000000000000000000000000000000000000000000000000000000000000000000000000000000000000000000000000000000000000000000000000000000000000000000000000000000000000000000000000000000000000000000000000000000000000000000000000000000000000000000000000000000000000000000000000000000000000000000000000000000000000000000000000000000000000000000000022
#075931:12
#075951:000000000000000000000000000000000000000000000000000000000000000000000000000000000000000000000000000000000000000000000000000000000000000000000000000000000000000000000000000000000000000000000000000000000000000000000000000000000000000000000000000000000000000000000000000000000000000000000000000000000000000000000000000000000000000000000000000000000000000000000000000000000000000000000022000000000000000000000000000000000000000000000000000000000000000000000000000000000000000000000000000000000000000000000000000000000000000000000000000000000000000000000000000000000000000000000000000000000000000000000000000000000000000000000000000000000000000000000000000000000000000000000000000000000000000000000000000000000000000000000000000000000000000000000000000000000000000000000000
#075951:0012
#075931:000000000000000000000000000000000000000000000000000000000000000000000000000000000000000000000000000000000000000000000000000000000000000000000000000000000000000000000000000000000000000000000000000000000000000000000000000000000000000000000000000000000000000000000000000000000000000000000000000000000000000000000000000000000000000000000000000000000000000000000000000000000000000000000000000000000000000000000000000000000000000000000000000000000000000000000000000000000000000000000000000000000000000000000000000000000000000000000000000000000000000000000000000000000000000000000000000000000000000000000000000000000000000000000000000000000000000000000000000000000000000000000000000000000000000000000000000000000000000000000000000000000000000000000000000000000000000000000022
#076931:12
#076951:000000000000000000000000000000000000000000000000000000000000000000000000000000000000000000000000000000000000000000000000000000000000000000000000000000000000000000000000000000000000000000000000000000000000000000000000000000000000000000000000000000000000000000000000000000000000000000000000000000000000000000000000000000000000000000000000000000000000000000000000000000000000000000000022000000000000000000000000000000000000000000000000000000000000000000000000000000000000000000000000000000000000000000000000000000000000000000000000000000000000000000000000000000000000000000000000000000000000000000000000000000000000000000000000000000000000000000000000000000000000000000000000000000000000000000000000000000000000000000000000000000000000000000000000000000000000000000000000
#076951:0012
#076931:000000000000000000000000000000000000000000000000000000000000000000000000000000000000000000000000000000000000000000000000000000000000000000000000000000000000000000000000000000000000000000000000000000000000000000000000000000000000000000000000000000000000000000000000000000000000000000000000000000000000000000000000000000000000000000000000000000000000000000000000000000000000000000000000000000000000000000000000000000000000000000000000000000000000000000000000000000000000000000000000000000000000000000000000000000000000000000000000000000000000000000000000000000000000000000000000000000000000000000000000000000000000000000000000000000000000000000000000000000000000000000000000000000000000000000000000000000000000000000000000000000000000000000000000000000000000000000000022
#077931:12
#077951:000000000000000000000000000000000000000000000000000000000000000000000000000000000000000000000000000000000000000000000000000000000000000000000000000000000000000000000000000000000000000000000000000000000000000000000000000000000000000000000000000000000000000000000000000000000000000000000000000000000000000000000000000000000000000000000000000000000000000000000000000000000000000000000022000000000000000000000000000000000000000000000000000000000000000000000000000000000000000000000000000000000000000000000000000000000000000000000000000000000000000000000000000000000000000000000000000000000000000000000000000000000000000000000000000000000000000000000000000000000000000000000000000000000000000000000000000000000000000000000000000000000000000000000000000000000000000000000000
#077951:0012
#077931:000000000000000000000000000000000000000000000000000000000000000000000000000000000000000000000000000000000000000000000000000000000000000000000000000000000000000000000000000000000000000000000000000000000000000000000000000000000000000000000000000000000000000000000000000000000000000000000000000000000000000000000000000000000000000000000000000000000000000000000000000000000000000000000000000000000000000000000000000000000000000000000000000000000000000000000000000000000000000000000000000000000000000000000000000000000000000000000000000000000000000000000000000000000000000000000000000000000000000000000000000000000000000000000000000000000000000000000000000000000000000000000000000000000000000000000000000000000000000000000000000000000000000000000000000000000000000000000022
#080941:00120000
#083941:000000000000000000000000000000000000000000000000000000000000000000000000000000000000000000000000000000000000000000000000000000000000000000000000000000000000000000000000000000000000000000000000000000000000000000000000000000000000000000000000000000000000000000000000000000000000000000000000000000000000000000000000000000000000000000000000000000000000000000000000000000000000000000000000000000000000000000000000000000000000000000000000000000000000000000000000000000000000000000000000000000000000000000000000000000000000000000000000000000000000000000000000000000000000000000000000000000000000000000000000000000000000000000000000000000000000000000000000000000000000000000000000000000000000000000000000000000000000000000000000000000000000000000000000000000000000000000000000000000000000000000000000000000000000000000000000000000000000000000000000000000000000000000000000000000000000000000000000000000000000000000000000000000000000000000000000000000000000000000000000000000000000000000000000000000000000000000000000000000000000000000000000000000000000000000000000000000000000000000000000000000000000000000000000000000000000000000000000000000000000000000000000000000000000000000000000000000000000000000000000000000000000000000000000000000000000000000000000000000000000000000000000000000000000000000000000000000000000000000000000000000000000000000000000000000000000000000000000000000000000000000000000000000000000000000000000000000000000000000000000000000000000000000000000000000000000000000000000000000000000000000000000000000000000000000000000000000000000000000000000000000000000000000000000000000000000000000000000000000000000000000000000000000000000000000000000000000000000000000000000000000000000000000000000000000000000000000000000000000000000000000000000000000000000000000000000000000000000000000000000000000000000000000000000000000000000000000000000000000000000000000000000000000000000000000000000000000000000000000000000000000000000000000000000000000000000000000000000000000000000000000000000000000000000000000000000000000000000000000000000000000000000000000000000000000000000000000000000000000000000000000000000000000000000000000000000000000000000000000000000000000000000000000000000000000000000000000000000000000000000000000000000000000000000000000000000000000000000000000000000000000000000000000000000000000000000000000000000000000000000000000000000000000000000000000000000000000000000000000000000000000000000000000000000000000000000000000000000000000000000000000000000000000000000000000000000000000000000000000000000000000000000000000000000000000000000000000000000000000000000000000000000000000000000000000000000000000000000000000000000000000000000000000000000000000000000000000000000000000000000000000000000000000000000000000000000000000000000000000000000000000000000000000000000000000000000000000000000000000000000000000000000000000000000000000000000000000000000000000000000000000000000000000000000000000000000000000000000000000000000000000000000000000000000000000000000000000000000000000000000000000000000000000000000000000000000000000000000000000000000000000000000000000000000000000000000000000000000000000000000000000000000000000000000000000000000000000000000000000000000000000000000000000000000000000000000000000000000000000000000000000000000000000000000000000000000000000000000000000000000000000000000000000000000000000000000000000000000000000000000525252522200000000000000000000000000000000000000000000000000000000000000000000000000000000000000000000000000000000000000000000000000000000000000000000000000000000000000000000000000000000000000000000000000000000000000000000000000000000000000000000000000000000000000000000000000000000000000000000000000000000000000000000000000000000000000000000000000000000000000000000000000000000000000000000000000000000000000000000000000000000000000000000000000000000000000000000000000000000000000
#0809a0:0012
#0839a0:000000000000000000000000000000000000000000000000000000000000000000000000000000000000000000000000000000000000000000000000000000000000000000000000000000000000000000000000000000000000000000000000000000000000000000000000000000000000000000000000000000000000000000000000000000000000000000000000000000000000000000000000000000000000000000000000000000000000000000000000000000000000000000000000000000000000000000000000000000000000000000000000000000000000000000000000000000000000000000000000000000000000000000000000000000000000000000000000000000000000000000000000000000000000000000000000000000000000000000000000000000000000000000000000000000000000000000000000000000000000000000000000000000000000000000000000000000000000000000000000000000000000000000000000000000000000000000000000000000000000000000000000000000000000000000000000000000000000000000000000000000000000000000000000000000000000000000000000000000000000000000000000000000000000000000000000000000000000000000000000000000000000000000000000000000000000000000000000000000000000000000000000000000000000000000000000000000000000000000000000000000000000000000000000000000000000000000000000000000000000000000000000000000000000000000000000000000000000000000000000000000000000000000000000000000000000000000000000000000000000000000000000000000000000000000000000000000000000000000000000000000000000000000000000000000000000000000000000000000000000000000000000000000000000000000000000000000000000000000000000000000000000000000000000000000000000000000000000000000000000000000000000000000000000000000000000000000000000000000000000000000000000000000000000000000000000000000000000000000000000000000000000000000000000000000000000000000000000000000000000000000000000000000000000000000000000000000000000000000000000000000000000000000000000000000000000000000000000000000000000000000000000000000000000000000000000000000000000000000000000000000000000000000000000000000000000000000000000000000000000000000000000000000000000000000000000000000000000000000000000000000000000000000000000000000000000000000000000000000000000000000000000000000000000000000000000000000000000000000000000000000000000000000000000000000000000000000000000000000000000000000000000000000000000000000000000000000000000000000000000000000000000000000000000000000000000000000000000000000000000000000000000000000000000000000000000000000000000000000000000000000000000000000000000000000000000000000000000000000000000000000000000000000000000000000000000000000000000000000000000000000000000000000000000000000000000000000000000000000000000000000000000000000000000000000000000000000000000000000000000000000000000000000000000000000000000000000000000000000000000000000000000000000000000000000000000000000000000000000000000000000000000000000000000000000000000000000000000000000000000000000000000000000000000000000000000000000000000000000000000000000000000000000000000000000000000000000000000000000000000000000000000000000000000000000000000000000000000000000000000000000000000000000000000000000000000000000000000000000000000000000000000000000000000000000000000000000000000000000000000000000000000000000000000000000000000000000000000000000000000000000000000000000000000000000000000000000000000000000000000000000000000000000000000000000000000000000000000000000000000000000000000000000000000000000000000000000000000000000000000000000000000000000000000000000000000000000000000000000000000525252522200000000000000000000000000000000000000000000000000000000000000000000000000000000000000000000000000000000000000000000000000000000000000000000000000000000000000000000000000000000000000000000000000000000000000000000000000000000000000000000000000000000000000000000000000000000000000000000000000000000000000000000000000000000000000000000000000000000000000000000000000000000000000000000000000000000000000000000000000000000000000000000000000000000000000000000000000000000000000
#090920:00000013
#091960:23
#0989b0:00000013
#099970:23
#1189d0:000000000000000000000000000000000000000000000000000000000000000000000000000000000000000000000000000000000000000000000000000000000000000000000000000000000000000000000000000000000000000000000000000000000000000000000000000000000000000000000000000000000000000000000000000000000000000000000000000000000000000000000000000000000000000000000000000000000000000000000000000000000000000000000000000000000000000000000000000000000000000000000000000000000000000000000000000000000000000000000000000000000000000000000000000000000000000000000000000000000000000000000000000000000000000000000000000000000000000000000000000000000000000000000000000000000000000000000000000000000000000000000000000000000000000000000000000000000000000000001121000000000000000000000000000000000000000000000000000000000000000000000000000000000000000000000000000000000000000000000000000000000000000000000000000000000000000000000000000000000000000000000000000000000000000000000000000000000000000000000000000000000000000000000000000000000000000000000000000000000000000000000000000000000000000000000000000000000000000000000000000000000000000000000000000000000000000000000000000000000000000000000000000000000000000000000000000000000000000000000000000000000000000000000000000000000000000000000000000000000000000000000000000000000000000000000000000000000000000000000000000000000000000000000000000000000000000000000000000000000000000000000000000000000000000000000000000000000000000000000000000000000000000000000000000000000000000000000000000000000000000000000000000000000000000000000000000000000000000000000000000000000000000000000000000000000000000000000000000000000000000000000000000000000000000000000000000000000000000000000000000000000000000000000000000000000000000000000000000000000000000000000000000000000000000000000000000000000000000000000000000000000000000000000000000000000000000000000000000000000000000000000000000000000000000000000000000000000000000000000000000000000000000000000000000000000000000000000000000000000000000000000000000000000000000000000000000000000000000000000000000000000000000000000000000000000000000000000000000000000000000000000000000000000000000000000000000000000000000000000000000000000000000000000000000000000000000000000000000000000000000000000000000000000000000000000000000000000000000000000000000000000000000000000000000000000000000000000000000000000000000000000000000000000000000000000000000000000000000000000000000000000000000000000000000000000000000000000000000000000000000000000000000000000000000000000000000000000000000000000000000000000000000000000000000000000000000000000000000000000000000000000000000000000000000000000000000000000000000000000000000000000000000000000000000000000000000000000000000000000000000000000000000000000000000000000000000000000000000000000000000000000000000000000000000000000000000000000000000000000000000000000000000000000000000000000000000000000000000000000000000000000000000000000000000000000000000000000000000000000000000000000000000000000000000000000000000000000000000000000000000000000000000000000000000000000000000000000000000000000000000000000000000000000000000000000000000000000000000000000000000000000000000000000000000000000000000000000000000000000000000000000000000000000000000000000000000000000000000000000000000000000000000000000000000000000000000000000000000000000000000000000000000000000000000000000000000000000000000000000000000000000000000000000000000000000000000000000000000000000000000000000000000000000000000000000000000000000000000000000000000000000000000000000000000000000000000000000000000000000000000000000000000000000000000000000000000000000000000000000000000000000000000000000000000000000000000000000000000000000000000000000000000000000000000000000000000000000000000000000000000000000000000000000000000000000000000000000000000000000000000000000000000000000000000000000000000000000000000000000000
