This file was generated by Ched 2.7.0.0.
#TITLE ""
#ARTIST ""
#DESIGNER ""
#DIFFICULTY 0
#PLAYLEVEL
#SONGID ""
#WAVE ""
#WAVEOFFSET 0
#JACKET ""
#REQUEST "ticks_per_beat 480"
#00002: 4
#BPM01: 225.2
#00008: 01
#TIL00: "118'357:10000, 118'358:1"
#VOLUME: ""
#HISPEED 00
#MEASUREHS 00
#00314:14
#00318:0014
#00918:0014
#00912:14
#00910:41
#01114:14
#0111a:0014
#01214:14
#0121a:0014
#00414:14
#00418:0014
#00714:14
#00718:0014
#00814:14
#0081a:0024
#01012:14
#01018:0014
#01714:0014
#0171a:14
#01918:14
#01912:0014
#02018:14
#02012:0014
#0181a:14
#01814:0014
#01512:0014
#0151a:14
#02418:0014
#03612:14
#03912:1414
#03918:00140000
#0401a:14
#04014:0014
#0431a:1414
#04314:00140000
#04412:14
#04416:0014
#05112:1414
#05118:00140000
#0521a:14
#05216:0014
#05210:41
#05812:0014
#06714:14
#0671f:11
#07112:14
#0731a:14
#07514:14
#07718:14
#0901a:0014
#09012:14
#09116:14
#09112:0024
#1051a:14
#10514:0024
#0591a:14
#05914:0014
#06012:0014
#06018:14
#00212:14
#0021a:0014
#0011a:0014
#00112:24
#00612:14
#0061a:0014
#0051a:0014
#00512:24
#01314:14
#02118:14
#02110:41
#03414:14
#03518:0014
#04214:14
#0471a:1414
#04714:00140000
#04812:14
#04818:0014
#05018:14
#0611a:14340034
#06413:14140000
#06419:00000014
#06410:00000041
#06519:14
#06918:14
#0851a:0014
#08514:00000014
#08510:0041
#0861a:14
#08612:0014
#08718:14
#08714:0014
#0871a:00000014
#08814:14
#08818:0014
#08912:0014
#08918:00000014
#09312:0014
#09318:00000014
#09412:14
#0941a:0014
#09514:14
#09518:0014
#09512:00000014
#09618:14
#09614:0014
#09812:0014
#0981a:14
#09916:14
#0991a:0024
#0971a:0014
#09714:00000014
#1101a:0014
#11114:00140000
#11218:14
#11212:00000014
#1131a:0013
#11415:00130000
#11518:13
#11513:00000013
#05418:26
#05412:00000026
#05518:0026
#05718:26
#03818:24
#03810:41
#05612:00260000
#07912:24
#08219:0024
#08412:0024
#0841f:0021
#1061a:24
#10612:0024
#10718:24
#10714:0024
#0451a:24
#05312:24
#04614:24
#0921a:0024
#10012:0026
#10212:26
#10218:00000026
#10312:0026
#10118:00260000
#0621a:34003434
#03652:64
#06754:54
#07152:54
#0735a:64
#07554:64
#07758:54
#07952:64
#0085a:0014
#01354:54
#02158:64
#03454:54
#0455a:14
#04254:54
#03858:54
#05058:64
#04654:64
#05352:14
#0615a:54
#05758:56
#06958:54
#08452:0054
#08858:0054
#09152:0014
#09654:0064
#0925a:0064
#0995a:0014
#10352:0066
#013340:14
#014320:24
#021380:14
#0223a0:24
#023320:14
#024340:24
#025340:14
#025320:00000034
#026340:0024
#028380:14
#0283a0:00000034
#029380:0034
#0303a0:00240000
#031340:14
#031320:00000034
#032340:0034
#033320:00340000
#034340:34
#035320:24
#036320:14
#037340:24
#038380:14
#0383a0:0024
#041380:1424
#042340:14
#042320:0024
#046340:14
#046320:0024
#049340:1424
#050380:14
#0503a0:0024
#057380:16
#058350:26
#0613a0:14340034
#0623a0:34003434
#063380:00240000
#065340:0014
#065330:00000034
#066340:3434
#066330:00340034
#067340:34
#068320:24
#069380:14
#0703a0:24
#071320:14
#072340:24
#0733a0:14
#074380:24
#075340:14
#076320:24
#077380:14
#0783a0:24
#079320:14
#080340:24
#082390:0014
#083380:0000000000000026
#084320:0014
#085340:24
#088380:0014
#0893a0:24
#0923a0:0014
#093380:24
#096340:0014
#097320:24
#103320:0016
#104350:0026
#107340:0014
#109320:00000024
#1189d0:000000000000000000000000000000000000000000000000000000000000000000000000000000000000000000000000000000000000000000000000000000000000000000000000000000000000000000000000000000000000000000000000000000000000000000000000000000000000000000000000000000000000000000000000000000000000000000000000000000000000000000000000000000000000000000000000000000000000000000000000000000000000000000000000000000000000000000000000000000000000000000000000000000000000000000000000000000000000000000000000000000000000000000000000000000000000000000000000000000000000000000000000000000000000000000000000000000000000000000000000000000000000000000000000000000000000000000000000000000000000000000000000000000000000000000000000000000000000000000001121000000000000000000000000000000000000000000000000000000000000000000000000000000000000000000000000000000000000000000000000000000000000000000000000000000000000000000000000000000000000000000000000000000000000000000000000000000000000000000000000000000000000000000000000000000000000000000000000000000000000000000000000000000000000000000000000000000000000000000000000000000000000000000000000000000000000000000000000000000000000000000000000000000000000000000000000000000000000000000000000000000000000000000000000000000000000000000000000000000000000000000000000000000000000000000000000000000000000000000000000000000000000000000000000000000000000000000000000000000000000000000000000000000000000000000000000000000000000000000000000000000000000000000000000000000000000000000000000000000000000000000000000000000000000000000000000000000000000000000000000000000000000000000000000000000000000000000000000000000000000000000000000000000000000000000000000000000000000000000000000000000000000000000000000000000000000000000000000000000000000000000000000000000000000000000000000000000000000000000000000000000000000000000000000000000000000000000000000000000000000000000000000000000000000000000000000000000000000000000000000000000000000000000000000000000000000000000000000000000000000000000000000000000000000000000000000000000000000000000000000000000000000000000000000000000000000000000000000000000000000000000000000000000000000000000000000000000000000000000000000000000000000000000000000000000000000000000000000000000000000000000000000000000000000000000000000000000000000000000000000000000000000000000000000000000000000000000000000000000000000000000000000000000000000000000000000000000000000000000000000000000000000000000000000000000000000000000000000000000000000000000000000000000000000000000000000000000000000000000000000000000000000000000000000000000000000000000000000000000000000000000000000000000000000000000000000000000000000000000000000000000000000000000000000000000000000000000000000000000000000000000000000000000000000000000000000000000000000000000000000000000000000000000000000000000000000000000000000000000000000000000000000000000000000000000000000000000000000000000000000000000000000000000000000000000000000000000000000000000000000000000000000000000000000000000000000000000000000000000000000000000000000000000000000000000000000000000000000000000000000000000000000000000000000000000000000000000000000000000000000000000000000000000000000000000000000000000000000000000000000000000000000000000000000000000000000000000000000000000000000000000000000000000000000000000000000000000000000000000000000000000000000000000000000000000000000000000000000000000000000000000000000000000000000000000000000000000000000000000000000000000000000000000000000000000000000000000000000000000000000000000000000000000000000000000000000000000000000000000000000000000000000000000000000000000000000000000000000000000000000000000000000000000000000000000000000000000000000000000000000000000000000000000000000000000000000000000000000000000000000000000000000000000000000000000000000000000000000000000000000000000000000000000000000000000000000000000000000000000000000
