This file was generated by Ched 2.7.0.0.
#TITLE ""
#ARTIST ""
#DESIGNER ""
#DIFFICULTY 0
#PLAYLEVEL
#SONGID ""
#WAVE ""
#WAVEOFFSET 0
#JACKET ""
#REQUEST "ticks_per_beat 480"
#00002: 4
#BPM01: 165
#00008: 01
#TIL00: ""
#VOLUME: ""
#HISPEED 00
#MEASUREHS 00
#0651f:11
#0651a:00120012
#06514:0000001200000012
#06518:0012
#06516:0000000000120000
#0651c:12
#06512:12
#04112:1300001300001313
#0411b:23000013000000000000130000000000
#04117:0000000000000013
#04110:41
#04212:0013
#0421b:0000000000130000
#04218:0000001300000013
#04215:00000013
#04216:0013000000000000
#0571b:1300001300001300
#05716:13
#05712:0013
#05710:41
#0581b:00130023
#05817:0013
#05816:00000013
#05815:13
#05812:0023
#05912:1300001300000013
#05916:00130000
#05917:1300001300000000
#0591b:0000000000130000
#06216:0013
#06217:00000013
#06212:00130023
#06218:13
#0621b:0023
#06412:2300001300000000
#0641b:0023000013000000
#06818:1212
#0681c:00120000
#06812:1212
#06816:00120012
#07112:12
#0711a:00120012
#0711c:0012
#07114:0000000000000012
#07118:12
#0721c:12
#07216:1200000000000012
#07212:0012
#07218:00000012
#07312:1300000000130000
#0731b:2323000013000000
#07318:00000013
#07315:0000000000000013
#08516:13
#0851b:1313
#08512:00130013
#08717:13
#08716:00000000001300000000000000000000
#08712:13
#08817:0000001300000000
#0881b:13
#08816:00000013
#09018:0013000000001313
#09015:00000000130000000000000000130000
#0901b:00000000000013000013000000000000
#09012:1300000013130000
#00014:0012
#00016:0000000000120012
#00018:00000012
#0011c:12000012000000000000000000000000
#0011a:0000001200000000
#00116:0000000000120000
#00118:00000012
#00114:0000000000000012
#0021a:0000001200000012
#00218:0012
#00216:0000000000120000
#00214:00000012
#00312:12000012000000000000000000000000
#00318:0000001200000000
#00316:0000000000120000
#0031a:00000012
#0031c:0000000000000012
#00416:0000001200000012
#0041a:0000000000120000
#00418:00000012
#0051c:00120000
#00512:0000001200000000
#0051a:0012
#00514:0000000000120000
#00518:00000012
#00516:0000000000000012
#00716:1200001200000000
#0071a:00120000
#00718:0000000012000012
#00714:00000012
#00818:0000001313000000
#00815:00000000000000130000130000000000
#00812:2424000000001300
#0081b:00000013
#0081a:2424000000000000
#0101b:1300001300000013
#01016:13
#01012:00131300
#01018:0000000000130000
#01015:00000013
#01212:13002323
#01217:13
#0121b:00131313
#01218:0000001300000013
#01215:0000000000130000
#01316:13
#0131b:1300000000000013
#01317:00130000
#01312:0013
#01315:0000000000130000
#01318:00000013
#01618:00000000000000001300130000130000
#01615:00000000000000000013000013001300
#01616:13
#0161b:13
#01617:00130000
#01612:0000001300000000
#0091b:1313
#00916:13
#00912:0000130000000013
#00918:0000000000130000
#00915:00000013
#0171b:13
#01712:13000013
#01715:0000000013000013
#01710:41
#0181b:1313
#01818:0013000000000000
#01812:00131313
#01815:0000001300000000
#0191b:13000013
#01915:0000001300000000
#02015:13
#02017:00130000
#02012:0013
#02016:00000014
#02117:0000000000000013
#0211b:13
#02118:0013
#02112:13000013
#02216:0013000000000000
#0221b:0000001300001300
#02212:00131300
#02217:0013
#02312:13000013
#02318:0000001300000000
#02418:23000013
#02415:0000230000000013
#02412:0023
#0241b:0023
#0251c:12
#02519:00000012000000000000000000000000
#02516:0000001200000000
#0251b:0012
#02518:00000000000000000000001200000000
#02515:0000000000000012
#02512:12
#02510:41
#02619:12
#02616:00000012000000000000000000000000
#02613:0000001200000000
#02618:0012
#0261a:00000012
#02712:12
#02718:00120000
#02716:0000001200000000
#0271c:12
#0271a:00000012
#0311c:12
#03116:12
#03112:0013
#03117:0013
#03218:0000000013131313
#03215:14000000000000000013001300130000
#0321a:14
#03318:0000001300000013
#0331b:1300000000130000
#03315:00230023
#03312:2323
#03310:41
#0351b:13130013
#03512:1313
#0401b:2323000013000000
#04012:2323000000130000
#04018:00000013
#04015:0000000000000013
#03912:23131300
#03918:0000001300000000
#0391b:13002313
#03915:0000000000000013
#03412:1300000000130000
#03415:0000001300000013
#0341b:2323
#03418:00230023
#03712:1300130000000013
#03716:0000001300000000
#03714:0000000000130000
#0371b:23230000
#03717:00000023
#03719:0023
#0381b:1300130000000013
#03817:0000001300000000
#03819:0000000000130000
#03812:23230000
#03816:00000023
#03814:0023
#00616:00120000
#00618:0000001200000000
#00614:0012
#0061a:0000000000120000
#00612:00000012
#0061c:0000000000000012
#01112:1313
#01117:13
#0111b:0000130000000013
#01115:0000000000130000
#01118:00000013
#0141b:0000001300000013
#01412:1313
#01418:0000000000130000
#01415:00000013
#01417:13
#01416:00130000
#01517:13
#01512:1300000000000013
#01516:00130000
#0151b:0013
#01518:0000000000130000
#01515:00000013
#0281c:12
#02816:00120000
#02818:0000001200000000
#02812:12
#02814:0000000000000012
#0291c:12
#02919:00000012000000000000000000000000
#02916:0000001200000000
#0291b:0012
#02918:00000000000000000000001200000000
#02915:0000000000000012
#02912:12
#03019:12
#03016:00000012000000000000000000000000
#03013:0000001200000000
#03018:0012
#0301a:00000012
#03615:13
#03617:00130013
#03616:0013
#04318:00000013
#0431b:1300001300000000
#04312:13000013000000000000130000000000
#04315:0000000000000013
#0471b:13130013
#04712:1313
#04815:13
#04817:00130013
#04816:0013
#0501b:1300001300000013
#05016:13
#05012:00131300
#05018:0000000000130000
#05015:00000013
#05212:13002323
#05217:13
#0521b:00131313
#05218:0000001300000013
#05215:0000000000130000
#05316:13
#0531b:1300000000000013
#05317:00130000
#05312:0013
#05315:0000000000130000
#05318:00000013
#0561b:1300000013130000
#05615:00000000000000000013000000000000
#05612:0000001300001313
#05618:00000000000000000000000000130000
#05616:13
#05617:00130000
#04912:2300130000000013
#04918:0000000000130000
#04915:00000013
#0491b:0013
#04917:00130000
#05112:1313
#05117:13
#0511b:0000130000000013
#05115:0000000000130000
#05118:00000013
#0541b:0000001300000013
#05412:1313
#05418:0000000000130000
#05415:00000013
#05417:13
#05416:00130000
#05517:13
#05512:1300000000000013
#05516:00130000
#0551b:0013
#05518:0000000000130000
#05515:00000013
#06016:00130000000013000000000000000000
#06017:00000000130000000013000000000000
#0601b:0000001300000000
#06012:0000000000131300
#06112:1300001300001300
#06117:13
#0611b:0013
#0631b:1300001300000013
#06317:00130000
#06316:1300001300000000
#06312:0000000000130000
#06612:12
#0661c:12
#06614:00120012
#0661a:0000001200000012
#06616:0012
#06618:0000000000120000
#06712:1212
#06716:00120000
#06718:1212
#0671c:00120012
#0691c:00120000
#06916:0000001200000000
#0691a:0012
#06914:0000000000120000
#06918:12000012
#06912:1200000000000012
#07012:00120000
#07018:0000001200000000
#07014:0012
#0701a:0000000000120000
#07016:12000012
#0701c:1200000000000012
#0741b:1300001300001313
#07412:23000013000000000000130000000000
#07416:0000000000000013
#0741f:21
#0751b:0013
#07512:0000000000130000
#07515:0000001300000013
#07518:00000013
#07517:0013000000000000
#07712:2313
#07717:0013
#0771b:23000013
#07716:00000013
#07718:00130000
#07715:0000001300000000
#07719:0000000000130000
#07714:0000000000000013
#07818:0000001300000013
#0781b:00001313
#07815:0000000000130000
#07812:23232323
#07810:41
#07615:00000013
#07612:1300001300000000
#0761b:13000013000000000000130000000000
#07618:0000000000000013
#07915:0000001300000013
#07912:00001313
#07918:0000000000130000
#0791b:23232323
#08012:13130013
#0801b:1313
#08118:13
#08116:00130013
#08117:0013
#04515:0000001300000013
#04512:00001313
#04518:0000000000130000
#0451b:23232323
#04618:0000001300000013
#0461b:00001313
#04615:0000000000130000
#04612:23232323
#08217:13
#0821b:00130000
#08212:1300000000000014
#08216:00130014
#0821a:0000000000140000
#08316:13000014
#08312:0000130000140000
#0831b:13
#08317:00130000
#0831a:0000000000000014
#08417:13
#0841b:00130000
#08412:1300000000000014
#08416:00130014
#0841a:0000000000140000
#0861b:1300001300000000
#08617:00001300000000000013000000000000
#08612:0000131300000000
#08616:00000013
#08917:13
#08912:1313
#0891b:00130013
#0441b:2313
#04416:0013
#04412:23000013
#04417:00000013
#04415:00130000
#04418:0000001300000000
#04414:0000000000130000
#04419:0000000000000013
#09112:23
#0911b:0023000000000000
#0575b:53000053
#05756:53
#05752:0053
#05952:1300005300000053
#05957:53
#0595b:0000000000630000
#06452:1300005300000000
#0645b:0013000053000000
#06858:5252
#0685c:00620000
#07152:62
#0725c:62
#07256:52
#07352:53
#0855b:6363
#08552:00530053
#08756:00000000002300000000000000000000
#08752:53
#08857:0000002300000000
#0885b:53
#00154:0000000000000062
#0035c:0000000000000062
#00756:62
#00758:0052
#00852:00000013
#0085b:00000013
#0105b:53
#01252:63
#01356:53
#01357:00630000
#0095b:53
#00952:00630000
#0175b:53
#0185b:0053
#01852:00000063
#0195b:53000053
#01955:0000005300000000
#02055:53
#02057:00630000
#02052:0013
#0205b:0013
#02157:0000000000000063
#02152:63
#02252:0063
#0225b:00000053
#02352:63000063
#02358:0000006300000000
#02756:0000005200000000
#0315c:52
#03156:52
#03152:0063
#03157:0063
#03552:5353
#0355b:00630063
#0395b:63
#03952:0053
#0335b:13
#03452:13
#03752:13
#0385b:13
#01152:63
#0115b:00530000
#01457:63
#01557:63
#01556:00530000
#01656:53
#02858:0000006200000000
#0325a:54
#03255:54
#03655:63
#03657:00530000
#03656:0063
#04152:5300005300000063
#0415b:13000063000000000000000000000000
#04157:0000000000000063
#0435b:6300006300000000
#04352:00000053000000000000000000000000
#0475b:13630063
#04752:5353
#04756:00130013
#04757:0013
#04855:63
#04857:00530053
#04856:0063
#04852:00130013
#04858:13
#0485b:0013
#0505b:53
#05252:63
#05356:53
#05357:00630000
#04952:13630000
#0495b:13
#05152:63
#0515b:00530000
#05457:63
#05557:63
#05556:00530000
#05656:53
#05855:53
#0605b:0000006300000000
#06056:00230000000000000000000000000000
#06057:00000000000000000023000000000000
#06152:63000063
#06157:63
#0615b:0063
#06258:63
#0635b:1300006300000000
#06356:63
#06352:0000000000530000
#06752:5252
#06756:00620000
#0745b:6300006300000053
#07452:13000053000000000000000000000000
#07456:0000000000000053
#07752:0013
#0775b:00000013
#07652:5300005300000000
#0765b:00000063000000000000000000000000
#08052:13530053
#0805b:6363
#08057:00130013
#08056:0013
#08158:53
#08156:00630000
#08157:0053
#0815b:00130013
#08155:13
#08152:0013
#07557:0023000000000000
#04256:0023000000000000
#08257:53
#0825b:00230000
#08252:53
#08256:00230000
#08356:63
#08352:00230000
#0835b:63
#08357:00230000
#08457:53
#0845b:00230000
#08452:53
#08456:00230000
#0865b:5300005300000000
#08657:00002300000000000023000000000000
#08952:5353
#0895b:00630063
#09152:13
#0915b:0013000000000000
#02452:0013
#0245b:0013
#0445b:0013
#04452:00000013
#001340:0000000000000012
#002320:00220000
#0033c0:0000000000000012
#0043a0:00220000
#005340:12220000
#0063a0:12220000
#007360:12
#007340:00220000
#007380:0012
#0073a0:00000022
#0093b0:13
#009370:00230000
#009321:00130000
#009361:0023
#0103b1:13
#010371:00230000
#011321:13
#011361:00230000
#0113b0:00130000
#011370:0023
#012320:13
#012360:00230000
#013360:13
#013320:00230000
#013371:00130000
#0133b1:0023
#014371:13
#0143b1:00230000
#015371:13
#0153b1:00230000
#015360:00130000
#015320:0023
#016360:13
#016320:00230000
#0173b0:13
#017380:0023
#0183b0:0013
#018370:00000023
#018321:00000013
#019361:23
#0193b0:13
#019380:0000002300000000
#019351:0000001300000000
#019321:00000023
#0193b0:00000013
#020380:23
#020351:13
#020321:00230000
#020370:00130000
#0203b0:0023
#021320:13
#021350:0023
#021370:0000000000000013
#0223b0:0023000000000000
#022320:0013
#022360:00000023
#0223b1:00000013
#023371:23
#023320:13
#023350:0000002300000000
#023381:0000001300000000
#0233b1:00000023
#023320:00000013
#024350:23
#027360:0000001200000000
#027320:00000022
#028380:0000001200000000
#0283c0:00000022
#0313c0:12
#031380:00220000
#031361:12
#031321:00220000
#031321:0013
#031361:00000023
#031370:0013
#0313b0:00000023
#0323a0:14
#032370:00240000
#032351:14
#032321:00240000
#035321:13
#035361:00230000
#0353b0:00130000
#035370:0023
#035321:0013
#035361:00000023
#0353b0:00000013
#036380:23
#036351:13
#036321:00230000
#036370:00130000
#0363b0:0023
#036361:0013
#036321:00000023
#0393b1:13
#039371:00230000
#039321:0013
#039361:00000023
#041321:13
#041361:00000023000000000000000000000000
#0413b0:00000013000000000000000000000000
#041370:0000002300000000
#041321:0000001300000000
#041361:0000000000230000
#041371:0000000000000013
#0423b1:0023000000000000
#041320:0000000000000013
#042360:0053000000000000
#042320:0000002300000000
#0433b0:13
#043370:00000023000000000000000000000000
#043321:00000013000000000000000000000000
#043361:0000002300000000
#0433b0:0000001300000000
#043370:0000000000230000
#045320:13230000
#0463b0:13230000
#047320:13
#047360:00230000
#0473b1:00130000
#047371:0023
#047320:0013
#047360:00000023
#0473b1:00000013
#048381:23
#048350:13
#048320:00230000
#048371:00130000
#0483b1:0023
#048360:0013
#048320:00000023
#048371:00000013
#0493b1:23
#049321:00130000
#049361:0023
#0503b1:13
#050371:00230000
#051321:13
#051361:00230000
#0513b0:00130000
#051370:0023
#052320:13
#052360:00230000
#053360:13
#053320:00230000
#053371:00130000
#0533b1:0023
#054371:13
#0543b1:00230000
#055371:13
#0553b1:00230000
#055360:00130000
#055320:0023
#056360:13
#056320:00230000
#0573b0:13
#057380:00230000
#057361:13
#057321:0000002300000000
#057321:0013
#057361:00000023
#0573b0:00000013
#058380:23
#058351:13
#058321:00230000
#059371:13
#0593b1:00230000
#059321:0000001300000000
#059361:0000000000230000
#0593b0:0000000000130000
#059370:0000000000000023
#059321:0000000000000013
#060361:00530000000000000000000000000000
#060321:00230000
#0603b1:0000001300002300
#060371:00000000000000000053000000000000
#061321:13
#061351:00230000
#061370:13
#0613b0:0000002300000000
#0613b0:0013
#061370:00000023
#061321:00000013
#062351:23
#062380:13
#0623b0:00230000
#063360:13
#063320:00230000
#0633b0:0000001300000000
#063370:0000000000230000
#063321:0000000000130000
#063361:0000000000000023
#064321:0000001300000000
#064351:00000023
#0643b0:0013
#064380:00000023
#067320:1232
#067360:00320022
#068380:1232
#0683c0:00320022
#071320:12
#071360:0022
#0723c0:12
#072380:0022
#072361:12
#072341:00220000
#073320:13
#073360:0023
#0743b0:13
#074370:00000023000000000000000000000000
#074321:00000013000000000000000000000000
#074361:0000002300000000
#0743b0:0000001300000000
#074370:0000000000230000
#0743b0:0000000000000013
#075370:0053000000000000
#0753b0:0000002300000000
#074361:0000000000000013
#075321:0023000000000000
#076320:13
#076360:00000023000000000000000000000000
#0763b1:00000013000000000000000000000000
#076371:0000002300000000
#076320:0000001300000000
#076360:0000000000230000
#0783b0:13230000
#079320:13230000
#0803b0:13
#080370:00230000
#080321:00130000
#080361:0023
#0803b0:0013
#080370:00000023
#080321:00000013
#081351:23
#081380:13
#0813b0:00230000
#081361:00130000
#081321:0023
#081370:0013
#0813b0:00000023
#082370:1323
#0823b0:00530000
#082321:1323
#082361:00530000
#083361:1323
#083321:00530000
#0833b0:1323
#083370:00530000
#084370:1323
#0843b0:00530000
#084321:1323
#084361:00530000
#0853b1:13
#085371:00230000
#085320:00130000
#085360:0023
#0853b1:0013
#085371:00000023
#085320:00000013
#086360:23
#0863b1:1300333300002300
#086371:00005300000000000053000000000000
#087321:1300000000230000
#087361:00000000005300000000000000000000
#087370:0000000000130000
#0873b0:0000000000000023
#087351:0000000000000013
#088351:23
#0883b0:13000023
#088370:0000005300000000
#089320:13
#089360:00230000
#0893b1:00130000
#089371:0023
#089320:0013
#089360:00000023
#0893b1:00000013
#090371:23
