This file was generated by Ched 2.7.0.0.
#TITLE ""
#ARTIST ""
#DESIGNER ""
#DIFFICULTY 0
#PLAYLEVEL
#SONGID ""
#WAVE ""
#WAVEOFFSET 0
#JACKET ""
#REQUEST "ticks_per_beat 480"
#00002: 4
#BPM01: 165
#00008: 01
#TIL00: ""
#VOLUME: ""
#HISPEED 00
#MEASUREHS 00
#0651f:11
#06512:1300000000130000
#0651b:00130013
#06515:0000001300000013
#06518:0013
#0411a:24000014
#04116:00000014000000000000000000000000
#04110:41
#04212:0013
#0421b:0000000000130000
#04218:0000001300000013
#04215:00000013
#05815:0013
#05818:00000013
#0581b:0023
#05812:00000023
#07215:00000013
#07218:0000000000000013
#07312:2323000013000000
#0731b:2323000000130000
#07315:00000013
#07318:0000000000000013
#0001b:0013
#00012:0000000000130000
#00018:00000013
#00015:0000000000000013
#00112:0000000000130000
#00118:00000013
#0011b:13
#00119:00000033000000000000000000000000
#00818:0000001300000000
#0081b:2323000000130000
#00812:2323000000001300
#00815:0013
#01012:0013
#01018:0000000000130000
#0101b:0000000000000013
#01015:00000013
#0121b:00001313
#01212:00002323
#01712:00000013
#0171b:0000000000000013
#01710:41
#01815:13
#01818:0013000000000000
#01812:00130000
#0181b:0000001300000000
#0191b:13
#01918:0000001300000000
#02012:0013
#02016:00000014
#02015:13
#02018:00130000
#0201b:0013
#02218:0013000000000000
#0221b:0000001300000000
#02215:00130000
#0211b:00000013
#02112:0000000000000013
#02415:2300000000000013
#02418:00230000
#02412:0023
#0241b:0023
#03318:0000001300000013
#0331b:1300000000130000
#03312:00232323
#03310:41
#0401b:2323000013000000
#04012:2323000000130000
#04018:00000013
#04015:0000000000000013
#03412:1300000000130000
#03415:0000001300000013
#0341b:00232323
#03718:1300000000130000
#0371b:0000001300000013
#03712:00230023
#03715:0023
#03815:1300000000130000
#03812:0000001300000013
#0381b:00230023
#03818:0023
#00912:0000000000000013
#00915:0000000000130000
#00918:00000013
#0091b:0013
#0111b:0000000000000013
#01118:0000000000130000
#01115:00000013
#01112:0013
#04515:0000001300000013
#04512:1300000000130000
#0451b:23232323
#08215:13
#08212:0000001300000000
#0821b:13
#08218:0000001300000000
#08818:00000013
#00212:0013
#0021b:0000000000130000
#00215:00000013
#00218:0000001300000013
#0031b:0000000000130000
#00315:00000013
#00312:13
#00314:00000033000000000000000000000000
#0041b:00000013
#00412:0000000000000013
#00518:13
#00512:00130000
#0051b:0000001300130013
#00514:0013
#00516:00000013
#00614:13
#0061b:00130000
#00612:0000001300130013
#00619:0013
#00617:00000013
#01412:0013
#01418:0000000000130000
#0141b:0000000000000013
#01415:00000013
#01312:0000000000000013
#01315:0000000000130000
#01318:00000013
#0131b:0013
#0151b:0000000000000013
#01518:0000000000130000
#01515:00000013
#01512:0013
#01618:0013
#01615:00000013
#02318:13
#0231b:0000001300000000
#0251b:13
#02518:00000033000033003300003300000000
#02510:41
#02612:13
#02615:00000033000033003300000000000000
#02918:13
#0291b:00000033000033003300003300000000
#03015:13
#03012:00000033000033003300000000000000
#04312:14000014
#04316:00000014000000000000000000000000
#04418:00000013
#04415:0000000000000013
#04618:0000001300000013
#0461b:1300000000130000
#04612:23232323
#0501b:0013
#05015:0000000000130000
#05012:0000000000000013
#05018:00000013
#05212:00001313
#0521b:00002323
#0491b:0000000000000013
#04918:0000000000130000
#04915:00000013
#04912:0013
#05112:0000000000000013
#05115:0000000000130000
#05118:00000013
#0511b:0013
#0541b:0013
#05415:0000000000130000
#05412:0000000000000013
#05418:00000013
#0531b:0000000000000013
#05318:0000000000130000
#05315:00000013
#05312:0013
#05512:0000000000000013
#05515:0000000000130000
#05518:00000013
#0551b:0013
#05615:0000000000130000
#05618:00000013
#05612:0000000000000013
#05715:0013
#05718:00000013
#05710:41
#05918:0000001300000000
#05912:0000001300000000
#0591b:0000000000130000
#05915:0000000000130000
#06018:0000000000130000
#06015:00000013
#06218:0013
#06215:00000013
#06212:0023
#0621b:00000023
#06118:0013
#06115:00000013
#06315:0000001300000000
#0631b:0000001300000000
#0661b:1300000000130000
#06612:00130013
#06618:0000001300000013
#06615:0013
#06915:1300000000130000
#06918:00130013
#06912:0000001300000013
#0691b:0013
#07018:1300000000130000
#07015:00130013
#0701b:0000001300000013
#07012:0013
#07118:00000013
#07115:0000000000000013
#07412:24000014
#07416:00000014000000000000000000000000
#0741f:21
#0751b:0013
#07512:0000000000130000
#07515:0000001300000013
#07518:00000013
#07818:0000001300000013
#0781b:1300000000130000
#07812:23232323
#07810:41
#0761a:14000014
#07616:00000014000000000000000000000000
#07715:00000013
#07718:0000000000000013
#07915:0000001300000013
#07912:1300000000130000
#0791b:23232323
#08318:1300000000000013
#0831b:00130000
#08312:13
#08315:0000130000130000
#08415:13
#08412:00130000
#0841b:13
#08418:00130013
#08512:13
#08515:00130000
#08518:0013
#0851b:00000013
#0891b:13
#08918:00130000
#08915:0013
#08912:00000013
#09015:0013
#09018:00000013
#09112:23
#0911b:0023000000000000
#00852:00000013
#0195b:53
#01958:0000005300000000
#02052:0013
#0205b:0013
#0335b:13
#03452:13
#03758:13
#03855:13
#08255:63
#08252:0000002300000000
#0825b:63
#08258:0000002300000000
#0015b:53
#00352:63
#02358:63
#0235b:0000006300000000
#0255b:53
#02652:63
#02958:63
#03055:53
#08358:53
#0835b:00230000
#08352:53
#08355:00230000
#08455:63
#08452:00230000
#0845b:63
#08458:00230000
#0415a:14
#09152:13
#0915b:0013000000000000
#02452:0013
#0245b:0013
#07452:14
#04752:00130000
#0475b:00000013
#04855:00130000
#04858:00000013
#0805b:00130000
#08052:00000013
#08158:00130000
#08155:00000013
#0013b0:13
#001390:00000033000000000000000000000000
#001380:0000002300000000
#001350:0000000000000013
#002350:00230000
#003320:13
#003340:00000033000000000000000000000000
#003350:0000002300000000
#003380:0000000000000013
#004380:00230000
#004350:0000001300230000
#0073b0:13
#007380:00230000
#007320:0013
#007350:00000023
#0093b0:13
#009380:00230000
#009351:13
#009321:00230000
#0103b1:13
#010381:0000002300000000
#011321:13
#011351:00230000
#011380:13
#0113b0:00230000
#012320:13
#012350:0000002300000000
#0133b0:13
#013380:00230000
#013351:13
#013321:00230000
#0143b1:13
#014381:0000002300000000
#015321:13
#015351:00230000
#015380:13
#0153b0:00230000
#016320:13
#016350:0000002300000000
#0173b0:13
#017380:0023
#018350:00001323
#0193b0:13000023
#019380:0000003300000000
#021320:13
#021350:0023
#022320:00001323
#023380:13000023
#0233b0:0000003300000000
#0253b0:13
#025380:00000033000033003300003300002300
#026320:13
#026350:00000033000033003300000023000000
#027380:13230000
#027350:0000001300002300
#0283b0:13230000
#028320:0000001300002300
#029380:13
#0293b0:00000033000033003300003300002300
#030350:13
#030320:00000033000033003300000023000000
#0313b0:13230000
#031351:13230000
#031321:00001323
#031380:00001323
#0323b0:13230000
#032351:13230000
#032321:00001323
#032380:00001323
#035320:13
#035350:00230000
#035381:13
#0353b1:00230000
#0353b1:0013
#035381:00000023
#035350:0013
#035320:00000023
#036320:13
#036350:00230000
#036381:13
#0363b1:00230000
#0363b1:0013
#036381:00000023
#036350:0013
#036320:00000023
#0393b0:13
#039380:00230000
#039351:13
#039321:00230000
#039321:0013
#039351:00000023
#039380:0013
#0393b0:00000023
#041320:0000001400000000
#041360:0000000000240000
#041320:0000000000000014
#042320:0024000000000000
#0433a0:0000001400000000
#043360:0000000000240000
#0433a0:0000000000000014
#0443a0:00240000
#044320:0000001300230000
#047350:13
#047320:00230000
#047380:0013
#0473b0:00000023
#048320:13
#048350:00230000
#0483b0:0013
#048380:00000023
#049320:13
#049350:00230000
#049381:13
#0493b1:00230000
#050321:13
#050351:0000002300000000
#0513b1:13
#051381:00230000
#051350:13
#051320:00230000
#0523b0:13
#052380:0000002300000000
#053320:13
#053350:00230000
#053381:13
#0533b1:00230000
#054321:13
#054351:0000002300000000
#0553b1:13
#055381:00230000
#055350:13
#055320:00230000
#0563b0:13
#056380:0000002300000000
#0573b0:13
#057380:0000002300000000
#058320:13
#058350:00230000
#0593b0:13230000
#059351:13230000
#059381:0000000000000013
#0603b1:0000002300000000
#059320:0000000000000013
#060350:0000002300000000
#061320:13
#061350:0000002300000000
#0623b0:13
#062380:00230000
#063320:13230000
#063381:13230000
#063321:0000000000130023
#063380:0000000000130023
#064350:13
#064320:0000002300000000
#0643b0:0013
#064380:0000000000000023
#067320:13
#067350:00230000
#0673b0:0013
#067380:00000023
#068320:13
#068350:00230000
#0683b0:0013
#068380:00000023
#071320:13
#071350:0023
#0723b0:13
#072380:0023
#0743a0:0000001400000000
#074360:0000000000240000
#0743a0:0000000000000014
#0753a0:0024000000000000
#076320:0000001400000000
#076360:0000000000240000
#076320:0000000000000014
#077320:00240000
#0773b0:0000001300230000
#080380:13
#0803b0:00230000
#080350:0013
#080320:00000023
#0813b0:13
#081380:00230000
#081320:0013
#081350:00000023
#082350:13000023
#082320:0000005300000000
#0823b1:13000023
#082381:0000005300000000
#083381:1323
#0833b1:00530000
#083320:1323
#083350:00530000
#084350:1323
#084320:00530000
#0843b1:1323
#084381:00530000
#086321:13
#086351:00230000
#0863b1:0000001300000000
#086381:00000023
#087351:13
#087321:0023
#087381:0000000000130000
#0873b1:0000000000000023
#088351:13
#088321:0023
#0903b1:13
#0903a1:0033000000000000
#090391:00330000
#090381:0000002300000000
