This file was generated by Ched 2.7.0.0.
#TITLE ""
#ARTIST ""
#DESIGNER ""
#DIFFICULTY 0
#PLAYLEVEL
#SONGID ""
#WAVE ""
#WAVEOFFSET 0
#JACKET ""
#REQUEST "ticks_per_beat 480"
#00002: 4
#BPM01: 165
#00008: 01
#TIL00: ""
#VOLUME: ""
#HISPEED 00
#MEASUREHS 00
#0651f:11
#06518:0000343434340000
#00918:0014
#00914:00140000
#00912:00000014
#0091a:24
#01814:14
#01818:00140000
#01812:0014
#0181a:00000014
#03412:14
#03418:00140000
#03414:0014
#0341a:00000014
#03712:14
#0371a:00140000
#03714:0014
#03718:00000014
#03812:14
#0381a:00140000
#03814:0014
#03818:00000014
#05814:14
#0581a:0014
#05912:1414
#0591a:00140014
#06014:1414
#06018:00140014
#06112:14
#06118:0014
#0621a:0014
#06214:14
#06314:1414
#06318:00140014
#08512:14
#08518:00140000
#08514:0014
#0851a:00000014
#0891a:14
#08914:00140000
#08918:0014
#01512:14
#01514:0014
#0151a:00140000
#01518:00000014
#01318:0014
#01312:00140000
#01314:00000014
#0131a:24
#02018:1414
#02014:00140000
#01114:0014
#01118:00140000
#0111a:00000014
#01112:14
#02218:14
#02214:00140000
#0221a:0014
#02212:00000014
#03318:00140000
#03314:0014
#0331a:00000014
#03312:24
#03310:41
#04118:00140000
#04114:0014
#0411a:00000014
#04112:24
#04110:41
#04218:0014
#04214:00000014
#04212:14
#04314:00140000
#04318:0014
#04312:00000014
#0431a:14
#04414:0014
#04418:00000014
#0441a:14
#04512:1414
#04518:00140014
#04614:1414
#0461a:00140014
#04914:0014
#04918:00140000
#0491a:00000014
#04912:24
#0551a:14
#05518:0014
#05512:00140000
#05514:00000014
#05314:0014
#0531a:00140000
#05318:00000014
#05312:24
#05118:0014
#05114:00140000
#05112:00000014
#0511a:14
#05718:0014
#05712:24
#05710:41
#07314:00001414
#07414:00140000
#07418:0014
#07412:00000014
#0741f:21
#0741a:24
#07514:0014
#07518:00000014
#0751a:14
#07618:00140000
#07614:0014
#0761a:00000014
#07612:14
#07718:0014
#07714:00000014
#07712:14
#0781a:1414
#07814:00140014
#07810:41
#07918:1414
#07912:00140014
#09018:0014
#09014:00000014
#04018:00001414
#04014:24
#0171a:24
#01710:41
#0821a:24
#02112:24
#0911a:24
#02414:2424
#02418:00240000
#02519:00000034000000000000000000000000
#02518:00000000000034003400003400003400
#02510:41
#02618:00000034000034003400000000000000
#02714:0000343400003400
#02814:0000343400000000
#02919:00000034000000000000000000000000
#02918:00000000000034003400003400003400
#03018:00000034000034003400000000000000
#06718:00343400
#06814:00343400
#06614:0000343434340000
#0691a:0000343434340000
#07012:0000343434340000
#08613:0000003400000000
#04252:14
#0445a:14
#0755a:14
#07752:14
#04752:00140000
#0475a:00000014
#04854:00140000
#04858:00000014
#06454:0014
#0805a:00140000
#08052:00000014
#08158:00140000
#08154:00000014
#0013a0:14
#002380:24
#003320:14
#004340:24
#0053a0:14
#006380:24
#007320:14
#008340:24
#0103a0:14
#010380:0024
#012320:14
#012340:0024
#0143a0:14
#014380:0024
#016320:14
#016340:0024
#0173a0:14
#017380:0024
#019340:14
#019320:0024
#021320:14
#021340:0024
#023380:14
#0233a0:0024
#0253a0:14
#025390:00000034000000000000000000000000
#025380:00000000000034003400003400003400
#026380:34000034000034003400000000000000
#0263a0:00000024
#027320:14
#027340:0000343400003400
#028340:3400343400000000
#028320:00000024
#0293a0:14
#029390:00000034000000000000000000000000
#029380:00000000000034003400003400003400
#030380:34000034000034003400000000000000
#0303a0:00000024
#031320:14240000
#0313a0:00001424
#032340:14240000
#032380:00001424
#035320:14240000
#035380:00001424
#036340:14240000
#0363a0:00001424
#039320:14240000
#0393a0:00001424
#047320:14240000
#0473a0:00001424
#048340:14240000
#048380:00001424
#050320:14
#050340:0024
#0523a0:14
#052380:0024
#054320:14
#054340:0024
#0563a0:14
#056380:0024
#064320:14
#064340:0024
#0653a0:14
#065380:0000343434342400
#066320:14
#066340:0000343434342400
#0673a0:14
#067380:00343424
#068320:14
#068340:00343424
#069380:14
#0693a0:0000343434342400
#070340:14
#070320:0000343434342400
#071380:14
#0713a0:00000024
#072340:14
#072320:00000024
#073380:14240000
#0803a0:14240000
#080320:00001424
#081380:14240000
#081340:00001424
#0823a0:14
#082380:00000024
#083320:14
#083340:00000024
#0843a0:14
#084380:00000024
#086320:14
#086330:0000003400000000
#086340:00000024
#0873a0:14
#087380:00000024
#088320:14
#088340:00000024
#089320:00000014
#090320:00240000
#0913a0:1424000000000000
