This file was generated by Ched 2.7.0.0.
#TITLE ""
#ARTIST ""
#DESIGNER ""
#DIFFICULTY 0
#PLAYLEVEL
#SONGID ""
#WAVE ""
#WAVEOFFSET 0
#JACKET ""
#REQUEST "ticks_per_beat 480"
#00002: 4
#BPM01: 120
#00008: 01
#TIL00: ""
#VOLUME: ""
#HISPEED 00
#MEASUREHS 00
#0321a:0014
#03215:000000000000000000000013000000000000000000000000
#03218:0000001300001400
#03212:0000000000000014
#03214:0000000000140000
#07712:16
#0771a:54
#0491b:00130000
#04912:00130000
#04918:0000000013000013
#04915:000000000000000000000000130000000000000000000013
#04919:0000000000130000
#04914:0000000000130000
#0011b:13130013
#00115:0013000000000013
#00112:0000001300130000
#00118:0013
#0021b:13000013
#00212:0013000000000000
#00218:0013
#00215:0000000000130000
#00312:13130013
#00318:0013000000000013
#0031b:0000001300130000
#00315:0013
#00412:13000013
#0041b:0013000000000000
#00415:0013
#00418:0000000000130000
#0051b:13000013
#00512:0000001300000000
#00518:000033330033000000000000000000000000000033330033
#00515:000000000000000000000033330033000000000000000000
#00510:41
#00618:130033330000000000000000000000000000130000000000
#00612:0013
#00615:0000000000130000
#0061b:0000000000000013
#00712:13000013
#0071b:0000001300000000
#00715:000033330033000000000000000000000000000033330033
#00718:000000000000000000000033330033000000000000000000
#00815:130033330000000000000000000000000000130000000000
#0081b:0013
#00818:0000000000130000
#00812:0000000000000013
#0091b:13000013
#00918:000033130033000000000000000000000000000033330033
#00912:0000001300000000
#00915:000000000000000000000033130033000000000000000000
#01018:130033330000000000000000000000000000130000000000
#01012:0013
#01015:0000000000130000
#0101b:0000000000000013
#01112:13000013
#01115:000033130033000000000000000000000000000033330033
#0111b:0000001300000000
#01118:000000000000000000000033130033000000000000000000
#01215:130033330000000000000000000000000000000000130000
#01318:130000000000000000000000000000000013000000130000
#0131b:0013000000000000
#01315:000000000000000000000000000000130000000013000000
#01312:000000000000000000000000000000000000000000000013
#01418:0000000000130013
#01415:00000013
#01412:003300000000000000000000
#01515:130000000000000000000000000000000013000000130000
#01512:0013000000000000
#01518:0000000000131300
#0161b:13
#01617:000000330013000000000000000000000000000000000000
#01615:0000000000130013
#01618:00000013
#01718:1300000000000013
#0171b:0013000000000000
#01712:000000000000000000000000000000130000000000000013
#01715:00000013
#01818:0000000000130000
#01815:00000013
#0181b:0000000000000013
#01812:003300000000000000000000
#01915:0013001300000013
#01918:13001313
#01912:00130000
#0191b:0000000000130000
#0201b:00130000
#02017:0000001300000000
#02012:00000013
#0211b:00130000
#02115:0000001300000013
#02118:000000000000000000000013000000000000130000000000
#02112:0000000000130000
#02116:23
#02110:41
#0221b:13
#02212:000000001300001300000000
#02217:000000330000000000000013000000000000000000000000
#02314:0013000000000000
#02319:00130000
#0231b:130000000000003300000000
#02312:0000001300000000
#02317:0013
#02315:0000000000000013
#02412:0013
#0241b:0000000000130000
#02415:000000000023000000000000000000000000130000000000
#02418:2300002300000000
#02515:0000000013000013
#02518:000000000000000000000000130000000000000000000013
#02519:0000000000130000
#02514:0000000000130000
#02512:00240000
#0251a:00240000
#02612:13000013
#0261b:0000001300000000
#02617:0000000000000013
#02712:13
#0271b:00131300
#02716:0000001300000000
#02717:000000000000000000000000000000330013000000000000
#02815:13130000
#02818:0013001300140000
#02812:0014
#02814:00000014
#0281a:0000000000000014
#02918:00140014
#02914:24
#02910:41
#03018:00140014
#03118:00140014
#03313:00150015
#03318:25
#03413:00150015
#03513:00150015
#03718:0013000013000000
#0371b:00130013
#03712:00130013
#03715:0000000000130000
#03710:00410000
#03815:1300000000130000
#03818:0013000013000000
#0381b:00130013
#03812:00130013
#03915:13000013
#0391b:0013000000001300
#03918:00131300
#03912:0000130000130000
#04015:13000013
#0401b:0013000000001300
#04018:00131300
#04012:0000130000130000
#04115:0013000013000000
#04112:00130013
#0411b:00130013
#04118:1300000000130000
#04218:1300000000130000
#04215:0013000013000000
#04212:00130013
#0421b:00130013
#04318:13000013
#04312:0013000000001300
#04315:00131300
#0431b:0000130000130000
#04418:1313
#04412:0013000000001300
#04415:0000001300000000
#0441b:00130013
#04819:00000012
#0501b:13000013
#05012:0000001300000000
#05018:0000000000000013
#05115:13
#05215:23130000
#05218:23130000
#05312:00140014
#05319:24
#0531f:00210000
#05412:00140014
#05410:41
#05515:00140000
#05512:00000014
#05615:00140000
#05612:00000014
#0571a:00140000
#05719:00000014
#05713:24
#05818:00140000
#05817:00000014
#05918:00140000
#05919:00000024
#06014:0013
#06019:0013
#0601a:00000014
#06012:00000014
#06115:0013000013000000
#0611b:00130000
#06118:2300000000130000
#06112:00000013
#0621b:13130000
#06215:0013000000000000
#06212:00001313
#06218:0000000000130000
#0631b:13
#06315:0013000000001300
#06318:0000130000130000
#06312:0013
#06418:1300000000130000
#06415:0013000013000000
#0641b:00130000
#06412:00000013
#0651b:13
#06518:0013000000001300
#06515:0000130000130000
#06512:0013
#0661a:14000014
#06616:0014000000140000
#06612:00141400
#06712:14
#0671a:0014
#0691b:13130000
#06915:0013001300000000
#06918:00001313
#06912:0000000000130013
#06910:41
#07118:1300001300001300
#07115:0000130013000013
#07119:005300000000000000000000000000000000000000000000
#0711a:005300000000000000000000
#0711b:0053000000000000
#07114:000000000000000000000000005300000000000000000000
#07113:000000000000005300000000
#07112:0000000000530000
#0721b:13000013
#07212:00131300
#07218:0053001300000053
#0721a:005300000000000000000000000000000000005300000000
#07219:005300000000000000005300
#07213:000000000000000000000000005300000000000000000000
#07214:000000000000005300000000
#07215:0000000000530000
#0701b:1313
#07015:0013000000130000
#07018:00130013
#07012:0000001300000013
#07312:13130000
#07318:0013001300000000
#07315:00001313
#0731b:0000000000130013
#07515:1300001300001300
#07518:0000130013000013
#07514:005300000000000000000000000000000000000000000000
#07513:005300000000000000000000
#07512:0053000000000000
#0751a:000000000000005300000000
#0751b:0000000000530000
#07519:000000000000000000000000005300000000000000000000
#07612:13
#0761b:00130000
#07615:0053001300000000
#0761a:000000000000000000000000140000000000000000005454
#07613:005300000000000000000000000000000000000000000000
#07614:005300000000000000000000
#07619:000000000000000000000000005400000000000000540000
#07618:000000000000005400005400
#07617:000000000000000000000000000000540000005400000000
#07616:000000000000000000000000000000005454540000000000
#07412:1313
#07418:0013000000130000
#07415:00130013
#0741b:0000001300000013
#0451f:11
#04519:22
#00017:00220000
#03612:0000002400000024
#03618:0024
#03614:0000000000240000
#0361a:00000024
#07814:0052
#07752:56
#04952:00130000
#0495b:00130000
#04955:0053
#04958:0053
#04959:0000000000230000
#04954:0000000000230000
#0055b:53000053
#00552:0000006300000000
#00658:53
#00752:63000063
#0075b:0000005300000000
#00855:63
#0095b:53000053
#00952:0000006300000000
#00958:0023000000000000
#00955:0023
#01058:53
#01152:63000063
#01155:0023000000000000
#0115b:0000005300000000
#01158:0023
#01255:63
#01456:0013000000000000
#01352:000000000000000000000000000000000000000000000053
#0165b:631300
#01657:000000000053000000000000000000000000000000000000
#01752:000000000000000000000000000000000000000000000053
#01856:0013000000000000
#01955:0000000000000053
#0205b:00530000
#02057:0000002300000000
#02052:00000063
#02156:13
#0225b:53
#02257:000000000013000000000000000000000000000000000000
#02252:000000000000006300000000
#02256:00000013
#02357:0063
#0235b:000000000000000000000000000000000013000000000000
#02455:00000013
#02552:00140000
#0255a:00140000
#02555:0053
#02558:0053
#02559:0000000000230000
#02554:0000000000230000
#02652:53
#0265b:0000006300000000
#02752:13
#0275b:0053
#02757:000000000000000000000000000000000053000000000000
#03254:14
#03658:15
#04859:00000022
#0505b:63
#05052:0000005300000000
#05155:13
#05255:00530000
#05258:00630000
#06053:14
#06059:14
#0615b:00130000
#06152:00000013
#0625b:00130000
#06252:00000013
#06358:00130000
#06355:00000013
#0645b:00130000
#06452:00000013
#06555:00130000
#06558:00000013
#06652:00140000
#0665a:00000014
#06755:00140000
#06752:64
#0675a:0054
#06757:00000014
#06852:00140014
#0685a:00140014
#0053b0:13
#005380:000033330033230000000000000000000000000000000000
#005320:0000001300000000
#005350:000000000000000000000033330033230000000000000000
#0053b0:00000013
#005380:000000000000000000000000000000000000000033330033
#006380:330033330000000000000000000000000000000000000000
#0063b0:00230000
#007320:13
#007350:000033330033230000000000000000000000000000000000
#0073b0:0000001300000000
#007380:000000000000000000000033330033230000000000000000
#007320:00000013
#007350:000000000000000000000000000000000000000033330033
#008350:330033330000000000000000000000000000000000000000
#008320:00230000
#0093b0:13230000
#009380:000033330033000000000000000000000000000000000000
#009320:0000001300230000
#009350:000000000000000000000033330033000000000000000000
#0093b0:00000013
#009380:000000000000000000000000000000000000000033330033
#010380:330033330000000000000000000000000000000000000000
#0103b0:00230000
#011320:13230000
#011350:000033330033000000000000000000000000000000000000
#0113b0:0000001300230000
#011380:000000000000000000000033330033000000000000000000
#011320:00000013
#011350:000000000000000000000000000000000000000033330033
#012350:330033330000000000000000000000000000000000000000
#012320:00230000
#0123b0:00001323
#013320:000000000000000000000000000000000000000000000013
#014320:003300000000000000000000
#014360:0023000000000000
#0163b0:132300
#016370:000000330033000000000000000000000000000000000000
#017320:000000000000000000000000000000000000000000000013
#018320:003300000000000000000000
#018360:0023000000000000
#019350:0000000000000013
#020320:0023000000000000
#0203b0:00132300
#020370:0000005300000000
#020320:00000013
#021360:23
#0223b0:13
#022370:000000330023000000000000000000000000000000000000
#022320:000000000000001300000000
#022360:00000023
#023370:0013
#0233b0:000000000000000000000000000033000023000000000000
#0253a0:14240000
#025321:14240000
#025351:00001323
#025341:0000000000530000
#025380:00001323
#025390:0000000000530000
#026320:13
#026360:00230000
#0263b0:0000001300000000
#026370:0000000000230000
#0273b0:0000000013000023
#027370:000000000000000000000000000000330033000000000000
#029340:1454545454545454545454545454545454545454545454545454545454545454
#029350:00520052005200520052005200520052005200520052005200520052005200520052005200520052005200520052005200520052005200520052005200520052
#030340:5454545454545454545454545454545454545454545454545454545454545454
#030350:00520052005200520052005200520052005200520052005200520052005200520052005200520052005200520052005200520052005200520052005200520052
#031340:5454545454545454545454545454545454545454545454545454545454545454
#031350:00520052005200520052005200520052005200520052005200520052005200520052005200520052005200520052005200520052005200520052005200520052
#032340:24
#033380:1555555555555555555555555555555555555555555555555555555555555555
#033390:00530053005300530053005300530053005300530053005300530053005300530053005300530053005300530053005300530053005300530053005300530053
#034380:5555555555555555555555555555555555555555555555555555555555555555
#034390:00530053005300530053005300530053005300530053005300530053005300530053005300530053005300530053005300530053005300530053005300530053
#035380:5555555555555555555555555555555555555555555555555555555555555555
#035390:00530053005300530053005300530053005300530053005300530053005300530053005300530053005300530053005300530053005300530053005300530053
#036380:25
#045390:12320032
#046390:00320032
#047390:00320032
#048390:00320032
#049380:24
#049350:00001323
#049340:0000000000530000
#049381:00001323
#049391:0000000000530000
#0503b1:13
#050371:00230000
#050321:0000001300000000
#050361:0000000000230000
#052351:13330000
#052321:00003323
#052380:13330000
#0523b0:00003323
#053390:1454545454545454545454545454545454545454545454545454545454545454
#0533a0:00540054005400540054005400540054005400540054005400540054005400540054005400540054005400540054005400540054005400540054005400540054
#054390:5454545454545454545454545454545454545454545454545454545454545454
#0543a0:00540054005400540054005400540054005400540054005400540054005400540054005400540054005400540054005400540054005400540054005400540054
#055390:5454545454545454545454545454545454545454545454545454545454545454
#0553a0:00540054005400540054005400540054005400540054005400540054005400540054005400540054005400540054005400540054005400540054005400540054
#056390:5454545454545454545454545454545454545454545454545454545454545454
#0563a0:00540054005400540054005400540054005400540054005400540054005400540054005400540054005400540054005400540054005400540054005400540054
#057390:24
#057331:1454545454545454545454545454545454545454545454545454545454545454
#057321:00540054005400540054005400540054005400540054005400540054005400540054005400540054005400540054005400540054005400540054005400540054
#058331:5454545454545454545454545454545454545454545454545454545454545454
#058321:00540054005400540054005400540054005400540054005400540054005400540054005400540054005400540054005400540054005400540054005400540054
#059331:5454545454545454545454545454545454545454545454545454545454545454
#059321:00540054005400540054005400540054005400540054005400540054005400540054005400540054005400540054005400540054005400540054005400540054
#060331:24
#059390:0000000000000000000000000000000000000000000000001454545454545454
#0593a0:00000000000000000000000000000000000000000000000000000000000000000000000000000000000000000000000000540054005400540054005400540054
#060390:24
#067320:14
#067350:00240000
#0673a0:0014
#067370:00000024
#068320:14240000
#0683a1:14240000
#068321:00001424
#0683a0:00001424
#077320:16
#078340:0022
#071980:13
#0719b0:0023000000000000
#071950:0013
#071920:0000000000230000
#0729b0:13
#072980:0023000000000000
#072920:0013
#072950:0000000000230000
#0729b0:00000013
#072980:0000000000000023
#075950:13
#075920:0023000000000000
#075980:0013
#0759b0:0000000000230000
#076920:13
#076950:0023000000000000
#0769a0:000000000000140000000054
#076960:000000000000000054540000
#0779a0:24
