This file was generated by Ched 2.7.0.0.
#TITLE ""
#ARTIST ""
#DESIGNER ""
#DIFFICULTY 0
#PLAYLEVEL
#SONGID ""
#WAVE ""
#WAVEOFFSET 0
#JACKET ""
#REQUEST "ticks_per_beat 480"
#00002: 4
#BPM01: 120
#00008: 01
#TIL00: ""
#VOLUME: ""
#HISPEED 00
#MEASUREHS 00
#00016:00140000
#0011a:00140014
#00212:00140014
#00318:00140014
#00414:00140014
#0091a:00140000
#00914:00000014
#01018:00140000
#01012:00000014
#0111a:00140000
#01114:00000014
#01218:00140000
#01212:00000014
#0131a:00140014
#0141a:00140014
#01718:00140014
#01715:14
#01818:00140014
#01512:00140014
#01516:14
#01612:00140014
#02112:0014
#0211a:24
#02110:41
#02218:1414
#02214:00140000
#00618:00140014
#0051a:00140014
#00510:41
#00812:00140014
#00714:00140014
#02018:0014
#02014:00000014
#02312:14
#0231a:0014
#02414:1414
#02418:00140014
#02512:14
#02518:0014
#02614:1414
#0261a:00140000
#0271a:14
#02714:0014
#02818:1424
#02812:00140000
#02912:00140014
#02918:0014
#02910:41
#0301a:1414
#03014:00140000
#03114:1414
#0311a:00140014
#03212:1414
#03218:00140000
#0331a:1414
#03314:00140014
#03418:1414
#03412:00140000
#03512:1414
#03518:00140014
#03614:1414
#0361a:00140000
#04912:00000014
#05018:00140000
#05014:00000014
#05312:00140000
#05316:0014
#0531a:24000014
#0531f:00210000
#05412:1414
#05418:00140014
#05410:41
#05512:14000014
#0551a:00140000
#05516:0014
#0561a:1414
#05614:00140014
#05814:0014
#05818:00000014
#06018:0014
#06014:00000014
#0611a:1414
#06114:00140000
#06212:1414
#06218:00140000
#0631a:14
#06316:00140000
#06312:0014
#06412:14
#06416:00140000
#0641a:0014
#06512:14
#0651a:00140000
#06514:0000000054545400
#0661a:14
#06612:00140000
#06618:0000000054545400
#06812:14
#06814:00340034
#06918:0014
#06914:00000014
#06910:41
#0701a:14
#07014:0014
#07018:00000014
#07112:14
#07114:00140000
#0721a:14
#07218:00140000
#07314:14
#0731a:00140000
#07312:0000000054545400
#07418:14
#07412:00140000
#0741a:0000000054545400
#07512:14
#0751a:00140000
#07514:00001414
#07518:0000000000140000
#0761a:14140000
#07612:00001414
#0451f:11
#0451a:00340034
#0461a:00340034
#0471a:00340034
#0481a:00340034
#03710:00410000
#0781b:0053
#02052:14
#02958:14
#0305a:0014
#03252:0014
#03458:0014
#03654:0014
#0495a:00140000
#0535a:14
#06052:14
#0615a:0014
#06252:0014
#06352:0014
#0645a:0014
#06852:54
#06954:14
#07152:54
#07154:00240000
#0725a:64
#07258:00240000
#019320:14340034
#020320:24
#028380:0014
#029380:24
#037380:14340000
#0373a0:00000034
#038380:00342400
#039340:14340000
#039320:00000034
#040340:00342400
#0413a0:14340000
#041380:00000034
#0423a0:00342400
#043320:14340000
#043340:00000034
#044320:00342400
#045380:14
#0453a0:00340034
#0463a0:00340034
#0473a0:00340034
#0483a0:00340034
#0493a0:00240000
#0513a0:14340034
#0523a0:00340034
#0533a0:24
#0573a0:14
#057390:00340034
#057380:0034
#0583a0:24
#059320:14
#059330:00340034
#059340:0034
#060320:24
#067320:14340034
#068320:34
#068340:00340034
#069340:24
#071320:1424
#071340:00540000
#0723a0:1424
#072380:00540000
#077380:14
#0783b0:0023
#065940:00001424
#066980:00001424
#073920:00001424
#0749a0:00001424
