This file was generated by Ched 2.7.0.0.
#TITLE ""
#ARTIST ""
#DESIGNER ""
#DIFFICULTY 0
#PLAYLEVEL
#SONGID ""
#WAVE ""
#WAVEOFFSET 0
#JACKET ""
#REQUEST "ticks_per_beat 480"
#00002: 4
#BPM01: 200
#00008: 01
#TIL00: ""
#VOLUME: ""
#HISPEED 00
#MEASUREHS 00
#0091a:14
#0101a:14
#01114:14
#01214:14
#01318:14
#01418:14
#0171a:14
#01710:41
#01814:14
#01918:14
#02012:14
#0211a:14
#02214:14
#02318:14
#02412:14
#0251a:14
#02618:14
#02712:14
#02814:14
#0291a:14
#03018:14
#0331a:14
#03314:0014
#03310:41
#03418:14
#03512:14
#03518:0014
#03614:14
#0371a:14
#03714:0014
#0381a:14
#03912:14
#03918:0014
#04012:14
#0411a:14
#04114:0014
#04110:41
#04512:14
#04518:0014
#0571a:14
#05812:14
#06112:14
#0621a:14
#06512:0016
#06518:26
#0651f:21
#06618:16
#06612:0016
#06610:41
#06718:1616
#06818:16
#06912:16
#06918:0016
#07012:16
#07018:0016
#07318:16
#07312:0016
#07418:1616
#07512:16
#07518:0016
#07612:1616
#08112:0014
#08118:24
#08110:00410000
#0821a:14
#08214:0014
#08318:1414
#08418:14
#08514:14
#0851a:0014
#08612:14
#08618:0014
#08714:1414
#08814:14
#0891a:14
#08912:0014
#09018:1414
#09112:14
#0911a:0014
#09214:1414
#0971a:14
#09710:41
#09818:14
#09916:14
#10014:14
#10112:14
#10214:14
#10316:14
#10418:14
#1051a:14
#10614:14
#10718:14
#10812:14
#1091a:14
#1101a:14
#11112:14
#0491f:11
#0931a:24
#09512:24
#0511a:34
#0501a:34
#05512:34
#05412:34
#0013a0:14
#0023a0:24
#003340:14
#004340:24
#005380:14
#006380:24
#007320:14
#008320:24
#015320:14
#016320:24
#031320:14
#032320:24
#0423a0:14
#0433a0:34
#044380:24
#046320:14
#047320:34
#048340:24
#0493a0:14
#0503a0:34
#0513a0:34
#052380:24
#053320:14
#054320:34
#055320:34
#056340:24
#059380:14
#060380:24
#063340:14
#064340:24
#071320:16
#072320:26
#077380:16
#078380:26
#079320:16
#080320:26
#0933a0:14
#0943a0:24
#095320:14
#096320:24
#112320:14000000000000000000000000000034
#115320:23
