This file was generated by Ched 2.7.0.0.
#TITLE ""
#ARTIST ""
#DESIGNER ""
#DIFFICULTY 0
#PLAYLEVEL
#SONGID ""
#WAVE ""
#WAVEOFFSET 0
#JACKET ""
#REQUEST "ticks_per_beat 480"
#00002: 4
#BPM01: 200
#00008: 01
#TIL00: ""
#VOLUME: ""
#HISPEED 00
#MEASUREHS 00
#0011a:0000120000120000
#00116:0012
#00114:2200000000000012
#00218:0012001200000000
#00214:000000000000000000000000125252525252520000000000
#0031a:1200000000000012
#00314:0000120000120000
#00318:0012
#00418:0012000000000012
#00416:0000001200000000
#00414:0000000000120000
#00516:1200000000000012
#0051a:00120000
#00514:0012
#00518:0000000000120000
#0061a:0012001200000000
#00616:000000000000000000000000125252525252520000000000
#00718:12
#00714:0000120000000012
#0071a:0012
#00716:0000000000120000
#00816:0012000000000012
#00818:0000001200000000
#0081a:0000000000120000
#00915:0013000000000000
#00918:0000130000130013
#00912:0000000013000013
#0091b:23
#0101b:000000130000000000130000135353535353530000000000
#01015:000000130000000000130000135353535353530000000000
#01118:0013000000000000
#01115:0000130000130013
#0111b:0000000013000013
#01112:13
#01212:0013000000130000
#01218:0013000000130000
#01215:0000001300000000
#0121b:0000001300000013
#01318:0013000000000000
#01312:00130000
#0131b:0000000013000013
#01315:2300000000130013
#01412:000000130000000000130000135353535353530000000000
#01418:000000130000000000130000135353535353530000000000
#01518:1300000000130000
#01515:0013000000000000
#0151b:00130000
#01512:0000000013000024
#0151a:0000000000000024
#01712:0000000000160000
#01718:2600000013000016
#01715:00130000
#01710:41
#01918:0000130000160000
#01912:0000000000000016
#01915:0013
#01815:00130000
#01818:0013
#02018:00130000
#02015:0013
#02115:00131300
#02118:2600001300160000
#02112:0000000000000016
#02218:0013001300000000
#02215:00131300
#02315:0013001300000000
#02318:0000130013000016
#02312:0000000000160000
#02415:0013001300000000
#02418:00131300
#0251b:00131300
#02515:0000001300000000
#02512:2600000000160000
#02518:0000000000000016
#02612:0013001300000000
#02618:00131300
#0271b:0013001300000000
#02715:00131300
#02718:0000000000160000
#02712:0000000000000016
#0281b:0013000000000000
#02818:00130000
#02815:0000001300000000
#02812:0013
#02912:0000130013000016
#02918:2600001300160000
#0301b:0013001300000000
#03015:00131300
#03112:0013001300160000
#03118:0000130013000016
#03212:0013000000000000
#03215:00130000
#03218:0000001300000000
#0321b:0013
#03315:0000001300000000
#03318:0013
#0331b:00130000
#03312:26
#03310:41
#0351b:13000013
#03518:0013001300000013
#03515:00131300
#03512:0000000000130000
#03615:13130013
#03618:0013000000130000
#03612:0000001300000013
#0361b:0013
#03718:2600001300000000
#03712:00130000
#03912:13000013
#03915:0013001300000013
#03918:00131300
#0391b:0000000000130000
#04018:13130013
#04015:0013000000130000
#0401b:0000001300000013
#04012:0013
#0411b:0013
#04112:26
#04110:41
#0431b:1313000000001313
#04315:00130000
#04318:0000001313000000
#04312:0000000000130000
#04415:13000013
#04418:0013130000130000
#04412:0000001300000013
#0441b:0013
#04518:2600001300000000
#04512:00130000
#04712:1313000000001313
#04718:00130000
#04715:0000001313000000
#0471b:0000000000130000
#04818:13000013
#04815:0013130000130000
#0481b:0000001300000000
#04812:0013
#0491a:00141400
#0491f:11
#04912:26
#05012:14
#05018:00141400
#0511a:14
#05114:00141400
#05218:14
#05212:00141400
#05312:00141400
#05318:26
#0541a:14
#05414:00141400
#05512:14
#05518:00141400
#05614:14
#0561a:00141400
#05716:00140000
#0571a:2414
#05712:24
#05812:14
#0581a:14
#05815:00140000
#05818:0014
#0591a:14
#05912:14
#05917:00140000
#05914:0014
#0601a:14
#06012:1414
#06016:00140000
#06116:00140000
#06112:1414
#0611a:14
#0621a:14
#06212:14
#06217:00140000
#06214:0014
#06312:14
#0631a:14
#06315:00140000
#06512:24000013
#06517:24000013
#0651f:21
#0661b:00000013
#06616:00000013
#0661a:24
#06615:24
#06610:41
#06712:13
#06717:13
#06716:0000001300000000
#06713:00000013
#06718:0000000000130000
#0671b:00130000
#0681b:1313
#06816:1313
#06812:00000013
#06817:00000013
#07116:0014000014000000
#07112:00140000
#0711a:1400001400000000
#07212:00130013
#07217:00130013
#0721b:0013
#07216:0013
#07916:0014000014000000
#0791a:00140000
#07912:1400001400000000
#0761a:00140000
#07614:0014
#07619:0014
#07618:00000014
#07613:00000014
#07615:00140000
#07612:13
#07617:13
#07712:24000013
#07717:24000013
#0811b:00000013
#08116:00000013
#08119:25
#08112:25
#08110:00410000
#08215:00000014000000000000000000000000
#0821a:00000014000000000000000000000000
#08217:24000013
#08212:24000013
#0841a:14
#08417:0013
#08412:0013
#08416:00130013
#0841b:00130013
#08312:0000000000000014
#08314:0014140000000000
#08313:0000000014140000
#08318:00000024
#0831a:24
#08319:0000002400000000
#08515:00000014000000000000000000000000
#0851a:00000014000000000000000000000000
#08517:24000013
#08512:24000013
#08617:00000014000000000000000000000000
#08612:00000014000000000000000000000000
#08616:00000013
#0861b:00000013
#0861a:24
#08615:24
#08718:0014140000000000
#08719:0000000014140000
#0871a:0000000000000014
#08714:00000024
#08712:24
#08713:0000002400000000
#08917:00000014000000000000000000000000
#08912:00000014000000000000000000000000
#08916:00000013
#0891b:00000013
#0891a:24
#08915:24
#09015:00000014000000000000000000000000
#0901a:00000014000000000000000000000000
#09017:24000013
#09012:24000013
#0751b:13
#07516:13
#07517:0000001300000000
#0751a:00000013
#07515:0000000000130000
#07512:00130000
#0691b:00000013
#06916:00000013
#0691a:24
#06915:24
#07012:24000013
#07017:24000013
#0731b:00000013
#07316:00000013
#0731a:24
#07315:24
#07412:24000013
#07417:24000013
#0781b:00000013
#07816:00000013
#0781a:24
#07815:24
#08817:0013130000001300
#08812:0013130000001300
#08816:0013
#0881b:0013
#0911a:14
#09116:0014000000000000
#09112:00140000
#09215:14
#09212:00140000
#09218:0014
#09213:0014
#09214:00000014
#09219:00000014
#09217:00140000
#0921a:14
#09312:0014000014000000
#09316:0000140000140000
#0931a:2400002400002400
#0941a:0014000014000000
#09416:0000140000140000
#09412:2400002400002400
#09518:14140000
#09514:0014001400000000
#0951a:00001414
#09512:0000000000140014
#09715:0013001300000013
#09718:00131300
#0971b:2300000000130000
#09712:23000013
#09710:41
#09818:13130000
#09815:00001300000000000053000000000000
#0981b:0000001300000000
#09816:0013
#09814:0000000000530000
#09813:00000000000000000000005300000000
#09812:00000053
#09918:0013001300000013
#09915:00131300
#09912:1300000000130000
#0991b:13000013
#10015:13130000
#10018:00001300000000000053000000000000
#10012:0000001300000000
#10017:0013
#10019:0000000000530000
#1001a:00000000000000000000005300000000
#1001b:00000053
#10115:0013000013000013
#10118:0000130000130000
#1011b:23
#10112:2300002300002300
#10218:13000000000013000000005300000000
#10215:00130000
#10212:0023000023000000
#1021b:0023
#1021a:00000000000000000053000000000000
#10219:0000000000530000
#10217:00000053
#10318:0013000013000013
#10315:0000130000130000
#10312:23
#1031b:2300002300002300
#10415:13000000000013000000005300000000
#10418:00130000
#1041b:0023000023000000
#10412:0023
#10413:00000000000000000053000000000000
#10414:0000000000530000
#10416:00000053
#10516:00000013000000001300000000000000
#1051b:1300001300000000
#10517:0000000000000013
#10515:00000000000000000053000000000000
#10514:0000000000530000
#10513:00000000000000000000005300000000
#10512:00000053
#10617:00000013000000001300000000000000
#10612:1300001300000000
#10618:00000000000000000053000000000000
#10619:0000000000530000
#1061a:00000000000000000000005300000000
#1061b:00000053
#1111a:14
#11118:0014000000000014
#11116:00140014
#11114:0000001400140000
#11112:1414
#1121a:14000000000000000000000000000024
#11212:1400005400005400
#11213:00540000005400540000005400540000
#11214:0054540054540054
#11215:00000054000000000054000000000054
#10712:1353
#10717:0013000000000000
#10714:0000001300000000
#10719:0000530000130000
#10716:0000000000000013
#10718:00000053000000000000000000000000
#10713:00000000000000530000000000000000
#1071a:00000000000000000000005300000000
#1071b:00000053
#10916:00131300
#10915:00000000000000000053000000000000
#10914:0000000000530000
#10913:00000000000000000000005300000000
#10912:00000053
#1081b:1313000000000000
#10812:0000000013130000
#10817:0000005300000000
#10818:00000000005300000000000000000000
#10819:00530000
#1081a:00000053000000000000000000000000
#10816:0000000000000053
#10815:00000000000000000000000000530000
#10814:00000053
#10813:00000000000000000000005300000000
#11019:00000013
#11014:00000013
#01612:0024002400000000
#0161a:0024002400000000
#06418:54
#1151c:52
#04952:16
#0495a:0014
#01758:1600000000000016
#01852:0000000000000016
#01952:0000000000000016
#02158:16
#02152:0000000000000016
#02258:0000000000000016
#02358:0000000000000016
#02558:0000000000000016
#02552:16
#02652:0000000000000016
#02752:0000000000000016
#02958:16
#02952:0000000000000016
#03158:0000000000000016
#03058:0000000000000016
#03352:16
#03758:16
#04152:00160000
#04558:16
#04858:00000013
#05058:0014
#05154:0014
#05252:0014
#05352:0014
#05358:16
#05454:0014
#05558:0014
#0565a:0014
#0575a:0014
#05858:0014
#05954:0014
#06052:0014
#06152:0014
#06254:0014
#0655a:0000001400000000
#06555:0000001400000000
#06552:54
#06557:54
#0665a:64
#06655:64
#06657:0000001400000000
#06652:0000001400000000
#06756:0000001300000000
#06753:00000013
#06757:13
#06752:13
#0685b:13
#06856:13
#0695a:64
#06955:64
#06957:0000001400000000
#06952:0000001400000000
#07052:54
#07057:54
#07055:0000001400000000
#0705a:0000001400000000
#07152:0000000000000014
#0735a:64
#07355:64
#07357:0000001400000000
#07352:0000001400000000
#07452:54
#07457:54
#07455:0000001400000000
#0745a:0000001400000000
#0795a:0000000000000014
#08159:00150000
#08152:00150000
#08255:00000024000000000000000000000000
#0825a:00000024000000000000000000000000
#08252:5400001400000000
#08257:5400001400000000
#07752:54
#07757:54
#07755:0000001400000000
#0775a:0000001400000000
#0785a:64
#07855:64
#07857:0000001400000000
#07852:0000001400000000
#0845a:14
#08555:00000024000000000000000000000000
#0855a:00000024000000000000000000000000
#08552:5400001400000000
#08557:5400001400000000
#08657:00000024000000000000000000000000
#08652:00000024000000000000000000000000
#0865a:6400001400000000
#08655:6400001400000000
#0875a:0000000000000014
#08957:00000024000000000000000000000000
#08952:00000024000000000000000000000000
#0895a:6400001400000000
#08955:6400001400000000
#09055:00000024000000000000000000000000
#0905a:00000024000000000000000000000000
#09052:5400001400000000
#09057:5400001400000000
#0755b:13
#07556:13
#07557:0000001300000000
#0755a:00000013
#07652:13
#07657:13
#0915a:00000014
#09658:0014
#1105b:0000001300000000
#11056:0000001300000000
#018320:0000000000160026
#020380:0000000000160000
#021380:26
#022380:0000000000160026
#024320:0000000000160000
#025320:26
#026320:0000000000160026
#028380:0000000000160000
#029380:26
#030380:0000000000160026
#032320:0000000000160000
#033320:26
#033320:0000000000130000
#034320:33
#034350:00230000
#034381:13
#0343b1:00230000
#0343b1:0013
#034381:00000023
#034350:0013
#034320:00000023
#037350:0013
#037320:00000033
#038350:33
#038320:00230000
#037381:00000013
#0383b1:33
#038381:00230000
#038321:0013
#038351:00000023
#038380:0013
#0383b0:00000023
#041320:16260000
#041350:0000000000130000
#042320:33
#042350:00230000
#042381:13
#0423b1:00230000
#0423b1:0013
#042381:00000023
#042350:0013
#042320:00000023
#045320:0013
#045350:00000023
#046350:13
#046320:00230000
#0463b1:13
#046381:00230000
#046321:0013
#046351:00000023
#046380:0013
#0463b0:00000023
#063380:0014
#064380:24
#065320:14
#065350:0000002400000000
#065371:14
#0653a1:0000002400000000
#0663a1:14
#066371:0000002400000000
#066350:14
#066320:0000002400000000
#0693a0:14
#069370:0000002400000000
#069351:14
#069321:0000002400000000
#070321:14
#070351:0000002400000000
#070370:14
#0703a0:0000002400000000
#071320:0000000000140024
#0733a0:14
#073370:0000002400000000
#073351:14
#073321:0000002400000000
#074321:14
#074351:0000002400000000
#074370:14
#0743a0:0000002400000000
#077320:14
#077350:0000002400000000
#077371:14
#0773a1:0000002400000000
#0783a1:14
#078371:0000002400000000
#078350:14
#078320:0000002400000000
#0793a0:0000000000140024
#081390:15250000
#081321:15250000
#082321:1400002400000000
#082351:00000054000000000000000000000000
#082370:1400002400000000
#0823a0:00000054000000000000000000000000
#085320:1400002400000000
#085350:00000054000000000000000000000000
#085371:1400002400000000
#0853a1:00000054000000000000000000000000
#0863a1:1400002400000000
#086371:00000054000000000000000000000000
#086350:1400002400000000
#086320:00000054000000000000000000000000
#0893a0:1400002400000000
#089370:00000054000000000000000000000000
#089351:1400002400000000
#089321:00000054000000000000000000000000
#090321:1400002400000000
#090351:00000054000000000000000000000000
#090370:1400002400000000
#0903a0:00000054000000000000000000000000
#0913a0:0000001400002400
#096380:1424
#1093b0:13
#1103b0:3300002300000000
#110361:1300002300000000
#1123a1:00000000000000000000000000000014
#1153c1:22
#002940:00001222
#006960:00001222
#0109b0:00001323
#010951:00001323
#014921:00001323
#014980:00001323
#098960:0013
#098920:00000023
#100970:0013
#1009b0:00000023
#1029b0:000000000000000000000000000000000000000000000000000000000000000000000000000000000000000000000000000000000000000000000000000000000000000000000000000000000000000000000000000000000000000000000000000000000000000000000000000000000000000000000000000000000000000000000000000000000000000000000000000000000000000000000000000000000000000000000000000000000000000000000000000000000000000000000000000000000000000000000000000000000000000000000000000000000000000000000000000000000000000000000000000000000000000000000000000000000000000000000000000000000000000000000000000000000000000000000000000000000000000000000000000000000000000000000000000000000000000000000000000000000000000000000000000000000000000000000000000000000000000000000000000000000000000000000000000000000000000000000000000000000000000000000000000000000000000000000000000000000000000000000000000000000000000000000000000000000000000000000000000000000000000000000000000000000000000000000000000000000000000000000000000000000000000000000000000000000000000000000000000000000000000000000000000000000000000000000000000000000000000000000000000000000000000000000000000000000000000000000000000000000000000000000000000000000000000000000000000000000000000000000000000000000000000000000000000000000000000000000000000000000000000000000000000000000000000000000000000000000000000000000000000000000000000000000000000000000000000000000000000000000000000000000000000000000000000000000000000000000000000000000000000000000000000000000000000000000000000000000000000000000000000000000000000000000000000000000000000000000000000000000000000000000000000000000000000000000000000000000000000000000000000000000000000000000000000000000000000000000000000000000000000000000000000000000000000000000000000000000000000000000000000000000000000000000000000000000000000000000000000000000000000000000000000000000000000000000000000000000000000000000000000000000000000000000000000000000000000000000000000000000000001300000000000000000000000000000000000000000000000000000000000000000000000000000000000000000000000000000000000000000000000000000000000000000000000000000000000000000000000000000000000000000000000000000000000000000000000000000000000000000000000000000000000000000000000000000000000000000000000000000000000000000000000000000000000000000000000000000000000000000000000000000000000000000000000000000000000000000000000000000000000000000000000000000000000000000000000000000000000000000000000000000000000000000000000000000000000000000000000000000000000000000000000000000000000000000000000000000000000000000000000000000000000000000000000000000000000000000000000000000000000000000000000000000000000000000000000000000000000000000000000000000000000000000000000000000000000000000000000000000000000000000000000000000000000000000000000000000000000000000000000000000000000000000000000000000000000000000000000000000000000000000000000000000000000000000000000000000000000000000000000000000000000000000000000000000000000000000000000000000000000000000000000000000000000000000000000000000000000000000000000000000000000000000000000000000000000000000000000000000000000000000000000000000000000000000000000000000000000000000000000000000000000000000000000000000000000000000000000000000000000000000000000000000000000000000000000000000000000000000000000000000000000000000000000000000000000000000000000000000000000000000000000000000000000000000000000000000000000000000000000000000000000000000000000000000000000000000000000000000000000000000000000000000000000000000000000000000000000000000000000000000000000000000000000000000000000000000000000000000000000000000000000000000000000000000000000000000000000000000000000000000000000000000000000000000000000000000000000000000000000000000000000000000000000000000000000000000000000000000000000000000000000000000000000000000000000000000000000000000000000000000000000000000000000000000000000000000000000000000000
#102970:00000023
#104920:000000000000000000000000000000000000000000000000000000000000000000000000000000000000000000000000000000000000000000000000000000000000000000000000000000000000000000000000000000000000000000000000000000000000000000000000000000000000000000000000000000000000000000000000000000000000000000000000000000000000000000000000000000000000000000000000000000000000000000000000000000000000000000000000000000000000000000000000000000000000000000000000000000000000000000000000000000000000000000000000000000000000000000000000000000000000000000000000000000000000000000000000000000000000000000000000000000000000000000000000000000000000000000000000000000000000000000000000000000000000000000000000000000000000000000000000000000000000000000000000000000000000000000000000000000000000000000000000000000000000000000000000000000000000000000000000000000000000000000000000000000000000000000000000000000000000000000000000000000000000000000000000000000000000000000000000000000000000000000000000000000000000000000000000000000000000000000000000000000000000000000000000000000000000000000000000000000000000000000000000000000000000000000000000000000000000000000000000000000000000000000000000000000000000000000000000000000000000000000000000000000000000000000000000000000000000000000000000000000000000000000000000000000000000000000000000000000000000000000000000000000000000000000000000000000000000000000000000000000000000000000000000000000000000000000000000000000000000000000000000000000000000000000000000000000000000000000000000000000000000000000000000000000000000000000000000000000000000000000000000000000000000000000000000000000000000000000000000000000000000000000000000000000000000000000000000000000000000000000000000000000000000000000000000000000000000000000000000000000000000000000000000000000000000000000000000000000000000000000000000000000000000000000000000000000000000000000000000000000000000000000000000000000000000000000000000000000000000000000000000001300000000000000000000000000000000000000000000000000000000000000000000000000000000000000000000000000000000000000000000000000000000000000000000000000000000000000000000000000000000000000000000000000000000000000000000000000000000000000000000000000000000000000000000000000000000000000000000000000000000000000000000000000000000000000000000000000000000000000000000000000000000000000000000000000000000000000000000000000000000000000000000000000000000000000000000000000000000000000000000000000000000000000000000000000000000000000000000000000000000000000000000000000000000000000000000000000000000000000000000000000000000000000000000000000000000000000000000000000000000000000000000000000000000000000000000000000000000000000000000000000000000000000000000000000000000000000000000000000000000000000000000000000000000000000000000000000000000000000000000000000000000000000000000000000000000000000000000000000000000000000000000000000000000000000000000000000000000000000000000000000000000000000000000000000000000000000000000000000000000000000000000000000000000000000000000000000000000000000000000000000000000000000000000000000000000000000000000000000000000000000000000000000000000000000000000000000000000000000000000000000000000000000000000000000000000000000000000000000000000000000000000000000000000000000000000000000000000000000000000000000000000000000000000000000000000000000000000000000000000000000000000000000000000000000000000000000000000000000000000000000000000000000000000000000000000000000000000000000000000000000000000000000000000000000000000000000000000000000000000000000000000000000000000000000000000000000000000000000000000000000000000000000000000000000000000000000000000000000000000000000000000000000000000000000000000000000000000000000000000000000000000000000000000000000000000000000000000000000000000000000000000000000000000000000000000000000000000000000000000000000000000000000000000000000000000000000000000000000000000
#104960:00000023
#105960:0013
#105920:00000023
#106970:0013
#1069b0:00000023
#107970:0013000000000000
#107990:00230000
#107940:0000001300000000
#107920:0023
#107990:0000000000130000
#1079b0:00000023
#1089b0:0013000000000000
#108970:0000002300000000
#108920:0000000000130000
#108960:0000000000000023
#109960:0013
#109920:00000023
#112920:1400005400005400
#112950:00000054000000000054000000000024
