This file was generated by Ched 2.7.0.0.
#TITLE ""
#ARTIST ""
#DESIGNER ""
#DIFFICULTY 0
#PLAYLEVEL
#SONGID ""
#WAVE ""
#WAVEOFFSET 0
#JACKET ""
#REQUEST "ticks_per_beat 480"
#00002: 4
#BPM01: 145
#00008: 01
#TIL00: ""
#VOLUME: ""
#HISPEED 00
#MEASUREHS 00
#0011a:14
#0021a:14
#00312:14
#00412:14
#00518:14
#00618:14
#00714:14
#00814:14
#0201a:1414
#02010:41
#0221a:14
#02214:0014
#02112:1414
#02418:1414
#02514:1414
#04918:26161600
#0491f:21
#06912:14
#06918:0014
#02618:14
#02612:0014
#04714:14
#04718:0014
#04814:14
#07312:0014
#02314:0014
#0231a:14
#02812:1414
#03012:14
#03018:0014
#0291a:1414
#03214:1414
#03210:41
#03318:1414
#03414:14
#03118:0014
#03112:14
#05012:16161600
#05010:41
#05118:16161600
#05212:16161600
#05318:1616
#05312:00160000
#05412:1616
#05418:00160000
#05518:16
#05512:00160000
#05712:26161600
#05818:16161600
#05912:16161600
#06312:16
#06318:00160000
#0661a:14
#06614:00140000
#0711a:0014
#07110:41
#06112:1616
#06118:00160000
#06110:41
#06218:1616
#06212:00160000
#0411f:11
#04119:0000000000000034
#00910:41
#0093a0:14
#0103a0:24
#011320:14
#012320:24
#013380:14
#014380:24
#015340:1400000000000034
#018320:3434
#019320:24
#027380:1424
#0343a0:0014
#036380:0024
#037340:14
#040320:24
#0413a0:14
#041390:0000000000000034
#042380:0000000000000034
#0463a0:0024
#055380:0016
#056380:00000000000000260000000000000000
#060380:1626
#063320:00000000000000001600000000000056
#064340:00000000000000000000000000000056
#065340:0026
#0663a0:0000000014000034
#068380:0024
#070320:14
#071340:24
#0723a0:14
#0733a0:24
#074320:14
#075320:24
#0753a0:00000000000000001400000000000034
#077380:24
#077320:0014
#078320:34
#079340:24
#0803a0:14
#082380:0054000000000000
#0823a0:0000000000000054
#083380:0000000000000034
#0883a0:24
