This file was generated by Ched 2.7.0.0.
#TITLE ""
#ARTIST ""
#DESIGNER ""
#DIFFICULTY 0
#PLAYLEVEL
#SONGID ""
#WAVE ""
#WAVEOFFSET 0
#JACKET ""
#REQUEST "ticks_per_beat 480"
#00002: 4
#BPM01: 145
#00008: 01
#TIL00: ""
#VOLUME: ""
#HISPEED 00
#MEASUREHS 00
#00114:0012000000000000
#00116:00120000
#00118:0000001200000000
#00314:0012000000000000
#00316:00120000
#00318:0000001200000000
#00514:0012000000000000
#00516:00120000
#00518:0000001200000000
#0051a:14141414
#00714:0012000000000000
#00716:00120000
#00718:0000001200000000
#0071a:14141414
#00812:0012000000000000
#00814:00120014
#0081a:14
#00816:0000001200000000
#04816:006300000000000000000000000000140000000000000000
#0481b:00000013
#04812:00000000000000000067006c000000000000130000000000
#04818:0000000000000013
#04815:00006400000000000000000000000013
#04817:636465666767000000000000
#04813:000000000000006600000000000000000000000000000000
#04814:000000000065000000000000000000000000000000000000
#0201b:13
#02015:00000013000000000000000013000000
#02018:0013130000130000
#02012:23000000000000000013000000000000
#02010:41
#0211b:00130000001300001313000000000000
#02115:0013000000000000
#02118:00000013000000000000000013130000
#02112:13130000
#0221b:13
#02212:00001300000000130000000000000000
#02218:00000013000000000000000000000000
#02215:00130000
#0241b:0013000000000000
#02415:13000013000000130000000000000000
#02418:0000131300000000
#02412:00000000001300000000000000000000
#02512:13001300000000001313000000000000
#0251b:00130013000000000000000000000000
#02515:00000000130013000000000013130000
#02518:00000000001300130000000000000000
#0281b:2300130000130000
#02815:00001300001300000000000000000000
#02819:0000001300000000
#02813:00000000000000130000000000000000
#02817:0013
#02812:1300000000131300
#02818:00000000000000000000000000130000
#02814:0000000000000013
#0281a:00000000000000000000000000000013
#03015:00000000001300000000130000000013
#03018:0000130013000013
#0301b:00000013
#03012:00000013
#03112:000000000000000000001300000000000000000000000000000000130000000000000000000000000000000000000000
#03118:00005300000000000000001300000000
#03115:000000005300000000130000
#0311b:13000000000000130000000000000000
#0311a:005300000000000000000000000000000000000000000000
#03119:005300000000000000000000
#03117:005300000000
#03113:00530000
#03114:000000000000005300000000000000000000000000000000
#03116:0000005300000000
#03214:0013000000000000
#03217:13
#03212:1313
#03219:0013000000000000
#03216:00130000
#0321b:00130013
#03218:0000000000000013
#03215:00000000000000000000000000000013
#03210:41
#08114:00000000000000000000001300000013
#08119:13000000005300530000001300000013
#08116:00000000000000000000000000130000
#0811b:00000000000053000000000000130000
#08113:00130000000000000000000000000000
#08118:0000000013000000005300000000005300000000000000000000000000000000
#08112:00000013000000001313000000000000
#08117:00000000130000005313000000000000
#0811a:0000000000000000000000530053000000000000000000000000000000000000
#08412:0012005200520000
#0841a:00000013
#08413:000052005252005252000000
#08414:000000000052005200000052005200000052000000000000
#08415:00525252
#08419:00000000000000000000000000530000
#08418:0000000000000053
#08417:00000000000000000000000000000053
#07512:00001300000000000013000000000000
#07514:00000000130000000000000000340000
#07519:00000000001300000000000000000000
#07516:0000001300000000
#07517:52000013000000000000000000000000
#0751a:00000000000000000000000000000014
#0751b:23
#07513:0000000000000034
#07115:26130000
#07116:00000000000000000013000000000000
#07112:00000013
#0711b:13001300000000000000000000000013
#07118:00000013000000000000000000000000
#07110:41
#02712:13001353
#0271b:00001353
#02713:0000000000000000000000000000000000530000000000530000000000000000
#02714:00000000000000000053005300000000
#02715:0000000000000000000000000000000000000053005300000000000000000000
#02716:0000000000540000
#0271a:0000000000000000000000000000000000530000000000530000000000000000
#02719:00000000000000000053005300000000
#02718:0000000000000000000000000000000000000053005300000000000000000000
#06515:00000000000000000000000000000013
#0651b:0013
#06512:00261300
#06518:1600260000130000
#06514:0016000000000000
#06618:13000000000000000000001300130000
#06614:00130000000000000000000000000000
#06619:0013000000000000
#06613:00000013000000000000000000000000
#0661a:00130000
#0661b:00000000000013000013000000001300
#06612:00000000001300000000130000001300
#06615:00000013
#01012:00000013000000000013000000000000
#01017:00530013000000000000000000000000
#01014:00000000001300000000000000000000
#01016:00000000000000130000000000000000
#01015:00000000000000000000000000130000
#01019:00000000001300000000000000000000
#0101b:00000000000000130000000000000000
#01018:53
#01215:00000000000013000013000000000000
#0121b:00130000000000130000000013000000
#01212:00130000
#01218:0000000000530000000013000000000000001300000000000000000000000000
#0121a:0000005300000000000000000000000000000000000000000000000000000000
#01219:0053000000000000
#01217:00000053000000000000000000000000
#01317:00000000000000000000000000130000
#01314:00000000000000000000000000000013
#01319:00000000000000000000000000000013
#01312:23000000000000000000130000130000
#01315:00000000001300130000000000000000
#0131b:00000000000000130000000000000000
#01318:0000000000130000
#0141b:00130000000000000013000000000000
#01418:00000000000000000000000000130000
#01415:00530000
#01414:00000000005300000000000000000000
#01413:0000005300000000
#01412:00000000000000530000000000000000
#01416:00000053000000000000000000000000
#06418:00130013000014000015001500001600
#06415:0013000000000000
#06413:0000000000150000
#06414:00000000001400140000000000000000
#06412:00000000000000000000000000160016
#07315:00001300000000000000000000130013
#0731b:0013000000000000
#07312:13130000
#07314:0013
#07318:53000000000000000013000013001300
#07313:0000001300000000
#0731a:00000000001300000000000000000000
#07319:00000000000000130000000000000000
#07615:0000000000001313
#07618:00000000000000140014000000130013
#07612:00140000000000000000000000000000
#0761a:00140000000000000000000000000000
#07619:00000014001400000000000000000000
#07613:00000014001400000000000000000000
#07614:00000000000000140014000000000000
#08015:00000013001300000000000000130000
#0801a:0000000000000013
#08014:00000000000000000013000000000013
#0801b:13000000001300000000130013000000
#08016:00000000000000000000001300000000
#08012:13000000000000130000000000000000
#08018:00001300130000130000000000000000
#04912:13001300000000130013001300130013
#04915:00130000
#04918:00000013001300000000130000001300
#0491b:23001313
#0491f:21
#02315:00130000130000000013000000000000
#02318:13000000001300001300000000130000
#02312:00000013
#02612:13000000001300000013000000000000
#0261b:0013001300000013
#02615:00000013000000130000000000000000
#02618:00131300
#0341b:00131313
#03412:13131313
#03415:00001300000000130000130000000000
#03418:0000001300000000
#0551b:13000000000000000013000000130000
#05512:13000000000000130000001300000000
#05518:00000000000000130000001300000000
#05515:00000000000000000013000000130000
#0551a:00000000000000000000000000000014
#05516:00000000000000000000000000000024
#07715:00000000130013000000000000130000
#07718:00001600001300130000000000001300
#07712:1600000013131300
#0771b:00000000000000000013001300000013
#05012:00000000130013000000001300000000
#05018:00130013000000000000130000000000
#05015:00001300000000001300000000130000
#0501b:00000000001300130000000000000000
#05010:41
#00216:0012000000000000
#00218:00120000
#0021a:0000001200000000
#00214:0000000000120000
#0061a:14141414
#00612:0012000000000000
#00614:0000120000120000
#00616:0000001200000000
#00416:0012000000000000
#00418:00120000
#0041a:0000001200000000
#00414:0000000000120000
#01116:00000000000000000000000000130000
#01112:23000000001300000000130000000053
#01115:00000000000000130000000000000000
#0111b:00000000000000130000130000000000
#01114:0000000000000053
#02916:13
#0291b:00130000000000000000130000000000
#02915:0013000000000000
#0291a:00000013000000000000000000000000
#02914:00130000
#02919:00000000001300000000000000000000
#02913:0000001300000000
#02918:00000000000000130000000013000000
#02912:0000000013130013
#03312:00130000000000000000000000000000
#03315:00000013000000000000000000000000
#03318:00000000001300000000000000000000
#0331b:00000000000000131300000000000000
#03317:00130000000000000000000000000000
#0331a:00000013000000000000000000000000
#03313:00000000001300000000000000000000
#03316:00000000000000130000000000000000
#03712:13
#03715:0012000000000000
#03716:00120000
#03717:0000001200000000
#0371b:13
#03615:00000013
#03618:0000000000000013
#0361b:13
#03612:13
#03812:0012000000120000
#03813:00120000
#03814:0000001200000000
#03817:00130000
#03915:0012000000000000
#03916:00120000
#03917:0000001200000000
#03919:13
#04012:00001200000000000000120000160000
#04013:00120000
#04014:0000001200000000
#04218:0012000000000000
#0421a:0000120000120000
#0421c:0000001200000000
#04116:0012000000000000
#04114:00120000
#04112:0000001200000013
#0411b:13
#0411f:11
#0511b:00001300000000130013001300130000
#05118:00130000
#05115:00000013001300000000130000001300
#05112:23001313
#05312:00001300000000130013001300130013
#05315:00130000
#05318:00000013001300000000130000001300
#0531b:23001313
#05412:00000000130013000000001300000000
#05418:00130013000000000000130000000000
#05415:00001300000000001300000000130000
#0541b:00000000001300130000000000000000
#06312:13000000000000000013000000130000
#0631b:13000000000000130000001300000013
#06315:00000000000000130000001300000013
#06318:00000000000000000013000000130000
#0591b:23000013000000000000000000000000
#05917:00000000000000000013000000000000
#05912:0000130000130000
#05916:00001300000000000000000000140000
#0591a:0000000000000014
#0601a:00140000000000000000000000000000
#06016:00140000
#06018:0000001400000000
#06012:0000000000140000
#05612:00140014000000240014000000000000
#0561a:00000024001400140000000000000000
#05616:0000000014000000000000001400000000000000000000140000000000000000
#0571b:00001300000000130000000000000000
#05718:00000000130000000000000000130000
#05715:00000013000000000000000013000000
#05716:0013
#0571a:00000000000000000013000000000000
#05713:0000000000130000
#05712:2300000000000013
#05719:00000000000000000000001300000000
#05816:00130013000000000000000000000000
#0581b:00001300130000000000000000130000
#05818:00000000001300000000000000000000
#05815:0000001300000000
#05812:00000000000000130000130000000000
#05817:00000000000000000000001300000000
#06112:13001300000000130000000000000000
#06115:00000000130000000000000000130000
#06118:00000013000000000000000013000000
#06117:0013
#06113:00000000000000000013000000000000
#0611a:0000000000130000
#0611b:2300000000000013
#06114:00000000000000000000001300000000
#06110:41
#06217:00130013000000000000000000000000
#06212:00001300130000000000000000130000
#06215:00000000001300000000000000000000
#06218:0000001300000000
#0621b:00000000000000130000130000000000
#06216:00000000000000000000001300000000
#06918:0012000000000012
#0691a:00000000000000000012000000000000
#06916:0000000000120000
#06914:00000000000000000000000000120000
#06912:00000000000000000000000000000012
#06816:0000000000001212
#06818:00000000000000000000000000120000
#07012:3232323232323232323232323232323200000000000000000000130000000000
#0701b:00000000000000000013000000000000
#07015:00000000000000000026000000260000
#07218:00000013
#07212:002300000000002300000000
#07214:002300230000
#07216:000000230023000000000000
#07217:002300000000002300000000
#07219:000000002300000000000000230000000000005300000053
#0721b:000000000000230000002300000000000000000000530000
#0721a:000000000000000000005353
#07416:000000000000000014000000000000000000000000000000000000000000000014000000000000000000000000000000000000000000000000000000000000000000000000520000000000000000000000000000000000000000000000520000
#0741a:241400000000
#07412:000000000000000000000000000000000000000000000000240000000000000000000000000000001400000000000000000000000000000000000000000000000000000000000000000000000000000000520000000000000000000000000000
#07417:00000000000000000000001200000000
#07415:00000000000000000000000052000052
#07414:0000000000000000000000000000000000000000000000000052000000520000
#07413:00000000000000000000000000525200
#07912:0000156c
#07913:0000000000000000130000000000000000550000000000000000000000000000
#0791a:0012000000000000
#07919:0000000000520000000000001400000000000000000000000000000000000000
#07918:0000000000005200000000000054000000000000160000000000000000000000
#07914:0000000000000000005300000000000000005500000000000000000000000000
#07915:0000000000000000000053000000000000000055000000560000000000000000
#07916:0000000000000000000000530000005400000000000056000000000000000000
#07917:0000000000000052000000000000540000000000005600000000000000000000
#07812:16
#08215:00130013000000000000140000000000
#08218:000000130000140000000000000000000000000000000012
#08214:0000001400000000
#08217:0014
#08216:000000000000000000140012
#0821a:000000000000005400000000005400000000005400000000
#08212:000000000054000054000000
#08316:121212120000000000000000
#08318:001200120012000000000000000000120000000000000000
#08315:000000000000005200000000120000000000000000520000
#08312:0000000000521200
#0831c:0000001200000000
#08317:0000000000000014
#08314:000000000000000052000000005200000000000052000000
#08313:000000000000000000520000000052000000005200000000
#08319:000000525200
#0831a:000000000000000000000052000000000052000000000000
#0831b:000000000052000000520000
#08516:5300000000000000000000130000000000000000000000000000000000000000
#0851b:00000000005300000000000013000000
#08517:00530000000000000000000000000000
#08518:00005300000000000000000000000053
#08519:00000053000000000000000000005300
#0851a:00000000530000000000000000530000
#08514:0000005300000000
#08512:0000000000000000000000000053000000000000000000000000000000000000
#0521b:00130000
#05216:0013000000000000
#0521a:0013
#05219:00000013
#05215:0000001300000000
#05214:0000000000130000
#05213:0000000000000013
#08612:13
#08617:53
#04317:00120012
#04315:0000001200000012
#04416:00120012
#04414:0000001200000012
#04515:00120012
#04513:0000001200000012
#04614:000000000000120000000000000000000000120000000065
#04612:0000001200000000
#04616:0000000000000024
#04617:000000000000000000000065
#00918:00000000001300130000000000000000
#00912:00000000000000130000000000000000
#00915:0000000000130000
#0091b:23000000000000000000130000130000
#00910:41
#0091a:0000000000000053
#00919:00000000000000000000000000000053
#0151b:23000000001300000000130000000000
#01518:00000000000000130000000000000000
#01512:00000000000000130000130000001400
#01516:0000000000000014
#0181b:13131313
#0191b:13000000130000000013000000000000
#01915:0000000000130000
#01918:00000000000000000000001300000000
#01912:00000013
#01916:0000000000000013
#01716:14
#08817:52
#0881c:52
#04716:000000000000000000000000000000000000000000000063
#04717:666767676767676767666463
#04715:0000000000000064
#04713:006600000000000000000000000000000000006600000000
#04712:000000670067006700670067006700670067000000000000
#0085a:64
#00858:00000014
#00854:00000014
#0495b:13
#04952:00000000000000000000000000000023
#04958:00000000005300000000000000000000
#02752:53000033
#02758:00130000
#02755:00130000
#0275b:00000043
#03155:00000033
#0285b:13
#04852:00000013
#0485b:00000013
#01255:00000000000000000013000000000000
#0125b:00000013
#01052:00000000000000000013000000000000
#0105b:00000000000000000000000000130000
#03452:00130000
#0345b:13
#05152:13
#05155:00000000006300000000000000000000
#03055:13000000006300000000000000000000
#0305b:13
#0265b:0000000000000063
#02652:13
#02952:0000000000000053
#02958:00000053
#03658:00000000000000130000000000000000
#03655:00000000000000130000000000000000
#0365b:63
#03652:53
#04058:0000000000160000
#04052:00000000000000000000000000160000
#04158:0000000000000013
#0415b:63
#04152:0000000000000053
#04256:0000000000000013
#0535b:13
#05358:00000000005300000000000000000000
#05352:00000000000000000000000000000023
#05558:00130000
#05555:00130000
#0555a:00000000000000000000000000000064
#05556:00000000000000000000000000000034
#0555b:63
#05552:53
#06458:00000013000000000000001500000000
#06454:00000000000000140000000000000000
#05652:00000054000000340054000000000000
#0565a:00000044000000640000000000000000
#05656:0000000000000000000000000000000000000000000000240000000000000000
#05752:13
#0595b:13
#06056:00000014
#0605a:00000014
#06052:0000000000540000
#0615b:13
#06952:00000000000000000000000000000052
#0765a:00140000000000000000000000000000
#07653:00000014000000000000000000000000
#07659:00000000001400000000000000000000
#07654:00000000000000140000000000000000
#07658:00000000000000000014000000000000
#07552:00000000000000000000000000000014
#0755b:13
#07752:36
#07758:0046000000000000
#07852:66
#07952:0000001c
#0665b:0000000000000063
#06652:0000000000000053
#06558:66460000
#06554:0026000000000000
#06552:00360000
#0635b:63
#06352:53
#06358:00130000
#06355:00130000
#03252:0053
#03258:0013
#0525b:00630000
#05256:0063000000000000
#0525a:0063
#05259:00000063
#05255:0000006300000000
#05254:0000000000630000
#05253:0000000000000063
#05455:0063
#02358:00000000000000000000000000230000
#05055:0063
#08652:23
#08657:23
#08357:0000000000000014
#08052:13000000000000130000000000000000
#0805b:00000000001300000000130000000000
#00958:00000000000000130000000000000000
#00952:00000000001300000000000000000000
#00955:0000000000130000
#0095b:13
#01158:00000000001300000000000000000000
#01155:00000000000000130000000000000000
#0115b:0000000000130000
#01152:13
#01355:00000000000000130000000000000000
#01358:0000000000130000
#0135b:00000000001300000000000000000000
#01352:13
#0145b:00000000000000000013000000000000
#01452:00000000000000000000000000130000
#01558:00000000000000130000000000000000
#01552:0000000000130054
#01555:00000000001300000000000000000000
#01556:0000000000000014
#0155b:13
#01756:24
#02052:33
#01956:0000000000000023
#01952:00000053
#03959:53
#03857:00230000
#0375b:63
#0225b:13
#07055:00000000000000000036000000460000
#07155:36
#0083a0:14
#008380:00000024
#009320:13000000002300000000000000000000
#0103b0:00000000000000000013000000230000
#011380:13000000002300000000000000000000
#012320:00000013
#013320:23
#0133b1:13000000002300000000000000000000
#014361:00130023000000000000000000000000
#014321:00000000000000000013000000230000
#015351:13000000002300000000000000000000
#015321:0000000000000014
#017361:54
#018321:54
#019321:00000000590000000029000000000000
#019321:00000013
#019361:0000000000000053
#020321:23
#020321:00000000001300000000000000000000
#020351:00000000000000230000000000000000
#0203b0:00000000000000130000000000000000
#020380:00000000000000000023000000000000
#0203b0:0000000000000000000000000000000000000000000000000000135353535353
#0203a0:00000000000000000000000000000000000000000000000000000000000000000000000000000000000000000000000000000000005300530053005300530053
#0213b0:23
#021350:000000000000000000000000000000000000135353535353230000000000000000000000000000000000000000000000
#021340:000000000000000000000000000000000000000000000000000000000000000000000000005300530053005300530053000000000000000000000000000000000000000000000000000000000000000000000000000000000000000000000000
#021350:000000000000000000000000000000000000000000000000000000000000000000000000000000000000000000000000000000000000000000000000000000000000000000000000000000000000000000000000000000000000000000000000000000000000000000000000000000000000000000000000000000000000000000000000000000000000000000000000000000000000000000000000000000000000000000000000000000000000000000000000000000000000000000000000000000000000000000000000000000000000000000000000000000000000000000000000000000000000000000000000000000000000000000000000000000000000000000000000000000000000000000000000000000000000000000000000000000000000000000000000000000000000000000000000000000000000000000000000000000000000000000000000000000000000000000000000000000000000000000000000000000000000000000000000000000000000000000000000000000000000000000000000000000000000000000000000000000000000000000000000000000000000000000000000000000000000000000000000000000000000000000000000000000000000000000000000000000000000000000000000000000000000000000000000000000000000000000000000000000000000000000000000000000000000000000000000000000000000000000000000000000000000000000000000000000000000000000000000000000000000000000000000000000000000000000000000000000000000000000000000000000000000000000000000000000000000000000000000000000000000000000000000000000000000000000000000000000000000000000000000000000000000000000000000000000000000000000000000000000000000000000000000000000000000000000000000000000000000000000000000000000000000000000000000000000000000000000000000000000000000000000000000000000000000000000000000000000000000000000000000000000000000000000000000000000000000000000000000000000000000000000000000000000000000000000000000000000000000000000000000000000000000000000000000000000000000000000000000000000000000000000000000000000000000000000000000000000000000000000000000000000000000000000000000000000000000000000000000000000000000000000000000000000000000000000000000000000000000000000000000000000000000000000000000000000000000000000000000000000000000000000000000000000000000000000000000000000000000000000000000000000000000000000000000000000000000000000000000000000000000000000000000000000000000000000000000000000000000000000000000130000000000000000000000000000000000000000000000000000000000000000000000000000000000000000000000000000000000000000000000000000000000000000000000000000000000000000000000000000000053000000000000000000000000000000000000000000000000000000000000000000000000000000000000000000000000000000000000000000000000000000000000000000000000000000000000000000000000000000000000000000000000000000000000000000000000000000000000000000000000000000000000000000000000000000000000000000000000000000000000000000000000000000000000000000000000000000000000000000000000000000000000000000000000000000000000000000000000000000000000000000000000000000000000000000000000000000000000000000000000000000000000000000000000000000000000000000000000000000000000000000000000000000000000000000000000000000000000000000000000000000000000000000000000000000000000000000000000000000000000000000000000000000000000000000000000000000000000000000000000000000000000000000000000000000000000000000000000000000000000000000000000000000000000000000000000000000000000000000000000000000000000000000000000000000000000000000000000000000000000000000000000000000000000000000000000000000000000000000000000000000000000000000000000000000000000000000000000000000000000000000000000000000000000000000000000000000000000000000000000000000000000000000000000000000000000000000000000000000000000000000000000000000000000000000000000000000000000000000000000000000000000000000000000000000000000000000000000000000000000000000000000000000000000000000000000000000000000000000000000000000000000000000000000000000000000000000000000000000000000000000000000000000000000000000000000000000000000000000000000000000000000000000000000000000000000000000000000000000000000
#021340:000000000000000000000000000000000000000000000000000000000000000000000000000000000000000000000000000000000000000000000000000000000000000000000000000000000000000000000000000000000000000000000000000000000000000000000000000000000000000000000000000000000000000000000000000000000000000000000000000000000000000000000000000000000000000000000000000000000000000000000000000000000000000000000000000000000000000000000000000000000000000000000000000000000000000000000000000000000000000000000000000000000000000000000000000000000000000000000000000000000000000000000000000000000000000000000000000000000000000000000000000000000000000000000000000000000000000000000000000000000000000000000000000000000000000000000000000000000000000000000000000000000000000000000000000000000000000000000000000000000000000000000000000000000000000000000000000000000000000000000000000000000000000000000000000000000000000000000000000000000000000000000000000000000000000000000000000000000000000000000000000000000000000000000000000000000000000000000000000000000000000000000000000000000000000000000000000000000000000000000000000000000000000000000000000000000000000000000000000000000000000000000000000000000000000000000000000000000000000000000000000000000000000000000000000000000000000000000000000000000000000000000000000000000000000000000000000000000000000000000000000000000000000000000000000000000000000000000000000000000000000000000000000000000000000000000000000000000000000000000000000000000000000000000000000000000000000000000000000000000000000000000000000000000000000000000000000000000000000000000000000000000000000000000000000000000000000000000000000000000000000000000000000000000000000000000000000000000000000000000000000000000000000000000000000000000000000000000000000000000000000000000000000000000000000000000000000000000000000000000000000000000000000000000000000000000000000000000000000000000000000000000000000000000000000000000000000000000000000000000000000000000000000000000000000000000000000000000000000000000000000000000000000000000000000000000000000000000000000000000000000000000000000000000000000000000000000000000000000000000000000000000000000000000000000000000000000000000000000000000000000000000000000000000000000000000000000000000000000000000000000000000000000000000000000000000000000000000000000000000000000000000000000000000000000000000000000000000000000000000000530000000000000000000000000000000000000000000000000000000000000000000000000000000000000000000000000000000000000000000000000000000000000000000000000000000000000000000000000000000053000000000000000000000000000000000000000000000000000000000000000000000000000000000000000000000000000000000000000000000000000000000000000000000000000000000000000000000000000000000000000000000000000000000000000000000000000000000000000000000000000000000000000000000000000000000000000000000000000000000000000000000000000000000000000000000000000000000000000000000000000000000000000000000000000000000000000000000000000000000000000000000000000000000000000000000000000000000000000000000000000000000000000000000000000000000000000000000000000000000000000000000000000000000000000000000000000000000000000000000000000000000000000000000000000000000000000000000000000000000000000000000000000000000000000000000000000000000000000000000000000000000000000000000000000000000000000000000000000000000000000000000000000000000000000000000000000000000000000000000000000000000000000000000000000000000000000000000000000000000000000000000000000000000000000000000000000000000000000000000000000000000000000000000000000000000000000000000000000000000000000000000000000000000000000000000000000000000000000000000000000000000000000000000000000000000000000000000000000000000000000000000000000000000000000000000000000000000000000000000000000000000000000000000000000000000000000000000000000000000000000000000000000000000000000000000000000000000000000000000000
#021330:000000000000000000000000000000000000000000000000000000000000000000000000000000000000000000000000000000000000000000000000000000000000000000000000000000000000000000000000000000000000000000000000000000000000000000000000000000000000000000000000000000000000000000000000000000000000000000000000000000000000000000000000000000000000000000000000000000000000000000000000000000000000000000000000000000000000000000000000000000000000000000000000000000000000000000000000000000000000000000000000000000000000000000000000000000000000000000000000000000000000000000000000000000000000000000000000000000000000000000000000000000000000000000000000000000000000000000000000000000000000000000000000000000000000000000000000000000000000000000000000000000000000000000000000000000000000000000000000000000000000000000000000000000000000000000000000000000000000000000000000000000000000000000000000000000000000000000000000000000000000000000000000000000000000000000000000000000000000000000000000000000000000000000000000000000000000000000000000000000000000000000000000000000000000000000000000000000000000000000000000000000000000000000000000000000000000000000000000000000000000000000000000000000000000000000000000000000000000000000000000000000000000000000000000000000000000000000000000000000000000000000000000000000000000000000000000000000000000000000000000000000000000000000000000000000000000000000000000000000000000000000000000000000000000000000000000000000000000000000000000000000000000000000000000000000000000000000000000000000000000000000000000000000000000000000000000000000000000000000000000000000000000000000000000000000000000000000000000000000000000000000000000000000000000000000000000000000000000000000000000000000000000000000000000000000000000000000000000000000000000000000000000000000000000000000000000000000000000000000000000000000000000000000000000000000000000000000000000000000000000000000000000000000000000000000000000000000000000000000000000000000000000000000000000000000000000000000000000000000000000000000000000000000000000000000000000000000000000000000000000000000000000000000000000000000000000000000000000000000000000000000000000000000000000000000000000000000000000000000000000000000000000000000000000000000000000000000000000000000000000000000000000000000000000000000000000000000000000000000000000000000000000000000000000000000000000000000000000000000000000000000000000000000000000000000000000000000000000000000000000000000000000000000000000000000000000000000000000000000000000000000000000000000000000000000000000000000000000000000000000530000000000000000000000000000000000000000000000000000000000000000000000000000000000000000000000000000000000000000000000000000000000000000000000000000000000000000000000000000000053000000000000000000000000000000000000000000000000000000000000000000000000000000000000000000000000000000000000000000000000000000000000000000000000000000000000000000000000000000000000000000000000000000000000000000000000000000000000000000000000000000000000000000000000000000000000000000000000000000000000000000000000000000000000000000000000000000000000000000000000000000000000000000000000000000000000000000000000000000000000000000000000000000000000000000000000000000000000000000000000000000000000000000000000000000000000000000000000000000000000000000000000000000000000000000000000000000000000000000000000000000000000000000000000000000000000000000000000000000000000000000000000000000000000000000000000000000000000000000000000000000000000000000000000000000000000000000000000000000000000000000000000000000000000000000000000000000000000000000000000000000000000000000000000000000000000000000000000000000000000000000000000000000000000000000000000000000000000000000000000000000000000000000000000000000000000000000000000000000000000000000000000000000000000000000000000000000000000000000000000000000000000000000000000000000000000000000000000000000000000
#021320:00000000000000000000000000000000000000000000000000000000000000000000000000000000000000000053000023000000000000000000000000000000
#021320:000000000000000000000000000000000000000000000000000000000000000000000000000000000000000000000000000000000000000000000000000000000000000000000000000000000000000000000000000000000000000000000000000000000000000000000000000000000000000000000000000000000000000000000000000000000000000000000000000000000000000000000000000000000000000000000000000000000000000000000000000000000000000000000000000000000000000000000000000000000000000000000000000000000000000000000000000000000000000000000000000000000000000000000000000000000000000000000000000000000000000000000000000000000000000000000000000000000000000000000000000000000000000000000000000000000000000000000000000000000000000000000000000000000000000000000000000000000000000000000000000000000000000000000000000000000000000000000000000000000000000000000000000000000000000000000000000000000000000000000000000000000000000000000000000000000000000000000000000000000000000000000000000000000000000000000000000000000000000000000000000000000000000000000000000000000000000000000000000000000000000000000000000000000000000000000000000000000000000000000000000000000000000000000000000000000000000000000000000000000000000000000000000000000000000000000000000000000000000000000000000000000000000000000000000000000000000000000000000000000000000000000000000000000000000000000000000000000000000000000000000000000000000000000000000000000000000000000000000000000000000000000000000000000000000000000000000000000000000000000000000000000000000000000000000000000000000000000000000000000000000000000000000000000000000000000000000000000000000000000000000000000000000000000000000000000000000000000000000000000000000000000000000000000000000000000000000000000000000000000000000000000000000000000000000000000000000000000000000000000000000000000000000000000000000000000000000000000000000000000000000000000000000000000000000000000000000000000000000000000000000000000000000000000000000000000000000000000000000000000000000000000000000000000000000000000000000000000000000000000000000000000000000000000000000000000000000000000000000000000000000000000000000000000000000000000000000000000000000000000000000000000000000000000000000000000000000000000000000000000000000000000000000000000000000000000000000000000000000000000000000000000000000000000000000000000000000000000000000000000000000000000000000000000000000000000000000000000000000000000000000000000000000000000000000000000000000000000000000000000000000000000000000000000000000000000000000000000000000000000000000000000000000000000000000000000000000000000000000000000000000000000000000000000000000000000000000000000000000000000000000000000000000000000000000000000000000000000000000000000000000000000000000000000000000000000000000000000000000000000000000000000000000000000000000000000000000000000000000000000000000000000000000000000000000000000000000000000000000000000000000000000000000000000000000000000000000000000000000000000000000000000000000000000000000000000000000000000000000000000000000000000000000000000000000000000000000000000000000000000000000000000000000000000000000000000000000000000000000000000000000000000000000000000000000000000000000000000000000000000000130000000000000000000000000000000000000000000000000000000000000000000000000000000000000000000000000000000000000000000000000000000000000000000000000000000000000000000000000000000053000000000000000000000000000000000000000000000000000000000000000000000000000000000000000000000000000000000000000000000000000000000000000000000000000000000000000000000000000000000000000000000000000000000000000000000000000000000000000000000000000000000000000000000000000000000000000000000000000000000000000000000000000000000000000000000000000000000000000000000000000000000000000000000000000000000000000000000000000000000000000000000000000000000000000000000000000000000000000000000000000000000000000000000000000000000000000000000000000000000000
#021330:000000000000000000000000000000000000000000000000000000000000000000000000000000000000000000000000000000000000000000000000000000000000000000000000000000000000000000000000000000000000000000000000000000000000000000000000000000000000000000000000000000000000000000000000000000000000000000000000000000000000000000000000000000000000000000000000000000000000000000000000000000000000000000000000000000000000000000000000000000000000000000000000000000000000000000000000000000000000000000000000000000000000000000000000000000000000000000000000000000000000000000000000000000000000000000000000000000000000000000000000000000000000000000000000000000000000000000000000000000000000000000000000000000000000000000000000000000000000000000000000000000000000000000000000000000000000000000000000000000000000000000000000000000000000000000000000000000000000000000000000000000000000000000000000000000000000000000000000000000000000000000000000000000000000000000000000000000000000000000000000000000000000000000000000000000000000000000000000000000000000000000000000000000000000000000000000000000000000000000000000000000000000000000000000000000000000000000000000000000000000000000000000000000000000000000000000000000000000000000000000000000000000000000000000000000000000000000000000000000000000000000000000000000000000000000000000000000000000000000000000000000000000000000000000000000000000000000000000000000000000000000000000000000000000000000000000000000000000000000000000000000000000000000000000000000000000000000000000000000000000000000000000000000000000000000000000000000000000000000000000000000000000000000000000000000000000000000000000000000000000000000000000000000000000000000000000000000000000000000000000000000000000000000000000000000000000000000000000000000000000000000000000000000000000000000000000000000000000000000000000000000000000000000000000000000000000000000000000000000000000000000000000000000000000000000000000000000000000000000000000000000000000000000000000000000000000000000000000000000000000000000000000000000000000000000000000000000000000000000000000000000000000000000000000000000000000000000000000000000000000000000000000000000000000000000000000000000000000000000000000000000000000000000000000000000000000000000000000000000000000000000000000000000000000000000000000000000000000000000000000000000000000000000000000000000000000000000000000000000000000000000000000000000000000000000000000000000000000000000000000000000000000000000000000000000000000000000000000000000000000000000000000000000000000000000000000000000000000000000000000000000000000000000000000000000000000000000000000000000000000000000000000000000000000000000000000000000000000000000000000000000000000000000000000000000000000000000000000000000000000000000000000000000000000000000000000000000000000000000000000000000000000000000000000000000000000000000000000000000000000000000000000000000000000000000000000000000000000000000000000000000000000000000000000000000000000000000000000000000000000000000000000000000000000000000000000000000000000000000000000000000000000000000000000000000000000000000000000000000000000000000000000000000000000000000000000000000000000000000000000000000000000000000000000000000000000000000000000000000000000000000000000000000000000000000000000000000000000000000000000000000000000000000000000000000000000000000000000000000000000530000000000000000000000000000000000000000000000000000000000000000000000000000000000000000000000000000000000000000000000000000000000000000000000000000000000000000000000000000000053000000000000000000000000000000000000000000000000000000000000000000000000000000000000000000000000000000000000000000000000000000000000000000000000000000000000000000000000000000000000000000000000000000000000000000000000000000000000000000000000000000000000000000000000000000000000000000000000000000000000000000000000000000000000000000000000000000000000000000000000
#021340:000000000000000000000000000000000000000000000000000000000000000000000000000000000000000000000000000000000000000000000000000000000000000000000000000000000000000000000000000000000000000000000000000000000000000000000000000000000000000000000000000000000000000000000000000000000000000000000000000000000000000000000000000000000000000000000000000000000000000000000000000000000000000000000000000000000000000000000000000000000000000000000000000000000000000000000000000000000000000000000000000000000000000000000000000000000000000000000000000000000000000000000000000000000000000000000000000000000000000000000000000000000000000000000000000000000000000000000000000000000000000000000000000000000000000000000000000000000000000000000000000000000000000000000000000000000000000000000000000000000000000000000000000000000000000000000000000000000000000000000000000000000000000000000000000000000000000000000000000000000000000000000000000000000000000000000000000000000000000000000000000000000000000000000000000000000000000000000000000000000000000000000000000000000000000000000000000000000000000000000000000000000000000000000000000000000000000000000000000000000000000000000000000000000000000000000000000000000000000000000000000000000000000000000000000000000000000000000000000000000000000000000000000000000000000000000000000000000000000000000000000000000000000000000000000000000000000000000000000000000000000000000000000000000000000000000000000000000000000000000000000000000000000000000000000000000000000000000000000000000000000000000000000000000000000000000000000000000000000000000000000000000000000000000000000000000000000000000000000000000000000000000000000000000000000000000000000000000000000000000000000000000000000000000000000000000000000000000000000000000000000000000000000000000000000000000000000000000000000000000000000000000000000000000000000000000000000000000000000000000000000000000000000000000000000000000000000000000000000000000000000000000000000000000000000000000000000000000000000000000000000000000000000000000000000000000000000000000000000000000000000000000000000000000000000000000000000000000000000000000000000000000000000000000000000000000000000000000000000000000000000000000000000000000000000000000000000000000000000000000000000000000000000000000000000000000000000000000000000000000000000000000000000000000000000000000000000000000000000000000000000000000000000000000000000000000000000000000000000000000000000000000000000000000000000000000000000000000000000000000000000000000000000000000000000000000000000000000000000000000000000000000000000000000000000000000000000000000000000000000000000000000000000000000000000000000000000000000000000000000000000000000000000000000000000000000000000000000000000000000000000000000000000000000000000000000000000000000000000000000000000000000000000000000000000000000000000000000000000000000000000000000000000000000000000000000000000000000000000000000000000000000000000000000000000000000000000000000000000000000000000000000000000000000000000000000000000000000000000000000000000000000000000000000000000000000000000000000000000000000000000000000000000000000000000000000000000000000000000000000000000000000000000000000000000000000000000000000000000000000000000000000000000000000000000000000000000000000000000000000000000000000000000000000000000000000000000000000000000000000000000000000000000000000000000000000000000000000000000000000000000000000000000000000000000000000000000000000000000000000000000000000000000000000000000000000000000000000000000000000000530000000000000000000000000000000000000000000000000000000000000000000000000000000000000000000000000000000000000000000000000000000000000000000000000000000000000000000000000000000053000000000000000000000000000000000000000000000000000000000000000000000000000000000000000000000000000000000000000000000000000000000000000000000000000000000000000000000000000000000000
#021350:00000000000000000000000000000000000000000000000000000000000000000000000000000000000000000000000000000000000000000000000000530000
#022350:23
#0223b0:00000000001300230000000000000000
#022380:0013
#0223b0:0000000000230000
#022321:0000000000130000
#022351:00000023
#022380:00000013
#0223b0:0000000000000023
#022321:0000000000000013
#023351:23
#0233b1:0013230000000000
#023321:0000001323000000
#0233b1:0000000000132300
#023381:00000000000000000000000000130000
#0243b1:23
#0243b1:0013
#024381:0000000000230000
#024320:0000000000130000
#024350:00000023
#024381:000000000000000000000000000000000000135353535353
#024391:000000000000000000000000000000000000000000000000000000000000000000000000005300530053005300530053
#025381:23
#025381:000000000000000000000000000000000000000000000000000000000000000000000000000000000000000000000000000000000000000000000000000000000000000000000000000000000000000000000000000000000000000000000000000000000000000000000000000000000000000000000000000000000000000000000000000000000000000000000000000000000000000000000000000000000000000000000000000000000000000000000000000000000000000000000000000000000000000000000000000000000000000000000000000000000000000000000000000000000000000000000000000000000000000000000000000000000000000000000000000000000000000000000000000000000000000000000000000000000000000000000000000000000000000000000000000000000000000000000000000000000000000000000000000000000000000000000000000000000000000000000000000000000000000000000000000000000000000000000000000000000000000000000000000000000000000000000000000000000000000000000000000000000000000000000000000000000000000000000000000000000000000000000000000000000000000000000000000000000000000000000000000000000000000000000000000000000000000000000000000000000000000000000000000000000000000000000000000000000000000000000000000000000000000000000000000000000000000000000000000000000000000000000000000000000000000000000000000000000000000000000000000000000000000000000000000000000000000000000000000000000000000000000000000000000000000000000000000000000000000000000000000000000000000000000000000000000000000000000000000000000000000000000000000000000000000000000000000000000000000000000000000000000000000000000000000000000000000000000000000000000000000000000000000000000000000000000000000000000000000000000000000000000000000000000000000000000000000000000000000000000000000000000000000000000000000000000000000000000000000000000000000000000000000000000000000000000000000000000000000000000000000000000000000000000000000000000000000000000000000000000000000000000000000000000000000000000000000000000000000000000000000000000000000000000000000000000000000000000000000000000000000000000000000000000000000000000000000000000000000000000000000000000000000000000000000000000000000000000000000000000000000000000000000000000000000000000000000000000000000000000000000000000000000000000000000000000000000000000000000000000000130000000000000000000000000000000000000000000000000000000000000000000000000000000000000000000000000000000000000000000000000000000000000000000000000000000000000000000000000000000053000000000000000000000000000000000000000000000000000000000000000000000000000000000000000000000000000000000000000000000000000000000000000000000000000000000000000000000000000000000000000000000000000000000000000000000000000000000000000000000000000000000000000000000000000000000000000000000000000000000000000000000000000000000000000000000000000000000000000000000000000000000000000000000000000000000000000000000000000000000000000000000000000000000000000000000000000000000000000000000000000000000000000000000000000000000000000000000000000000000000000000000000000000000000000000000000000000000000000000000000000000000000000000000000000000000000000000000000000000000000000000000000000000000000000000000000000000000000000000000000000000000000000000000000000000000000000000000000000000000000000000000000000000000000000000000000000000000000000000000000000000000000000000000000000000000000000000000000000000000000000000000000000000000000000000000000000000000000000000000000000000000000000000000000000000000000000000000000000000000000000000000000000000000000000000000000000000000000000000000000000000000000000000000000000000000000000000000000000000000000000000000000000000000000000000000000000000000000000000000000000000000000000000000000000000000000000000000000000000000000000000000000000000000000000000000000000000000000000000000000000000000000000000000000000000000000000000000000000000000000000000000000000000000000000000000000000000000000000000000000000000000000000000000000000000000000000000000000000000000000
#025391:000000000000000000000000000000000000000000000000000000000000000000000000000000000000000000000000000000000000000000000000000000000000000000000000000000000000000000000000000000000000000000000000000000000000000000000000000000000000000000000000000000000000000000000000000000000000000000000000000000000000000000000000000000000000000000000000000000000000000000000000000000000000000000000000000000000000000000000000000000000000000000000000000000000000000000000000000000000000000000000000000000000000000000000000000000000000000000000000000000000000000000000000000000000000000000000000000000000000000000000000000000000000000000000000000000000000000000000000000000000000000000000000000000000000000000000000000000000000000000000000000000000000000000000000000000000000000000000000000000000000000000000000000000000000000000000000000000000000000000000000000000000000000000000000000000000000000000000000000000000000000000000000000000000000000000000000000000000000000000000000000000000000000000000000000000000000000000000000000000000000000000000000000000000000000000000000000000000000000000000000000000000000000000000000000000000000000000000000000000000000000000000000000000000000000000000000000000000000000000000000000000000000000000000000000000000000000000000000000000000000000000000000000000000000000000000000000000000000000000000000000000000000000000000000000000000000000000000000000000000000000000000000000000000000000000000000000000000000000000000000000000000000000000000000000000000000000000000000000000000000000000000000000000000000000000000000000000000000000000000000000000000000000000000000000000000000000000000000000000000000000000000000000000000000000000000000000000000000000000000000000000000000000000000000000000000000000000000000000000000000000000000000000000000000000000000000000000000000000000000000000000000000000000000000000000000000000000000000000000000000000000000000000000000000000000000000000000000000000000000000000000000000000000000000000000000000000000000000000000000000000000000000000000000000000000000000000000000000000000000000000000000000000000000000000000000000000000000000000000000000000000000000000000000000000000000000000000000000000000000000000000000000000000000000000000000000000000000000000000000000000000000000000000000000000000000000000000000000000000000000000000000000000000000000000000000000000000000000000000000000530000000000000000000000000000000000000000000000000000000000000000000000000000000000000000000000000000000000000000000000000000000000000000000000000000000000000000000000000000000053000000000000000000000000000000000000000000000000000000000000000000000000000000000000000000000000000000000000000000000000000000000000000000000000000000000000000000000000000000000000000000000000000000000000000000000000000000000000000000000000000000000000000000000000000000000000000000000000000000000000000000000000000000000000000000000000000000000000000000000000000000000000000000000000000000000000000000000000000000000000000000000000000000000000000000000000000000000000000000000000000000000000000000000000000000000000000000000000000000000000000000000000000000000000000000000000000000000000000000000000000000000000000000000000000000000000000000000000000000000000000000000000000000000000000000000000000000000000000000000000000000000000000000000000000000000000000000000000000000000000000000000000000000000000000000000000000000000000000000000000000000000000000000000000000000000000000000000000000000000000000000000000000000000000000000000000000000000000000000000000000000000000000000000000000000000000000000000000000000000000000000000000000000000000000000000000000000000000000000000000000000000000000000000000000000000000000000000000000000000000000000000000000000000000000000000000000000000000000000000000000000000000000000000000000000000000000000000000000000000000000000000000000000000000000000000000000000000000000000000000
#0253a1:000000000000000000000000000000000000000000000000000000000000000000000000000000000000000000000000000000000000000000000000000000000000000000000000000000000000000000000000000000000000000000000000000000000000000000000000000000000000000000000000000000000000000000000000000000000000000000000000000000000000000000000000000000000000000000000000000000000000000000000000000000000000000000000000000000000000000000000000000000000000000000000000000000000000000000000000000000000000000000000000000000000000000000000000000000000000000000000000000000000000000000000000000000000000000000000000000000000000000000000000000000000000000000000000000000000000000000000000000000000000000000000000000000000000000000000000000000000000000000000000000000000000000000000000000000000000000000000000000000000000000000000000000000000000000000000000000000000000000000000000000000000000000000000000000000000000000000000000000000000000000000000000000000000000000000000000000000000000000000000000000000000000000000000000000000000000000000000000000000000000000000000000000000000000000000000000000000000000000000000000000000000000000000000000000000000000000000000000000000000000000000000000000000000000000000000000000000000000000000000000000000000000000000000000000000000000000000000000000000000000000000000000000000000000000000000000000000000000000000000000000000000000000000000000000000000000000000000000000000000000000000000000000000000000000000000000000000000000000000000000000000000000000000000000000000000000000000000000000000000000000000000000000000000000000000000000000000000000000000000000000000000000000000000000000000000000000000000000000000000000000000000000000000000000000000000000000000000000000000000000000000000000000000000000000000000000000000000000000000000000000000000000000000000000000000000000000000000000000000000000000000000000000000000000000000000000000000000000000000000000000000000000000000000000000000000000000000000000000000000000000000000000000000000000000000000000000000000000000000000000000000000000000000000000000000000000000000000000000000000000000000000000000000000000000000000000000000000000000000000000000000000000000000000000000000000000000000000000000000000000000000000000000000000000000000000000000000000000000000000000000000000000000000000000000000000000000000000000000000000000000000000000000000000000000000000000000000000000000000000000000000000000000000000000000000000000000000000000000000000000000000000000000000000000000000000000000000000000000000000000000000000000000000000000000000000000000000000000000000000000530000000000000000000000000000000000000000000000000000000000000000000000000000000000000000000000000000000000000000000000000000000000000000000000000000000000000000000000000000000053000000000000000000000000000000000000000000000000000000000000000000000000000000000000000000000000000000000000000000000000000000000000000000000000000000000000000000000000000000000000000000000000000000000000000000000000000000000000000000000000000000000000000000000000000000000000000000000000000000000000000000000000000000000000000000000000000000000000000000000000000000000000000000000000000000000000000000000000000000000000000000000000000000000000000000000000000000000000000000000000000000000000000000000000000000000000000000000000000000000000000000000000000000000000000000000000000000000000000000000000000000000000000000000000000000000000000000000000000000000000000000000000000000000000000000000000000000000000000000000000000000000000000000000000000000000000000000000000000000000000000000000000000000000000000000000000000000000000000000000000000000000000000000000000000000000000000000000000000000000000000000000000000000000000000000000000000000000000000000000000000000000000000000000000000000000000000000000000000000000000000000000000000000000000000000000000000000000000000000000000000000000000000000000000000000000000000000000000000000000000
#0253b1:00000000000000000000000000000000000000000000000000000000000000000000000000000000000000000053000023000000000000000000000000000000
#0253b1:000000000000000000000000000000000000000000000000000000000000000000000000000000000000000000000000000000000000000000000000000000000000000000000000000000000000000000000000000000000000000000000000000000000000000000000000000000000000000000000000000000000000000000000000000000000000000000000000000000000000000000000000000000000000000000000000000000000000000000000000000000000000000000000000000000000000000000000000000000000000000000000000000000000000000000000000000000000000000000000000000000000000000000000000000000000000000000000000000000000000000000000000000000000000000000000000000000000000000000000000000000000000000000000000000000000000000000000000000000000000000000000000000000000000000000000000000000000000000000000000000000000000000000000000000000000000000000000000000000000000000000000000000000000000000000000000000000000000000000000000000000000000000000000000000000000000000000000000000000000000000000000000000000000000000000000000000000000000000000000000000000000000000000000000000000000000000000000000000000000000000000000000000000000000000000000000000000000000000000000000000000000000000000000000000000000000000000000000000000000000000000000000000000000000000000000000000000000000000000000000000000000000000000000000000000000000000000000000000000000000000000000000000000000000000000000000000000000000000000000000000000000000000000000000000000000000000000000000000000000000000000000000000000000000000000000000000000000000000000000000000000000000000000000000000000000000000000000000000000000000000000000000000000000000000000000000000000000000000000000000000000000000000000000000000000000000000000000000000000000000000000000000000000000000000000000000000000000000000000000000000000000000000000000000000000000000000000000000000000000000000000000000000000000000000000000000000000000000000000000000000000000000000000000000000000000000000000000000000000000000000000000000000000000000000000000000000000000000000000000000000000000000000000000000000000000000000000000000000000000000000000000000000000000000000000000000000000000000000000000000000000000000000000000000000000000000000000000000000000000000000000000000000000000000000000000000000000000000000000000000000000000000000000000000000000000000000000000000000000000000000000000000000000000000000000000000000000000000000000000000000000000000000000000000000000000000000000000000000000000000000000000000000000000000000000000000000000000000000000000000000000000000000000000000000000000000000000000000000000000000000000000000000000000000000000000000000000000000000000000000000000000000000000000000000000000000000000000000000000000000000000000000000000000000000000000000000000000000000000000000000000000000000000000000000000000000000000000000000000000000000000000000000000000000000000000000000000000000000000000000000000000000000000000000000000000000000000000000000000000000000000000000000000000000000000000000000000000000000000000000000000000000000000000000000000000000000000000000000000000000000000000000000000000000000000000000000000000000000000000000000000000000000000000000000000000000000000000000000000000000000000000000000000000000000000000000000000000000000000000000130000000000000000000000000000000000000000000000000000000000000000000000000000000000000000000000000000000000000000000000000000000000000000000000000000000000000000000000000000000053000000000000000000000000000000000000000000000000000000000000000000000000000000000000000000000000000000000000000000000000000000000000000000000000000000000000000000000000000000000000000000000000000000000000000000000000000000000000000000000000000000000000000000000000000000000000000000000000000000000000000000000000000000000000000000000000000000000000000000000000000000000000000000000000000000000000000000000000000000000000000000000000000000000000000000000000000000000000000000000000000000000000000000000000000000000000000000000000000000000000
#0253a1:000000000000000000000000000000000000000000000000000000000000000000000000000000000000000000000000000000000000000000000000000000000000000000000000000000000000000000000000000000000000000000000000000000000000000000000000000000000000000000000000000000000000000000000000000000000000000000000000000000000000000000000000000000000000000000000000000000000000000000000000000000000000000000000000000000000000000000000000000000000000000000000000000000000000000000000000000000000000000000000000000000000000000000000000000000000000000000000000000000000000000000000000000000000000000000000000000000000000000000000000000000000000000000000000000000000000000000000000000000000000000000000000000000000000000000000000000000000000000000000000000000000000000000000000000000000000000000000000000000000000000000000000000000000000000000000000000000000000000000000000000000000000000000000000000000000000000000000000000000000000000000000000000000000000000000000000000000000000000000000000000000000000000000000000000000000000000000000000000000000000000000000000000000000000000000000000000000000000000000000000000000000000000000000000000000000000000000000000000000000000000000000000000000000000000000000000000000000000000000000000000000000000000000000000000000000000000000000000000000000000000000000000000000000000000000000000000000000000000000000000000000000000000000000000000000000000000000000000000000000000000000000000000000000000000000000000000000000000000000000000000000000000000000000000000000000000000000000000000000000000000000000000000000000000000000000000000000000000000000000000000000000000000000000000000000000000000000000000000000000000000000000000000000000000000000000000000000000000000000000000000000000000000000000000000000000000000000000000000000000000000000000000000000000000000000000000000000000000000000000000000000000000000000000000000000000000000000000000000000000000000000000000000000000000000000000000000000000000000000000000000000000000000000000000000000000000000000000000000000000000000000000000000000000000000000000000000000000000000000000000000000000000000000000000000000000000000000000000000000000000000000000000000000000000000000000000000000000000000000000000000000000000000000000000000000000000000000000000000000000000000000000000000000000000000000000000000000000000000000000000000000000000000000000000000000000000000000000000000000000000000000000000000000000000000000000000000000000000000000000000000000000000000000000000000000000000000000000000000000000000000000000000000000000000000000000000000000000000000000000000000000000000000000000000000000000000000000000000000000000000000000000000000000000000000000000000000000000000000000000000000000000000000000000000000000000000000000000000000000000000000000000000000000000000000000000000000000000000000000000000000000000000000000000000000000000000000000000000000000000000000000000000000000000000000000000000000000000000000000000000000000000000000000000000000000000000000000000000000000000000000000000000000000000000000000000000000000000000000000000000000000000000000000000000000000000000000000000000000000000000000000000000000000000000000000000000000000000000000000000000000000000000000000000000000000000000000000000000000000000000000000000000000000000000000000000000000000000000000000000000000000000000000000000000000000000000000000000000000000000000530000000000000000000000000000000000000000000000000000000000000000000000000000000000000000000000000000000000000000000000000000000000000000000000000000000000000000000000000000000053000000000000000000000000000000000000000000000000000000000000000000000000000000000000000000000000000000000000000000000000000000000000000000000000000000000000000000000000000000000000000000000000000000000000000000000000000000000000000000000000000000000000000000000000000000000000000000000000000000000000000000000000000000000000000000000000000000000000000000000000
#025391:000000000000000000000000000000000000000000000000000000000000000000000000000000000000000000000000000000000000000000000000000000000000000000000000000000000000000000000000000000000000000000000000000000000000000000000000000000000000000000000000000000000000000000000000000000000000000000000000000000000000000000000000000000000000000000000000000000000000000000000000000000000000000000000000000000000000000000000000000000000000000000000000000000000000000000000000000000000000000000000000000000000000000000000000000000000000000000000000000000000000000000000000000000000000000000000000000000000000000000000000000000000000000000000000000000000000000000000000000000000000000000000000000000000000000000000000000000000000000000000000000000000000000000000000000000000000000000000000000000000000000000000000000000000000000000000000000000000000000000000000000000000000000000000000000000000000000000000000000000000000000000000000000000000000000000000000000000000000000000000000000000000000000000000000000000000000000000000000000000000000000000000000000000000000000000000000000000000000000000000000000000000000000000000000000000000000000000000000000000000000000000000000000000000000000000000000000000000000000000000000000000000000000000000000000000000000000000000000000000000000000000000000000000000000000000000000000000000000000000000000000000000000000000000000000000000000000000000000000000000000000000000000000000000000000000000000000000000000000000000000000000000000000000000000000000000000000000000000000000000000000000000000000000000000000000000000000000000000000000000000000000000000000000000000000000000000000000000000000000000000000000000000000000000000000000000000000000000000000000000000000000000000000000000000000000000000000000000000000000000000000000000000000000000000000000000000000000000000000000000000000000000000000000000000000000000000000000000000000000000000000000000000000000000000000000000000000000000000000000000000000000000000000000000000000000000000000000000000000000000000000000000000000000000000000000000000000000000000000000000000000000000000000000000000000000000000000000000000000000000000000000000000000000000000000000000000000000000000000000000000000000000000000000000000000000000000000000000000000000000000000000000000000000000000000000000000000000000000000000000000000000000000000000000000000000000000000000000000000000000000000000000000000000000000000000000000000000000000000000000000000000000000000000000000000000000000000000000000000000000000000000000000000000000000000000000000000000000000000000000000000000000000000000000000000000000000000000000000000000000000000000000000000000000000000000000000000000000000000000000000000000000000000000000000000000000000000000000000000000000000000000000000000000000000000000000000000000000000000000000000000000000000000000000000000000000000000000000000000000000000000000000000000000000000000000000000000000000000000000000000000000000000000000000000000000000000000000000000000000000000000000000000000000000000000000000000000000000000000000000000000000000000000000000000000000000000000000000000000000000000000000000000000000000000000000000000000000000000000000000000000000000000000000000000000000000000000000000000000000000000000000000000000000000000000000000000000000000000000000000000000000000000000000000000000000000000000000000000000000000000000000000000000000000000000000000000000000000000000000000000000000000000000000000000000000000000000000000000000000000000000000000000000000000000000000000000000000000000000000000000530000000000000000000000000000000000000000000000000000000000000000000000000000000000000000000000000000000000000000000000000000000000000000000000000000000000000000000000000000000053000000000000000000000000000000000000000000000000000000000000000000000000000000000000000000000000000000000000000000000000000000000000000000000000000000000000000000000000000000000000
#025381:00000000000000000000000000000000000000000000000000000000000000000000000000000000000000000000000000000000000000000000000000530000
#026381:23
#0263b1:0000000000132300
#026320:0000000000001323
#0263b1:0000000000000013
#027381:00230000
#027320:13
#027350:00230000
#029380:00000013
#0303b0:23
#029321:0000000000000013
#030351:23
#030351:00000000001300000000000000000000
#030321:0023
#0323b1:0000001300000000
#032381:0023
#032320:0013
#032350:00000023
#033360:000000000000000000000000000000000000000000000000000000000000000000000000000000000000000000000000000000000000000000000000000000000000000000000000000000000000000000000000000000000000000000000000000000000000000000000000000000000000000000000000000000000000000000000000000000000000000000000000000000000000000000000000000000000000000000000000000000000000000000000000000000000000000000000000130000000000000000000000000000000000005300000000000000000000000000000000000000000000000000000000000000000000000000000000000000000000000000000000000000000000000000000000000000000000000000000000000000000000000000000000000000000000000000000000000000000000000000000000000000000000000000000000000000000000000000000000000000000000000000000000000000000000000000000000000000000000000000000000
#033350:000000000000000000000000000000000000000000000000000000000000000000000000000000000000000000000000000000000000000000000000000000000000000000000000000000000000000000000000000000000000000000000000000000000000000000000000000000000000000000000000000000000000000000000000000000000000000000000000000000000000000000000000000000000000000000000000000000000000000000000000000000000000000000000000000000000000000000000000000000000000000000000000000000000000000000000000000000000000000000000000000000000000000000000000000000000000000000000000000000000000000000000000000000000000000000000000000000000000000000000000000000000000000000000000000000000000000000000000000000000000000000000000000000000000000000000000000000000000000000000000000000000000000000000000000000000000000000000000000000000000000000000000000000000000000000000000000000000000000000000000000000000000000000000000000000000000000000000000000000000000000000000000000000000000000000000000000000000000000000000000000000000000000000000000000000000000000000000000000000000000000000000000000000000000000000000000000000000000000000000000000000000000000000000000000000000000000000000000000000000000000000000000000000000000000000000000000000000000000000000000000000000000000000000000000000000000000000000000000000000000000000000000000000000000000000000000000000000000000000000000000000000000000000000000000000000000000000000000000000000000000000000000000000000000000000000000000000000000000000000000000000000000000000000000000000000000000000000000000000000000000000000000000000000000000000000000000000000000000000000000000000000000000000000000000000000000000000000000000000000000000000000000000000000000000000000000000000000000000000000000000000000000000000000000000000000000000000000000000000000000000000000000000000000000000000000000000000000000000000000000000000000000000000000000000000000000000000000000000000000000000000000000000000000000000000000000000000000000000000000000000000000000000000000000000000000000000000000000000000000000000000000000000000000000000000000000000000000000000000000000000000000000000000000000000000000000000000000000000000000000000000000000530000000000000000000000000000000000000000000000000000000000000000000000000000000000000000000000000000000000000000000000000000000000000000000000000000000000000000000000000000000000000000000053000000000000000000000000000000000000000000000000000000000000000000000000000000000000000000000000000000000000000000000000000000000000000000000000000000000000000000000000000000000000000000000000000000000000000000000000000000000000000000000000000000000000000000000000000000000000000000000000000000000000000000000000000000000000000000000000000000000000000000000000000000000000000000000000000000000000000000000000000000000000000000000000000000000000000000000000000000000000000000000000000000000000000000000000000000000000000000000000000000000000000000000000000000000000000000000000000000000000000000000000000000000000000000000000000000000000000000000000000000000000000000000000000000000000000000000000000000000000000000000000000000000000000000000000000000000000000000000000000000000000000000000000000000000000000000000000000000000000000000000000000000000000000000000000000000000000000000000000000000000000000000000000000000000000000000000000000000000000000000000000000000000000000000000000000000000000000000000000000000000000000000000000000000000000000000000000000000000000000000000000000000000000000000000000000000000000000000000000000000000000000000000000000000000000000000000000000000000000000000000000000000000000000000000000000000000000000000000000000000000000000000000000000000000000000000000000000000000000000000000000000000000000000000000000000000000000000000000000000000000000000000000000000000000000000000000000000000000000000000000000000000000000000000000000000000000000000000000000000000000000000000000000000000000000000000000000
#033340:000000000000000000000000000000000000000000000000000000000000000000000000000000000000000000000000000000000000000000000000000000000000000000000000000000000000000000000000000000000000000000000000000000000000000000000000000000000000000000000000000000000000000000000000000000000000000000000000000000000000000000000000000000000000000000000000000000000000000000000000000000000000000000000000000000000000000000000000000000000000000000000000000000000000000000000000000000000000000000000000000000000000000000000000000000000000000000000000000000000000000000000000000000000000000000000000000000000000000000000000000000000000000000000000000000000000000000000000000000000000000000000000000000000000000000000000000000000000000000000000000000000000000000000000000000000000000000000000000000000000000000000000000000000000000000000000000000000000000000000000000000000000000000000000000000000000000000000000000000000000000000000000000000000000000000000000000000000000000000000000000000000000000000000000000000000000000000000000000000000000000000000000000000000000000000000000000000000000000000000000000000000000000000000000000000000000000000000000000000000000000000000000000000000000000000000000000000000000000000000000000000000000000000000000000000000000000000000000000000000000000000000000000000000000000000000000000000000000000000000000000000000000000000000000000000000000000000000000000000000000000000000000000000000000000000000000000000000000000000000000000000000000000000000000000000000000000000000000000000000000000000000000000000000000000000000000000000000000000000000000000000000000000000000000000000000000000000000000000000000000000000000000000000000000000000000000000000000000000000000000000000000000000000000000000000000000000000000000000000000000000000000000000000000000000000000000000000000000000000000000000000000000000000000000000000000000000000000000000000000000000000000000000000000000000000000000000000000000000000000000000000000000000000000000000000000000000000000000000000000000000000000000000000000000000000000000000000000000000000000000000000000000000000000000000000000000000000000000000000000000000000000000000000000000000000000000000000000000000000000000000000000000000000000000000000000000000000000000000000000000000000000000000000000000000000000000000000000000000000000000000000000000000000000000530000000000000000000000000000000000000000000000000000000000000000000000000000000000000000000000000000000000000000000000000000000000000000000000000000000000000000000000000000000000000000000053000000000000000000000000000000000000000000000000000000000000000000000000000000000000000000000000000000000000000000000000000000000000000000000000000000000000000000000000000000000000000000000000000000000000000000000000000000000000000000000000000000000000000000000000000000000000000000000000000000000000000000000000000000000000000000000000000000000000000000000000000000000000000000000000000000000000000000000000000000000000000000000000000000000000000000000000000000000000000000000000000000000000000000000000000000000000000000000000000000000000000000000000000000000000000000000000000000000000000000000000000000000000000000000000000000000000000000000000000000000000000000000000000000000000000000000000000000000000000000000000000000000000000000000000000000000000000000000000000000000000000000000000000000000000000000000000000000000000000000000000000000000000000000000000000000000000000000000000000000000000000000000000000000000000000000000000000000000000000000000000000000000000000000000000000000000000000000000000000000000000000000000000000000000000000000000000000000000000000000000000000000000000000000000000000000000000000000000000000000000000000000000000000000000000000000000000000000000000000000000000000000000000000000000000000000000000000000000000000000000000000000000000000000000000000000000000000000000000000000000000000000000000000000000000
#033330:000000000000000000000000000000000000000000000000000000000000000000000000000000000000000000000000000000000000000000000000000000000000000000000000000000000000000000000000000000000000000000000000000000000000000000000000000000000000000000000000000000000000000000000000000000000000000000000000000000000000000000000000000000000000000000000000000000000000000000000000000000000000000000000000000000000000000000000000000000000000000000000000000000000000000000000000000000000000000000000000000000000000000000000000000000000000000000000000000000000000000000000000000000000000000000000000000000000000000000000000000000000000000000000000000000000000000000000000000000000000000000000000000000000000000000000000000000000000000000000000000000000000000000000000000000000000000000000000000000000000000000000000000000000000000000000000000000000000000000000000000000000000000000000000000000000000000000000000000000000000000000000000000000000000000000000000000000000000000000000000000000000000000000000000000000000000000000000000000000000000000000000000000000000000000000000000000000000000000000000000000000000000000000000000000000000000000000000000000000000000000000000000000000000000000000000000000000000000000000000000000000000000000000000000000000000000000000000000000000000000000000000000000000000000000000000000000000000000000000000000000000000000000000000000000000000000000000000000000000000000000000000000000000000000000000000000000000000000000000000000000000000000000000000000000000000000000000000000000000000000000000000000000000000000000000000000000000000000000000000000000000000000000000000000000000000000000000000000000000000000000000000000000000000000000000000000000000000000000000000000000000000000000000000000000000000000000000000000000000000000000000000000000000000000000000000000000000000000000000000000000000000000000000000000000000000000000000000000000000000000000000000000000000000000000000000000000000000000000000000000000000000000000000000000000000000000000000000000000000000000000000000000000000000000000000000000000000000000000000000000000000000000000000000000000000000000000000000000000000000000000000000000000000000000000000000000000000000000000000000000000000000000000000000000000000000000000000000000000000000000000000000000000000000000000000000000000000000000000000000000000000000000000000000000000000000000000000000000000000000000000000000000000000000000000000000000000000000000000000000000000000000000000000000000000000000000000000000000000000000000000000000000000000000000000000000000530000000000000000000000000000000000000000000000000000000000000000000000000000000000000000000000000000000000000000000000000000000000000000000000000000000000000000000000000000000000000000000053000000000000000000000000000000000000000000000000000000000000000000000000000000000000000000000000000000000000000000000000000000000000000000000000000000000000000000000000000000000000000000000000000000000000000000000000000000000000000000000000000000000000000000000000000000000000000000000000000000000000000000000000000000000000000000000000000000000000000000000000000000000000000000000000000000000000000000000000000000000000000000000000000000000000000000000000000000000000000000000000000000000000000000000000000000000000000000000000000000000000000000000000000000000000000000000000000000000000000000000000000000000000000000000000000000000000000000000000000000000000000000000000000000000000000000000000000000000000000000000000000000000000000000000000000000000000000000000000000000000000000000000000000000000000000000000000000000000000000000000000000000000000000000000000000000000000000000000000000000000000000000000000000000000000000000000000000000000000000000000000000000000000000000000000000000000000000000000000000000000000000000000000000000000000000000000000000000000000000000000000000000000000000000000000000000000000000000000000000000000000000000000000
#033320:0000000000000000000000000000532300000000
#033371:000000000000000000000000000000000000000000000000000000000000000000000000000000000000000000000000000000000000000000000000000000000000000000000000000000000000000000000000000000000000000000000000000000000000000000000000000000000000000000000000000000000000000000000000000000000000000000000000000000000000000000000000000000000000000000000000000000000000000000000000000000000000000000000000000000000000000000000000000000000000000000000000000000000000000000000000000000000000000000000000000000000000000000000000000000000000000000000000000000000000000000000000000000000000000000000000130000000000000000000000000000000000005300000000000000000000000000000000000000000000000000000000000000000000000000000000000000000000000000000000000000000000000000000000000000000000000000000000
#033381:000000000000000000000000000000000000000000000000000000000000000000000000000000000000000000000000000000000000000000000000000000000000000000000000000000000000000000000000000000000000000000000000000000000000000000000000000000000000000000000000000000000000000000000000000000000000000000000000000000000000000000000000000000000000000000000000000000000000000000000000000000000000000000000000000000000000000000000000000000000000000000000000000000000000000000000000000000000000000000000000000000000000000000000000000000000000000000000000000000000000000000000000000000000000000000000000000000000000000000000000000000000000000000000000000000000000000000000000000000000000000000000000000000000000000000000000000000000000000000000000000000000000000000000000000000000000000000000000000000000000000000000000000000000000000000000000000000000000000000000000000000000000000000000000000000000000000000000000000000000000000000000000000000000000000000000000000000000000000000000000000000000000000000000000000000000000000000000000000000000000000000000000000000000000000000000000000000000000000000000000000000000000000000000000000000000000000000000000000000000000000000000000000000000000000000000000000000000000000000000000000000000000000000000000000000000000000000000000000000000000000000000000000000000000000000000000000000000000000000000000000000000000000000000000000000000000000000000000000000000000000000000000000000000000000000000000000000000000000000000000000000000000000000000000000000000000000000000000000000000000000000000000000000000000000000000000000000000000000000000000000000000000000000000000000000000000000000000000000000000000000000000000000000000000000000000000000000000000000000000000000000000000000000000000000000000000000000000000000000000000000000000000000000000000000000000000000000000000000000000000000000000000000000000000000000000000000000000000000000000000000000000000000000000000000000000000000000000000000000000000000000000000000000000000000000000000000000000000000000000000000000000000000000000000000000000000000000000000000000000000000000000000000000000000000000000000000000000000000000000000000000000000000000000000000000000000000000000000000000000000000000000000000000000000000000000000000000000000000000000000000000000000000000000000000000000000000000000000000000000000000000000000000000000000000000000000000000000000000000000000000000000000000000000000000000000000000000000000000000000000000000000000000000000000000000000000000000000000000000000000000000000000000000000000000000000000000000000000000000000000000000000000000000000000000000000000000000000000000000000000000000000000000000000000000000000000000000000000000000000000000000000000000000000000000000000000000000000000000000000000000000000000000000000000000000000000000000000000000000000000000000000000000000000000000000000000000000000000000000000000000000000000000000000000000000000000000000000000000000000000000000000000000000000000000000000000000000000000000000000000000000000000000000000000000000000000000000000000000000000000000000000000000000000000000000000000000000000000000000000000000000000000530000000000000000000000000000000000000000000000000000000000000000000000000000000000000000000000000000000000000000000000000000000000000000000000000000000000000000000000000000000000000000000053000000000000000000000000000000000000000000000000000000000000000000000000000000000000000000000000000000000000000000000000000000000000000000000000000000000000000000000000000000000000000000000000000000000000000000000000000000000000000000000000000000000000000000000000000000000000000000000000000000000000000000000000000000000000000000000000000000000000000000000000000000000000000000000000000000000000000000000000000000000000000000000000000000000000000000000000000000000000000000000000000000000000000000000000000000000000000000000000000000000000000000000000000000000000000000000000
#033391:000000000000000000000000000000000000000000000000000000000000000000000000000000000000000000000000000000000000000000000000000000000000000000000000000000000000000000000000000000000000000000000000000000000000000000000000000000000000000000000000000000000000000000000000000000000000000000000000000000000000000000000000000000000000000000000000000000000000000000000000000000000000000000000000000000000000000000000000000000000000000000000000000000000000000000000000000000000000000000000000000000000000000000000000000000000000000000000000000000000000000000000000000000000000000000000000000000000000000000000000000000000000000000000000000000000000000000000000000000000000000000000000000000000000000000000000000000000000000000000000000000000000000000000000000000000000000000000000000000000000000000000000000000000000000000000000000000000000000000000000000000000000000000000000000000000000000000000000000000000000000000000000000000000000000000000000000000000000000000000000000000000000000000000000000000000000000000000000000000000000000000000000000000000000000000000000000000000000000000000000000000000000000000000000000000000000000000000000000000000000000000000000000000000000000000000000000000000000000000000000000000000000000000000000000000000000000000000000000000000000000000000000000000000000000000000000000000000000000000000000000000000000000000000000000000000000000000000000000000000000000000000000000000000000000000000000000000000000000000000000000000000000000000000000000000000000000000000000000000000000000000000000000000000000000000000000000000000000000000000000000000000000000000000000000000000000000000000000000000000000000000000000000000000000000000000000000000000000000000000000000000000000000000000000000000000000000000000000000000000000000000000000000000000000000000000000000000000000000000000000000000000000000000000000000000000000000000000000000000000000000000000000000000000000000000000000000000000000000000000000000000000000000000000000000000000000000000000000000000000000000000000000000000000000000000000000000000000000000000000000000000000000000000000000000000000000000000000000000000000000000000000000000000000000000000000000000000000000000000000000000000000000000000000000000000000000000000000000000000000000000000000000000000000000000000000000000000000000000000000000000000000000000000000000000000000000000000000000000000000000000000000000000000000000000000000000000000000000000000000000000000000000000000000000000000000000000000000000000000000000000000000000000000000000000000000000000000000000000000000000000000000000000000000000000000000000000000000000000000000000000000000000000000000000000000000000000000000000000000000000000000000000000000000000000000000000000000000000000000000000000000000000000000000000000000000000000000000000000000000000000000000000000000000000000000000000000000000000000000000000000000000000000000000000000000000000000000000000000000000000000000000000000000000000000000000000000000000000000000000000000000000000000000000000000000000000000000000000000000000000000000000000000000000000000000000000000000000000000000000000000000000000000000000000000000000000000000000000000000000000000000000000000000000000000000000000000000000000000000000000000000000000000000000000000000000000000000000000000000000000000000000000000000000000530000000000000000000000000000000000000000000000000000000000000000000000000000000000000000000000000000000000000000000000000000000000000000000000000000000000000000000000000000000000000000000053000000000000000000000000000000000000000000000000000000000000000000000000000000000000000000000000000000000000000000000000000000000000000000000000000000000000000000000000000000000000000000000000000000000000000000000000000000000000000000000000000000000000000000000000000000000000000000000000000000000000000000000000000000000000000000000000000000000000000000000000000000000000000000000000
#0333a1:000000000000000000000000000000000000000000000000000000000000000000000000000000000000000000000000000000000000000000000000000000000000000000000000000000000000000000000000000000000000000000000000000000000000000000000000000000000000000000000000000000000000000000000000000000000000000000000000000000000000000000000000000000000000000000000000000000000000000000000000000000000000000000000000000000000000000000000000000000000000000000000000000000000000000000000000000000000000000000000000000000000000000000000000000000000000000000000000000000000000000000000000000000000000000000000000000000000000000000000000000000000000000000000000000000000000000000000000000000000000000000000000000000000000000000000000000000000000000000000000000000000000000000000000000000000000000000000000000000000000000000000000000000000000000000000000000000000000000000000000000000000000000000000000000000000000000000000000000000000000000000000000000000000000000000000000000000000000000000000000000000000000000000000000000000000000000000000000000000000000000000000000000000000000000000000000000000000000000000000000000000000000000000000000000000000000000000000000000000000000000000000000000000000000000000000000000000000000000000000000000000000000000000000000000000000000000000000000000000000000000000000000000000000000000000000000000000000000000000000000000000000000000000000000000000000000000000000000000000000000000000000000000000000000000000000000000000000000000000000000000000000000000000000000000000000000000000000000000000000000000000000000000000000000000000000000000000000000000000000000000000000000000000000000000000000000000000000000000000000000000000000000000000000000000000000000000000000000000000000000000000000000000000000000000000000000000000000000000000000000000000000000000000000000000000000000000000000000000000000000000000000000000000000000000000000000000000000000000000000000000000000000000000000000000000000000000000000000000000000000000000000000000000000000000000000000000000000000000000000000000000000000000000000000000000000000000000000000000000000000000000000000000000000000000000000000000000000000000000000000000000000000000000000000000000000000000000000000000000000000000000000000000000000000000000000000000000000000000000000000000000000000000000000000000000000000000000000000000000000000000000000000000000000000000000000000000000000000000000000000000000000000000000000000000000000000000000000000000000000000000000000000000000000000000000000000000000000000000000000000000000000000000000000000000000000000000000000000000000000000000000000000000000000000000000000000000000000000000000000000000000000000000000000000000000000000000000000000000000000000000000000000000000000000000000000000000000000000000000000000000000000000000000000000000000000000000000000000000000000000000000000000000000000000000000000000000000000000000000000000000000000000000000000000000000000000000000000000000000000000000000000000000000000000000000000000000000000000000000000000000000000000000000000000000000000000000000000000000000000000000000000000000000000000000000000000000000000000000000000000000000000000000000000000000000000000000000000000000000000000000000000000000000000000000000000000000000000000000000000000000000000000000000000000000000000000000000000000000000000000000000000000000000000000000000000000000000000000000000000000000000000000000000000000000000000000000000000000000000000000000000000000000000000000000000000000000000000000000000000000000000000000000000000000000000000000530000000000000000000000000000000000000000000000000000000000000000000000000000000000000000000000000000000000000000000000000000000000000000000000000000000000000000000000000000000000000000000053000000000000000000000000000000000000000000000000000000000000000000000000000000000000000000000000000000000000000000000000000000000000000000000000000000000000000000000000000000000000000000000000
#0333b1:0000000000000000000000000000000000000053
#0343b1:23
#034381:0000000000000013
#0363b1:53
#036381:00000000000000230000000000000000
#036320:13
#036350:00000000000000230000000000000000
#0373b0:13
#038370:00530000
#039390:53
#0393b0:00000053
#040380:0000000000260000
#0413b0:13
#041380:0000000000000023
#041321:0000000000000013
#042361:0000000000000023
#0423b0:0000000000000013
#046380:00000026
#049380:00000000001300000000000000000000
#0493b0:00000000000000230000000000000000
#049320:00000000000000000000000000000013
#050350:00230000000000000000000000000000
#050350:0013
#050320:0000000000230000
#0503b0:0000000000000013
#0513b0:23
#051350:00000000001300000000000000000000
#051320:00000000000000230000000000000000
#0513b0:00000000000000000000000000000013
#0523b0:0023000000000000
#052361:0013000000000000
#052351:00230000
#0523b0:00130000
#0523a0:0000002300000000
#052351:0000001300000000
#052341:0023
#0523a0:0013
#052390:0000000000230000
#052341:0000000000130000
#052331:00000023
#052390:00000013
#052380:0000000000000023
#052331:0000000000000013
#053321:23
#053381:00000000001300000000000000000000
#0533b1:00000000000000230000000000000000
#053321:00000000000000000000000000000013
#054351:00230000000000000000000000000000
#054351:0013
#054321:0000000000230000
#0543b1:0000000000000013
#0553b1:33
#055381:00230000
#055320:13
#055350:00230000
#0553a0:00000000000000000000000000000014
#056360:00240000000000000000000000000000
#056320:00000014000000000000000000000000
#056360:00000000002400000000000000000000
#0563a0:00000000000000140000000000000000
#056360:00000000000000000024000000000000
#056321:00000000000000000014000000002400
#056361:0000000000000000000000000000000000000000000000540000000000000000
#056370:0000000000000013
#0573b0:23
#057320:00000000001300000000000000000000
#057360:00000000000000230000000000000000
#057370:00000000000000000000000000000013
#0583b0:00230000000000000000000000000000
#0583b0:0013
#058370:0000000000230000
#058360:0000000000000013
#059320:23
#059370:00000000001300000000000000000000
#0593b0:00000000000000230000000000000000
#059361:00000000000000130000000000000000
#059321:00000000000000000023000000000000
#059371:00000000000000000000001300000000
#0593b1:00000000000000000000000000230000
#059361:00000000000000000000000000000014
#060321:00240000000000000000000000000000
#060321:0014000024000000
#0603a0:00001424
#060321:0000000000140000
#060361:00000024
#0613b1:00000000001300000000000000000000
#061371:00000000000000230000000000000000
#061361:00000000000000000000000000000013
#062321:00230000000000000000000000000000
#062321:0013
#062361:0000000000230000
#062371:0000000000000013
#0633b1:33
#063381:00230000
#063320:13
#063350:00230000
#065380:16260000
#065340:0056000000000000
#065350:00000000000000000000001300230000
#065381:00000000000000000000000000130023
#066321:00000000000000130023000000000000
#0663b1:0000000000000013
#068381:0022
#066320:0000000000000013
#068360:0022
#069360:00000012002200000000000000000000
#0693a1:00000000001200220000000000000000
#069340:00000000000000120022000000000000
#0693c0:00000000000000000000001200220000
#069320:00000000000000000000000000000012
#070320:3232323232323232323232323232323200000000000000000000000000000000
#070350:00000000000000000026000000000000
#071320:00000000001300000000000000000000
#071360:00000000000000230000000000000000
#0713b1:00000000000000130023000000000000
#0713b1:0000000000130000
#071371:00000023
#071321:00000000000000000000000000130023
#072321:000000000000001300230000
#073351:0000000000132300
#0743a1:000000000000000000000000000000000000000014000000000000000000000000240000000000000000000000000000
#0753b1:00000000000000130000000000000000
#075371:00000000000000000023000000000000
#075371:0000000000130000
#0753b1:00000023
#075360:00000014
#075340:00000000000000000000000000340000
#075330:0000000000000034
#075320:00000000000000000000000000000024
#078320:16
#079320:0022000000000000
#085320:0000000000000000000000000013000000000000000000000000000000000000
#086320:53
#088370:22
#086371:13
#0883c1:22
#0099b0:00000000000000000000000000130000
#010970:00230000000000000000000000000000
#011960:00000000000000000000000000130000
#011920:00000000000000000000000000000023
#0129b0:00130000000000000000000000000000
#012970:00000023000000000000000000000000
#014960:00000013000000000000000000000000
#014920:00000000000000230000000000000000
#027920:00001323
#027960:0000000000530000
#0279b1:00001323
#027971:000000000000000000000000000000000000000000000000000000000000000000000000000000000000000000000000000000000000000000000000000000000000000000000000000000000000000000000000000000000000000000000000000000000000000000000000000000000000000000000000000000000000000000000000000000000000000000000000000000000000000000000000000000000000000000000000000000000000000000000000000000000000000000000000000000000000000000000000000000000000000000000000000000000000000000000000000000000000000000000000000000000000000000000000000000000000000000000000000000000000000000000000000000000000000000000000000000000000000000000000000000000000000000000000000000000000000000000000000000000000000000000000000000000000000000000000000000000000000000000000000000000000000000000000000000000000000000000000000000000000000000000000000000000000000000000000000000000000000000000000000000000000000000000000000000000000000000000000000000000000000000000000000000000000000000000000000000000000000000000000000000000000000000000000000000000000000000000000000000000000000000000000000000000000000000000000000000000000000000000000000000000000000000000000000000000000000000000000000000000000000000000000000000000000000000000000000000000000000000000000000000000000000000000000000000000000000000000000000000000000000000000000000000000000000000000000000000000000000000000000000000000000000000000000000000000000000000000000000000000000000000000000000000000000000000000000000000000000000000000000000000000000000000000000000000000000000000000000000000000000000000000000000000000000000000000000000000000000000000000000000000000000000000000000000000000000000000000000000000000000000000000000000000000000000000000000000000000000000000000000000000000000000000000000000000000000000000000000000000000000000000000000000000000000000000000000000000000000000000000000000000000000000000000000000000000000000000000000000000000000000000000000000000000000000000000000000000000000000000000000000000000000000000000000000000000000000000000000000000000000000000000000000000000000000000000000000000000000000000000000000000000000000000000000000000000000000000000000000000000000000000000000000000000000000000000000000000000000000000000000000000000000000000000000000000000000000000000000000000000000000000000000000000000000000000000000000000000000000000000000000000000000000000000000000000000000000000000000000000000000000000000000000000000000000000000000000000000000000000000000005300000000000000000000000000000000000000000000000000000000000000000000000000000000000000000000000000000000000000000000000000000000000000000000000000000000000000000000000000000000000000000000000000000000000000000000000000000000000000000000000000000000000000000000000000000000000000000000000000000000000000000000000000000000000000000000000000000000000000000000000000000000000000000000000000000000000000000000000000000000000000000000000000000000000000000000000000000000000000000000000000000000000000000000000000000000000000000000000000000000000000000000000000000000000000000000000000000000000000000000000000000000000000000000000000000000000000000000000000000000000000000000000000000000000000000000000000000000000000000000000000000000000000000000000000000000000000000000000000000000000000000000000000000000000000000000000000000000000000000000000000000000000000000000000000000000000000000000000000000000000000000000000000000000000000000000000000000000000000000000000000000000000000000000000000000000000000000000000000000000000000000000000000000000000000000000000000000000000000000000000000000000000000000000000000000000000000000000000000000000000000000000000000000000000000000000000000000000000000000000000000000000000000000000000000000000000000000000000000000000000000000000000000000000000000000000000000000000000000000000000000000000000000000000000000000000000000000000000000000000000000000000000000000000000000000000000000000000000000000000
#0319b1:13
#031971:002300000000
#031921:000000000013000000000000000000000000000000000000
#031961:0000002300000000
#046961:0000000000000014
#046971:000000000000000000000055
#046941:000000000000000000000000000000000000000000000055
#047971:565757575757575757565453
#047931:005600000000000000000000000000000000005600000000
#047921:000000570057005700570057005700570057000000000000
#047951:0000000000000054
#047961:000000000000000000000000000000000000000000000053
#048971:535455565757000000000000
#048961:005300000000000000000000000000000000000000000000
#048951:0054000000000000
#048941:000000000055000000000000000000000000000000000000
#048931:000000000000005600000000000000000000000000000000
#048921:00000000000000000057002c000000000000000000000000
#072981:00000013
#0729b1:0000000000000053
#073981:23
#074971:00000000000000000000001200000000
#074921:0000000000000000000000000000000000000000000000000000005200000000
#075971:22
#0799a1:0012000000000000
#079971:0000000000000022000000000000000000000000000000000000000000000000
#079931:00130000
#079961:0000000000000000000000230000000000000000000000000000000000000000
#079991:0000001400000000
#079961:0000000000000000000000000000002400000000000000000000000000000000
#079921:0015
#079951:0000000000000000000000000000000000000025000000000000000000000000
#079981:0000000000160000
#079951:0000000000000000000000000000000000000000000000260000000000000000
#081971:00132300
#0819b1:0000005300000000
#082981:00140000
#0829a1:000000000000002400000000000000000000000000000000
#082941:0000001400000000
#082921:000000000024000000000000
#082971:0014
#0829a1:000000000000000000000000002400000000000000000000
#082951:0000000000140000
#082921:000024
#082961:00000014
#0829a1:000000000000000000000000000000000000002400000000
#083961:00120000
#083931:0000002200000000
#0839c0:0000001200000000
#083990:0022
#083951:0012
#083921:0000000000220000
#083980:0000000000120000
#0839b0:00000022
#083921:00000012
#083951:0000000000000022
#084921:0012005200520000
#084951:00525222
#0849a0:00000013
#085960:53
#0859b0:00000000002300000000000000000000
#085960:0000000000000000000000130000000000000000000000000000000000000000
#085920:0000000000000000000000000023000000000000000000000000000000000000
#0859b0:00000013
#086970:23
