This file was generated by Ched 2.7.0.0.
#TITLE ""
#ARTIST ""
#DESIGNER ""
#DIFFICULTY 0
#PLAYLEVEL
#SONGID ""
#WAVE ""
#WAVEOFFSET 0
#JACKET ""
#REQUEST "ticks_per_beat 480"
#00002: 4
#BPM01: 145
#00008: 01
#TIL00: ""
#VOLUME: ""
#HISPEED 00
#MEASUREHS 00
#00114:0012000000000000
#00118:00120000
#00116:0000001200000000
#00316:0012000000000000
#00318:00120000
#00314:0000001200000000
#0481b:0000000000131300
#04812:00001c0000131300
#04818:0000000000000013
#04815:00000000000000000000000000000013
#04813:1a
#02015:00001300000000000000000000130000
#02018:00130013
#0201b:23
#02010:41
#03112:00000000000000000013000000000000
#03118:00001300000000130000001300000000
#03115:1300001300001300
#0311b:00130000
#07515:00000000130000000013000000000000
#07512:2300001300001400
#0751b:0000130000130000
#07518:23000000000000130000000000001400
#07514:00000000000000000000000000000014
#07118:00000000130000000013000000000000
#07115:0000000000131300
#0711b:23
#07112:23
#07110:41
#01312:00000000000000240000240000130000
#01317:00000000000000000000000000000013
#0131a:00000000002400000000000000000000
#01314:00000000002400000000000000000000
#01318:00000000000000240000240000000000
#0651b:00231300
#06512:0013
#06515:0000000000130000
#06516:00230000
#04915:0013130000000000
#04918:00000013000000000000000000000000
#0491b:23
#0491f:21
#04913:0000000000330033
#07712:00130000
#0771b:0000000000130000
#07715:1300000013001313
#07718:00001300000013000000000000130013
#0211b:1300001300000000
#02112:1300000000000000000000000000000000000000000000000000003333333333
#02115:0000000013000000130000000000000000000033333333330000000000000000
#02118:00000013000000000000000000000000
#02113:0000000000000000000000000000000000330000000000000000330000000000
#02114:0000000000000000000000000000000000003300000000000033000000000000
#0321b:13000013
#03215:0013000000000013
#03218:00000000130000000000000000000013
#03210:41
#03312:0000130000000000000000000000000000000033333333330000000000000000
#0331b:00000000000000130000000000000000
#03318:00000013000000000000000000000000
#03315:0000000000000000000013000000000000000000000000000000003333333333
#03314:0000000000000000000000000000000000330000000000000000330000000000
#03313:0000000000000000000000000000000000003300000000000033000000000000
#0341b:0013000000000013
#03412:00130000
#03415:00000000000000130000130000000000
#03418:0000001313001300
#0661b:00000013
#06616:00000000003333000000000000001300
#06615:00330000
#06614:00000033000000000000000000000000
#06613:0033000000000000
#0091b:00000000000000000000000000130000
#00912:24000000002400000000000000130000
#00918:24000000002400000000000000000013
#0091a:00000000000000240000240000000000
#00914:00000000000000240000240000000000
#00910:41
#01116:00000000000000000000000000000013
#0111b:00000000000000000000000000130000
#01114:00000000002400000000000000000000
#0111a:00000000002400000000000000000000
#01112:00000000000000240000240000000000
#01118:00000000000000240000240000000000
#0121b:00130000000000530000000000000000
#01214:00000000000000000024000024000000
#0121a:00005300000053000024000024000000
#01219:00000053005300000000000000000000
#01218:00530000
#01015:13000013000000000000000000000000
#0101b:00000000001300000000000000000000
#01012:00000000000000130000000000000000
#01018:00130000000000000000000000000000
#01014:00000000000000000024000000240000
#0101a:00000000000000000024000000240000
#01412:00130000000000530024000000240000
#01418:00000000000000000024000000240000
#01414:00000053005300000000000000000000
#01413:0053005300000000
#01415:00530000
#0181a:14000014
#01818:00140000
#01812:00141400
#01814:00000014
#01512:00000000002400000000000000001400
#01518:00000000002400000000000000000000
#0151a:00000000000000240000240000000000
#01514:00000000000000240000240000000000
#01716:14
#01916:14
#0191a:00140000
#01912:00140000
#01915:00000000000000000013001300000000
#01918:0000000000131300
#02418:1300001300000000
#0241b:0013
#02412:0013
#02415:00130000
#0231b:13000013
#02312:13000013
#02315:0013001300130000
#02318:00131300
#0571b:0013000000000000
#05718:00130000
#05715:00000013000000000000000000000000
#05712:23
#05719:0000000000330000
#05714:0000000000000033
#05618:00130000000013000000000000000000
#05615:00001300001300000000000000000000
#0561b:00000000000000000013000000000000
#0561a:00000024000000000000000000000000
#05612:00000000000000240000000000000000
#05512:00000000000000130000000000000024
#05518:00000000000000000013000000000000
#05515:00000000000000000000001300000000
#0551b:00000000000000000000000000130000
#06312:13000000000000000000000000130000
#0631b:00000000000000130000000000000000
#06318:00000000000000000000001300000000
#06315:00000000000000000013000000000000
#06317:13
#06916:14
#06915:00160000
#06914:0018
#06913:0000001a
#07012:1c
#07016:00000000000000000024000000000000
#07916:0014005400580000
#07919:0000000000000054005400000000005400550000000000000000000000000000
#07917:0000000000540000000000540054000000000057000000000000000000000000
#07918:00000054005400540056000000000000
#0791a:00545400
#07913:00000000000000000000000000000000000000000000005b0000000000000000
#07914:00000000000000000000005a00000000
#07915:0000000000000000000000000000000000000000005900000000000000000000
#07912:0000006c
#07815:13
#0831b:0013
#08318:0000000000131300
#08315:00000000240000000000001300000000
#08312:00240000000000001300000000000000
#08317:00240000000000000000000000000000
#0831a:00240000
#0761a:00140000000000000000000000000000
#07612:00000014000000000000000000000000
#07619:00000000001400000000000000000000
#07614:00000000000000140000000000000000
#04714:00000018
#04715:16161600
#0251b:0013000000000000
#02515:0000000000000000130000000000000000000033333333330000000000000000
#02518:0000001300000000
#02512:0000000000000000000000000000000000000000000000000000003333333333
#02513:0000000000000000000000000000000000330000000000000000330000000000
#02514:0000000000000000000000000000000000003300000000000033000000000000
#04018:00000000000000000000000000160000
#04112:16
#04118:0000000000000016
#0411f:11
#03615:00000013
#03618:0000000000000013
#03712:16
#0581b:00000000003333330000001300130000
#05816:0000000000130013
#05817:00130000000000000000000000000000
#05818:0033000000000000
#05819:00000033000000000000000000000000
#0581a:00330000
#05318:0013130000000000
#05315:00000013000000000000000000000000
#05312:23
#0531a:0000000000330033
#06112:0013000000000000
#06115:00130000
#06118:00000013000000000000000000000000
#0611b:23
#06114:0000000000330000
#06119:0000000000000033
#06110:41
#06212:00000000003333330000001300130000
#06217:0000000000130013
#06216:00130000000000000000000000000000
#06215:0033000000000000
#06214:00000033000000000000000000000000
#06213:00330000
#0731b:1313
#07312:1300000000000014
#07315:00001300001300000000000013000000
#07318:0000130000130014
#07215:00000013
#07218:000000002400000000000000000000000000000000130000
#07212:002400240000000000000000
#0721a:000000000024002400000000
#07214:0024
#0021a:0012000000000000
#00216:00120000
#00418:0012000000000000
#00416:00120000
#00512:14141414
#0071a:14141414
#00612:14141414
#0081a:14
#0501b:00130000000000000000000000000000
#05017:00000000003333330000001300001300
#05012:00000000000000000000130000130000
#0501a:0033000000000000
#05019:00000033000000000000000000000000
#05018:00330000
#05010:41
#05412:00130000000000000000000000000000
#0541b:00000000000000000000130000130000
#05416:00000000003333330000001300001300
#05415:00330000
#05414:00000033000000000000000000000000
#05413:0033000000000000
#05118:0013130000000000
#05115:00000013000000000000000000000000
#05112:23
#0511a:0000000000330033
#06417:00000000000000000000000000000013
#06412:00000000000000000000000000000013
#02218:00001300001300000000000000000000
#02215:00130000
#02812:0000000000130000
#02815:0013001300000013
#0281b:00130000
#02818:23000000000000130000000013000000
#0271b:13
#02712:0013
#02612:0000130000130000
#02618:0000001313001300
#02615:00000000000000130000000000001300
#0261b:0013000000000000
#03015:00001300001300000000000000000000
#03018:00130000
#0291b:1300000013000000000000000000000000000000000000000000003333333333
#02915:00130000000000000000130000000000
#02918:00000000001300001300000000000000
#02912:0000131300000000
#02919:0000000000000000000000000000000000000000000000000033000000000000
#0291a:00000000000000000000000000330000
#05912:0013000000000000
#05915:00130000
#05918:00000013000000000000000000000000
#0591b:23
#05914:0000000000330000
#05919:0000000000000033
#06012:0000130000130000
#06015:00130000000000001300000000000000
#06018:0013001300130000
#0801a:24000000000000000000240000000024
#08014:24
#08015:00000000000000000000240000000024
#08012:00000000002400240000000000000000
#08017:00000000002400240000000000000000
#08217:24000000000000000000240000000024
#08215:00000000002400240000000000000000
#08212:24000000000000000000240000000024
#0821a:00000000002400240000000000000000
#08112:0000240000000024
#08115:00240000000000000024002400000000
#0811a:00240000000000000024002400000000
#08117:0000240000000024
#04512:0000003600000036
#04412:0000003600000036
#04312:0000003600000036
#0881c:52
#08812:52
#07414:005400540054000000000000
#07412:545454000000
#0741a:005400540054000000000000
#07418:545454000000
#0495b:13
#04958:00000000000000130000000000000000
#04952:00000000000000000000000000000013
#01552:1400000000000054
#01558:14
#01756:24
#05752:13000000000000130000000000000013
#0575b:00000000000000000000001300000000
#0565b:00000000000000000063000000000000
#05556:00130000
#0555b:00130000
#06656:0000000000000063
#07052:5c
#07056:00000000000000000014000000000000
#07658:00000000000000000000000000140000
#07952:1300001c
#07855:63
#0115a:14
#01154:14
#00958:14
#00952:14
#0135a:14
#01354:14
#03455:13
#0345b:0000000000000063
#04058:00000000000000000000000000160000
#04052:0000000000160000
#04152:56
#04158:0000000000000066
#03752:66
#0205b:13
#01958:00000053
#03652:000000000000001c0000000000000000
#0585b:0013
#05857:00530000000000000000000000000000
#05352:13
#05355:00000000000000130000000000000000
#0535b:00000000000000000000000000000013
#06256:00630000000000000000000000000000
#06252:0013
#0615b:13000000000000130000000000000013
#06152:00000000000000000000001300000000
#0085a:64
#00856:00000014
#0505b:00630000000000000000000000000000
#05057:0013
#05452:00530000000000000000000000000000
#05456:0013
#05152:13
#05155:00000000000000130000000000000000
#0515b:00000000000000000000000000000013
#06457:00000000000000000000000000000053
#06452:00000000000000000000000000000053
#0655b:00130000
#06556:00130000
#0715b:13
#07152:13
#07552:13
#07558:13
#02252:13
#0275b:63
#02752:0053
#02758:00130000
#02755:00000013
#02858:13
#0305b:13
#02652:13
#06058:0000000000530000
#06052:0000000000530000
#0605b:00000013
#06055:00000013
#0595b:13000000000000130000000000000013
#05952:00000000000000000000001300000000
#06357:53
#06352:53
#06356:00130000
#0635b:00130000
#02458:13
#03252:0013
#0325b:13
#002380:0000001200220000
#0043a0:0000001200220000
#0083a0:14
#008360:00000024
#0103a0:00000000000000000000000000140000
#0113a0:24
#010341:00000000000000000000000000140000
#011341:24
#0123a1:00000014
#0133a1:24
#012340:00000014
#013340:24
#014320:00000000000000000000000000140000
#015320:24
#014381:00000000000000000000000000140000
#015381:24
#015321:0000000000000014
#017361:54
#018321:24
#019381:00000013
#0203b1:23
#020351:00000000001300000000000000000000
#020321:00000000000000330000230000000000
#021321:0000000000000000000000000000000013000000000000000000003333333333
#021331:0000000000000000000000000000000000330000000000000000330000000000
#021341:0000000000000000000000000000000000003300000000000033000000000000
#021351:0000000000000000000000000000000000000033333333333300000000000000
#022321:23
#0223b1:0013
#022381:0000000000230000
#022350:0013
#022320:0000000000230000
#022320:00000013
#022350:0000000000000023
#022381:00000013
#0223b1:0000000000000023
#024321:000000000000000000000000000000000000135353535353
#024331:000000000000000000000000000000000000000000000000000000000000000000000000005300530053005300530053
#025321:23
#025321:0000000000000000000000000000000013000000000000000000003333333333
#025331:0000000000000000000000000000000000330000000000000000330000000000
#025341:0000000000000000000000000000000000003300000000000033000000000000
#025351:0000000000000000000000000000000000000033333333333300000000000000
#026321:23
#0273b1:13
#027381:00230000
#027321:0013
#027351:00000023
#029381:00000013
#029391:0000000000000000000000000000000000000000000000000033000000000000
#0293a1:00000000000000000000000000330000
#0293b1:0000000000000000000000000000000000000000000000000000003333333333
#0303b1:23
#030321:0013
#030351:0000000000230000
#030380:0013
#0303b0:0000000000230000
#0303b0:00000013
#030380:0000000000000023
#030351:00000013
#030321:0000000000000023
#032321:0000001323000000
#033351:0000000000000000000000000000000013000000000000000000003333333333
#033341:0000000000000000000000000000000000330000000000000000330000000000
#033331:0000000000000000000000000000000000003300000000000033000000000000
#033321:0000000000000000000000000000000000000033333333333300000000000000
#034351:23
#0343b1:0000000000000013
#036361:54
#036321:000000000000002c0000000000000000
#037321:16
#039321:00000052
#040321:0000000000260000
#041321:16
#041351:0000000000000023
#041380:0000000000000016
#042380:0000000000000023
#042321:0000000000000016
#043321:0000003600000036
#044321:0000003600000036
#045321:0000003600000036
#046351:0000002600000000
#049381:00000000001300230000000000000000
#049321:00000000000000000013000000000023
#049331:0000000000330033
#049351:00000000000000000000003300330000
#0503b1:00130000000000000000000000000000
#0503a1:0033000000000000
#050391:00000033000000000000000000000000
#050381:00330000
#050371:00000000003333332300000000000000
#051351:00000000001300230000000000000000
#0513b1:00000000000000000013000000000023
#0513a1:0000000000330033
#051381:00000000000000000000003300330000
#052351:0013003300330033
#052321:00333333
#053321:23
#053351:00000000001300230000000000000000
#0533b1:00000000000000000013000000000023
#0533a1:0000000000330033
#053381:00000000000000000000003300330000
#054321:00130000000000000000000000000000
#054331:0033000000000000
#054341:00000033000000000000000000000000
#054351:00330000
#054361:00000000003333332300000000000000
#055361:13230000
#0553b0:13230000
#0563b0:00000000000000000013000000000000
#056370:0000000000000023
#057320:00000000001300230000000000000000
#057380:00000000000000000013000000000000
#057390:0000000000330000
#0573b0:00000000000000000000002300000000
#057350:00000000000000000000000000130000
#057340:0000000000000033
#057320:00000000000000000000000000000023
#058370:00130000000000000000000000000000
#058380:0033000000000000
#058390:00000033000000000000000000000000
#0583a0:00330000
#0583b0:00000000003333332300000000000000
#0593b0:00000000001300230000000000000000
#059350:00000000000000000013000000000000
#059340:0000000000330000
#059320:00000000000000000000002300000000
#059380:00000000000000000000000000130000
#059390:0000000000000033
#0593b0:00000000000000000000000000000023
#060380:0000000000130000
#0603b0:00000023
#060321:0000000000130000
#060351:00000023
#0613b1:00000000001300230000000000000000
#061351:00000000000000000013000000000000
#061341:0000000000330000
#061321:00000000000000000000002300000000
#061381:00000000000000000000000000130000
#061391:0000000000000033
#0613b1:00000000000000000000000000000023
#062361:00130000000000000000000000000000
#062351:0033000000000000
#062341:00000033000000000000000000000000
#062331:00330000
#062321:00000000003333332300000000000000
#063321:13
#063361:00230000
#063370:13
#0633b0:00230000
#063370:00000000000000000000000000000013
#064370:00330000000000330033000000000033
#064390:0033003300330033
#0643b0:00000033003300000000003300330000
#0653b0:00230000
#063321:00000000000000000000000000000013
#064321:00330000000000330033000000000033
#064341:0033003300330033
#064361:00000033003300000000003300330000
#065361:00230000
#065381:00000000000000000000001300230000
#065321:00000000000000000000000000000013
#066321:00330000000000000000000000000000
#066331:0033000000000000
#066341:00000033000000000000000000000000
#066351:00330000
#066361:00000000003333330000230000000000
#066361:0000000000000013
#068321:00000022
#070321:1c
#070361:00000000000000000024000000000000
#0703b1:00000000000000000000000000130000
#0713b1:23
#070320:00000000000000000000000000130000
#071320:23
#071350:00000000001300000000000000000000
#071320:00000000000000230000000000000000
#071380:00000000000000000000000000130000
#0713b0:00000000000000000000000000000023
#074350:00000013
#075320:23
#0743b1:00000013
#075381:23
#076381:00000000000000000014000000240000
#078351:13
#079321:23
#0833a1:0000000000000014
#086381:52
#0883c1:22
#083320:0000000000000014
#086360:52
#088320:22
#0129b0:00130000000000230000000000000000
#012980:00530000
#014920:00130000000000230000000000000000
#014950:00530000
#073920:0000000000000014
#074920:545454000000
#074940:005400540024000000000000
#073981:0000000000000014
#074981:545454000000
#0749a1:005400540024000000000000
#079961:0014005400000000
#0799a1:00545400
#079921:0000002c
