This file was generated by Ched 2.7.0.0.
#TITLE ""
#ARTIST ""
#DESIGNER ""
#DIFFICULTY 0
#PLAYLEVEL
#SONGID ""
#WAVE ""
#WAVEOFFSET 0
#JACKET ""
#REQUEST "ticks_per_beat 480"
#00002: 4
#BPM01: 145
#00008: 01
#TIL00: ""
#VOLUME: ""
#HISPEED 00
#MEASUREHS 00
#0011a:1414
#01813:00140000
#01814:00001414
#01819:00140000
#0181a:00001414
#00212:1414
#00318:1414
#00414:1414
#0051a:14
#00512:0014
#0061a:14
#00612:0014
#00718:14
#00714:0014
#00818:14
#02014:00140000
#02018:0014
#02012:00000014
#0201a:24
#02010:41
#0211a:14
#02116:00140014
#02112:0014
#0221a:14
#02214:00140000
#02218:0014
#02212:00000014
#02418:14
#02414:00140000
#0241a:0014
#02412:00000014
#0251a:14
#02518:00140000
#02516:0014
#02514:00000014
#04914:00140000
#0491a:0014
#04912:00000014
#04918:26
#0491f:21
#05018:14140000
#05014:0014001400000000
#05010:41
#06416:00000000000000000000000000000018
#06418:00000034000000340000003400000000
#06514:0014
#06518:00000014
#06612:14
#0661a:00140000
#06614:0014
#06912:14
#06914:00140000
#06916:0014
#06918:00000014
#07112:00140014
#0711a:0014
#07116:24
#07110:41
#07712:14
#07716:00140000
#0771a:0014
#07714:00000014
#07718:0000000000000014
#01913:14
#01919:14
#01918:00140000
#01912:00140000
#02612:14
#02618:00140000
#02614:0014
#0261a:00000014
#02818:00140000
#02814:0014
#0281a:00000014
#02812:24
#02912:14
#02916:00140014
#0291a:0014
#03012:14
#03018:00140000
#03014:0014
#0301a:00000014
#03214:14
#03218:00140000
#03212:0014
#0321a:00000014
#03210:41
#03312:14
#03314:00140000
#03316:0014
#03318:00000014
#0341a:14
#03414:00140000
#03418:0014
#04718:1616
#04712:00160016
#04818:16
#04812:00160000
#04212:0000000000000014
#04416:00000014
#0511a:00140000
#05116:0014
#05112:24000014
#0521a:14140000
#05218:00001414
#05214:0014001400000000
#05212:0000000000140014
#05314:00140000
#0531a:0014
#05312:00000014
#05318:24
#05418:14140000
#05414:0014001400000000
#05718:00140000
#05714:0014
#0571a:00000014
#05712:24
#05812:14140000
#05818:0014001400000000
#05912:00140000
#0591a:2414
#05916:00000014
#06118:00140000
#06114:2414
#0611a:00000014
#06110:41
#06212:14140000
#06218:0014001400000000
#07312:14
#07316:00140014
#0731a:0014
#07512:00140000
#07516:0014
#0751a:24
#07413:0014
#06012:00000014
#0411f:11
#00912:24
#00918:24
#00910:41
#01114:24
#0111a:24
#01318:24
#01312:24
#01514:24
#0151a:24
#08816:54
#04958:16
#05752:14
#05358:14
#06456:00000000000000000000000000000058
#07156:14
#07952:00000014
#04252:0000000000000054
#04456:00000024
#05152:14
#06154:14
#0595a:14
#06558:00140000
#0755a:14
#07452:00000014
#07453:0064
#0765a:00000014
#06052:00000054
#009320:14000000003400340000340000000000
#010320:24
#009381:14000000003400340000340000000000
#010381:24
#011341:14000000003400340000340000000000
#012341:24
#0113a0:14000000003400340000340000000000
#0123a0:24
#013380:14000000003400340000340000000000
#014380:24
#013321:14000000003400340000340000000000
#014321:24
#015341:14000000003400340000340000003400
#018321:24
#0153a0:14000000003400340000340000003400
#018380:24
#0233a0:14240000
#023320:00001424
#027320:14240000
#0273a0:00001424
#031320:14240000
#0313a0:00001424
#034320:00000014
#036340:0024
#037380:16
#0403a0:24
#041320:14
#041340:0000000000000034
#042320:0000000000000034
#044360:00000054
#046320:0024
#050380:00001424
#054380:00001424
#055320:14
#055360:00000000000000000000000000000034
#056320:00000000000000340000000000000000
#057320:24
#058320:00001424
#060320:1434343434343400
#061340:24
#062320:00001424
#0633a0:14
#063380:00000000000000000000000000000034
#064380:00000034000000340000003400000000
#064360:00000000000000000000000000000038
#065380:00240000
#066380:0000000000001434
#0683a0:0024
#0703a0:14
#070360:00000000000000000034000000340000
#071360:24
#0723a0:143434340034343400240000
#074320:140000005400000000240000
#074330:005400540000
#0753a0:00000014
#0763a0:00000024
#078340:14
#079320:0034343434342400
#0803a0:14
#080360:00000054
#0813a0:0054
#082370:0054000000000000
#0823a0:0000000000000054
#083390:54545454
#0833a0:0054005400540034
#088360:24
