This file was generated by Ched 2.7.0.0.
#TITLE ""
#ARTIST ""
#DESIGNER ""
#DIFFICULTY 0
#PLAYLEVEL
#SONGID ""
#WAVE ""
#WAVEOFFSET 0
#JACKET ""
#REQUEST "ticks_per_beat 480"
#00002: 4
#BPM01: 198.22
#00008: 01
#TIL00: ""
#VOLUME: ""
#HISPEED 00
#MEASUREHS 00
#05412:14
#09018:14
#09112:14
#0431a:14
#08112:0016
#08118:16
#09414:14
#10214:14
#10318:14
#10412:14
#1051a:14
#1111a:14
#11114:0014
#02612:14
#02718:14
#02812:14
#02918:14
#03014:14
#0311a:14
#03214:14
#0331a:14
#04512:14
#0581a:14
#05810:41
#06212:14
#0621f:11
#0661a:14
#07218:0016
#07212:26
#0721f:21
#07312:16
#07318:0016
#07310:41
#07412:16
#07418:0016
#07618:1616
#07712:1616
#08012:0016
#0951a:14
#10818:14
#10912:14
#10918:0014
#11312:14
#11318:0014
#05114:24
#0511a:0024
#04214:24
#0421a:24
#12118:0026
#12112:26
#12212:26
#12218:0026
#01718:24
#04412:24
#04418:24
#05212:24
#07014:24
#07118:24
#08418:2626
#08512:2626
#08618:26
#11412:24
#06414:34
#06313:34
#06718:34
#06818:34
#08810:41
#10010:41
#03410:41
#01810:41
#05452:54
#0585a:64
#06252:54
#0665a:64
#002380:14
#004380:24
#006340:14
#008340:24
#0103a0:14
#0123a0:24
#014320:14
#016320:24
#018340:14
#019320:0024
#020380:14
#0213a0:0024
#022340:14
#023320:0024
#024380:14
#0253a0:0024
#034320:14
#035340:24
#036380:14
#0373a0:24
#038340:14
#039320:24
#0403a0:14
#041380:24
#0463a0:14
#046390:00000034
#047380:0034
#048390:00340000
#0493a0:34
#049390:0000003400000000
#049380:00000034
#050390:0034000000000000
#0503a0:0024
#054320:14
#057340:24
#0583a0:14
#061380:24
#062320:14
#063330:34
#064340:34
#065340:24
#0663a0:14
#067380:34
#068380:34
#069380:24
#075320:1626
#078380:1600003600003600
#079380:0036000036000000
#080380:26
#082380:1626
#083320:1626
#086380:16
#087380:26
#088320:16
#089320:0026
#092380:14
#093380:24
#096340:14
#097340:24
#098380:14
#099380:34
#100380:24
#106340:14
#107340:24
#110320:1424
#1123a0:1424
#114320:1400003400003400
#115320:0034000024000000
#1163a0:1400003400003400
#1173a0:0024000000000000
#117320:0000000015000035
#118320:0000350000250000
#119380:1600003600003600
#120380:0036000026000000
#123320:16
#126320:0000000000000038
#129320:24
