This file was generated by Ched 2.7.0.0.
#TITLE ""
#ARTIST ""
#DESIGNER ""
#DIFFICULTY 0
#PLAYLEVEL
#SONGID ""
#WAVE ""
#WAVEOFFSET 0
#JACKET ""
#REQUEST "ticks_per_beat 480"
#00002: 4
#BPM01: 198.22
#00008: 01
#TIL00: "52'0:0.9, 52'240:0.85, 52'480:0.8, 52'720:0.75, 68'240:1, 68'0:0.8, 68'120:0.9, 52'960:0.7, 52'1200:0.65"
#VOLUME: ""
#HISPEED 00
#MEASUREHS 00
#00818:00140014001400140014001400140000
#00814:1414141414141400
#01512:13131300
#0151b:13131300
#01516:0014001400000000
#01518:0000000000131313
#01515:00000000000000000000001300130000
#03412:0014
#0341a:1400000000000014
#03416:2400140000000024
#03410:41
#0381b:1300000000000013
#03812:0000000013130013
#03817:0000000000130000
#05112:00130000000000000000000000000000
#05113:00000013000000000000000000000000
#05114:00000000001300000000000000000000
#05115:00000000000000130013001300130013
#05118:0000002323232323
#0511a:0023000000000000
#0511b:23
#05119:00230000
#07218:0000000000000013
#07215:00001313
#0721f:21
#07212:00003434000000000000000000000000
#0721a:00003434000000000000000000000000
#07516:0012121212000000
#07518:00000012001200120000000000005200
#0751a:00000012
#07519:00000000000000000000000000520000
#07517:00000000000000000000000000000052
#07515:00000000000000000052000000000000
#07514:0000000000520000
#07513:00000000000000000000005200000000
#08218:000000001300001300001300
#08215:000000000013000013000013
#0821b:00232300
#08212:00000023
#08318:001300001300000000000000
#08315:000013000013000000000000
#0831b:00230000
#08312:23
#08512:00001300000013000000001600000000
#08515:2600000000000016
#08516:00260000
#08517:0026
#08518:00000026
#0901b:00130013000000000013001300000000
#09015:2313000023130000
#09012:0000231300002313
#09018:00000000001300130000000000130013
#0931b:1313000013001300
#09315:00130013000000000013000000130000
#09318:0000131300130013
#09312:00000000001300130000001300000013
#09415:00001300000000130013000000000000
#09418:00000013000013000000130000000000
#09412:00000000000000000000001300000000
#0941b:0013
#09612:24130000
#09617:00000013
#0961a:24000000000000000000000000000053
#09613:00000000005300000000000000000000
#09614:0000005300000000
#09615:00000000000000530000000000000000
#09616:0053
#09618:00000000000000000000000000530000
#09619:0000000000000053
#09718:0013000000131300
#09715:00000013000000000000001300130000
#0971b:5300000013000013
#09712:13000000000000000013000000000013
#1111a:001400000000000000000000
#11117:001400000014
#11114:000000140000000000000014
#11119:001400
#11116:000000000014000000000000
#11118:000000000000001400000000
#11115:140014
#11113:0014
#11112:00000014
#11315:1300130013130000
#11318:00000000000000000013000000000000
#11319:00000000000000000000001300000000
#11314:005300000000005300000000000000000000130000000000
#1131a:00000000000000000000000000130000
#11313:000053000000000053000000000000000000000000130000
#11312:0053005300000000
#01412:2300000000132300
#0141b:0000132300000000
#01416:0000132300000000
#01417:2300000000132300
#02618:2600131300001300
#02612:0000001300000000
#0261b:0000000000130000
#02718:0000001300000013
#02715:0013000000130000
#0271b:1313000023002300
#02712:00002323
#01015:0000001300000000
#0101b:23
#01112:1300001300000000
#01115:00000013
#01117:13
#01215:13000013
#01212:0000001300000000
#0121b:13
#01218:0013
#01312:13130000
#01315:0013000000000000
#01317:00130000
#0131b:00001313
#01318:0000000000130000
#01316:00000013
#02118:00000012
#02112:0012
#03012:13131313
#0301b:0000000013130000
#03018:2600131300001313
#04012:1300000000230026
#04018:0000130000250000
#04017:13
#04014:0000002400000000
#0401b:0000002300000023
#07116:000000000000000000000000000000000000000000000000000000000000000000000000000000000000000000000000000000000000000000000000000000000000000000000000000000000000000000000000000000000000000000000000000000000000000000000000000000000000000000000000000000000000000000000000000000000000000000000000000000000000000000000000000000002400000000000000000000000000000000000000000000000000000000000000000000000000000000000000000000000000000000000000000000000000000000000000000000000000000000000000000000000000000000000000000000000000000000000000000000000000000000000000000000000000000000000000000000000000000000000000000000000000000000000000000000000000000000000000000000000000000000000000000000000000000000000000000000000000000000000000000000000000000000000000000000000000000000000000000000000000000000000000000000000000000000000000000000000000000000000000000000000000000000000000000000000000000000000000000000000000000000000000000000000000000000000000000000000000000000000000000000000000000000000000000000000000000000000000000000000000000000000000000000000000000000000000000000000000000000000000000000000000000000000000000000000000000000000000000000000000000000000000000000000000000000000000000000000000000000000000000000000000000000000000000000000000000000000000000000000000000000000000000000000000000000000000000000000000000000000000000000000000000000000000000000000000000000000000000000000000000000000000000000000000000000000000000000000000000000000000000000000000000000000000000000000000000000000000000000000000000000000000000000000000000000000000000000000000000000000000000000000000000000000000000000000000000000000000000000000000000000000000000000000000000000000000000000000000000000000000000000000000000000000000000000000000000000000000000000000000000000000000000000000000000000000000000000000000000000000000000000000000000000000000000000000000000000000000000000000000000000000000000000000000000000000000000000000000000000000000000000000000000000000000000000000000000000000000000000000000000000000000000000000000000000000000000000000000000000000000000000000000000000000000000000000000000000000000000000000000000000000000000000000000000000000000000000000000000000000000000000000000000000000000000000000000000000000000000000000000000000000000000000000000000000000000000000000000000000000000000000000000000000000000000000000000000000000000000000000000000000000000000000000000000000000000000000000000000000000000000000000000000000000000000000000000000000000000000000000000000000000000000000000000000000000000000000000000000000000000000000000000000000000000000000000000000000000000000000000000000000000000000000000000000000000000000000000000000000000000000000000000000000000000000000000000000000000000000000000000000000000000000000000000000000000000000000000000000000000000000000000000000000000000000000000000000000000000000000000000000000000000000000000000000000000000000000000000000000000000000000000000000000000000000000000000000000000000000000000000000000000000000000000000000000000000000000000000000000000000000000000000000000000000000000000000000000000000000000000000000000000000000000000000000000000000000000000000000000000000000000000000000000000000000000000000000000000000000000000000000000000000000000000000000000000000000000000000000000000000000000000000000000000000000000000000000000000000000000000000000000000000000000000000000000000000000000000000000000000000000000000000000000000000000000000000000000000000000000000000000000000000000000000000000000000000000000000000000000000000000000000000000000000000000000000000000014140000000000000000000000000000000000000000000000000000000000000000000000000000000000000000000000000000000000000000000000000000000000000000000000000000000000000000000000000000000000000000000000000000000000000000000000000000000000000000000000000000000000000000000000000000000000000000000000000000000000000000000000000000
#07112:000000121416
#0711a:240024
#07119:002400000000
#07115:00240000
#07118:000024000026
#07114:000000000024000000000000
#0711c:0022
#07318:0000001300000000
#0731b:13130000
#07310:41
#08912:0000005323130000
#08918:00000000000000000000001300000000
#08913:0000000000000000000000530000000000000000000000001300000000000000
#08919:00000000000000000000000000130000
#08914:00000000005300000000000000001300
#0891a:00000000000000000000000000000013
#08916:0023130000000000
#0891b:5323
#08915:0000000000000000005300000000000000000000000000000000000000000000
#09114:0013000000000000
#09119:00000013000000000000000000000000
#09118:00130000000000000000002600000000
#09112:0000001326000026
#0911b:00000000000000130000000000000000
#0911a:00000000001300000000000000000000
#09113:00130000
#09115:23
#10412:12
#1041c:0000001212000000
#10416:0000000000000012
#10516:12
#10518:00000012
#10512:00120000
#1051c:0012
#1051a:00120000
#10514:00000012
#10812:0000001200000000
#1081c:0000001200000000
#10818:12
#10816:12
#10916:12
#10918:12
#11516:1424001400000000
#11515:0000000000160000
#11512:0024000000002400
#11519:0024
#1151a:00000024
#11513:0024
#04112:0013000000000000
#04116:1400000000130000
#04117:00000013000000000000000000000000
#04113:00130000
#04118:00000000001300000000000000000000
#04114:0000001300000000
#04119:00000000000000130000000000000000
#04115:00001326
#0411a:00000000000000000013000000000000
#0411b:00000000000000000000001300000000
#01615:00130000
#01618:16
#01814:12000012
#01816:0012000000120000
#01818:00121200
#0181a:0000001200000000
#01810:41
#01716:0012
#0171a:00000012
#01712:62
#02016:00121200
#02018:0012000000120000
#0201a:12000012
#02014:0000001200000000
#02218:1200001200120000
#02214:0012000000000000
#02216:00121200
#0221a:00000012
#0221c:0000000000000012
#02518:1313131313130000
#02515:00130013001300130013000000000000
#02512:00000026
#02815:0000131300001300
#0281b:0000001300000000
#02812:2600000000130000
#02915:0000001300000013
#02918:0013000000130000
#02912:1313000023002300
#0291b:00002323
#0311b:13131300
#03112:2613
#03115:0000131300131313
#03118:00000000000000000000001300130013
#0331a:00140000
#03312:00140000
#03316:1414000013000000
#03318:00000013
#03512:0000000014000014
#03515:00000014000000000000000000000000
#03517:0000000000130000
#0351a:0000000000000024
#0361a:0000000014000024
#03616:00000014000000000000000000000000
#03612:0000000000000014
#0371a:0014
#03717:00000014000000000000000000000000
#03712:0000000000130000
#03715:00000013
#03718:0000000000000013
#03917:0000000000000013
#03916:00000000000000000000001300000000
#04512:541400240024
#04516:002414002414
#0451a:240024141400
#0461b:1313130000001300
#04616:00130013000000000000000000130000
#04612:0000001313130000
#04617:00000000000000130013000000000000
#04619:0000000000000013
#04614:00000000000000000000000000000013
#04712:0013000000000024
#04717:13000013000000000000000000000000
#04714:00130000
#04719:00000000001300000000000000000000
#04716:00000000000013000024002400000024
#0471a:0000000024242400
#05412:1c
#05316:0000000000000014
#05612:1c
#06215:0019
#06212:1c
#0621f:11
#06315:0019
#06318:16
#0231a:00120012
#02318:0012
#0321b:0000130000000023
#03212:0000002600270028
#03219:0000002300000000
#0321a:0000000000230000
#04915:00130000001300130000001300000000
#04918:0013130013130000
#04912:00000023000000000023000000000023
#0491b:2300002300002300
#04919:00000000000000000000000000630000
#04917:0000000000000063
#05812:1c
#05810:41
#06012:1c
#06115:00160000
#06116:14
#06815:16
#07418:16
#07412:0000140000230000
#0741b:0000002300000023
#07416:0000002400240024
#07816:0014000014000000
#07818:00000000140000000000001400002400
#07812:24000014000000000000000024000000
#07814:00000000001400000000140000000000
#0781a:00000000000024000014000000000000
#07916:00000000000000000000001400000014
#07912:0000000024000014
#0791a:0000240000142400
#07914:0024000000000000
#0801b:000000120000000000000052
#08012:24
#0801a:000052000052
#08019:000000000052000000520000
#08018:000000525200
#08017:000000000000005200000000
#08113:00120000
#0811c:52
#08114:005200
#08115:000000000052000000000000
#08116:0052
#0841b:1300001300130000
#08415:26
#08413:0026
#08412:00000026
#08414:00260000
#08818:0000000012000000000000000000000000000000000000000000000000530000
#08817:0000000000002313
#08816:0000002212000000
#08812:2500000000520000
#08810:41
#08819:0000000000520000000000000000000000000000000000000000000000005300
#0881a:0000000000005200000000000000000000000000000000000000000000000053
#0881b:0000000000000052000000000000000000000000000000000000000000000000
#0881c:00520000
#08815:0000000000000000000000000000000000520000000000000000000000000000
#08814:00000000000000000052000000000000
#08813:0000000000000000000000000000000000000052000000000000000000000000
#09518:0014000000000000
#09514:00000000001400000000000000000000
#09516:00000000000000001400001400001400
#0951a:2400002400002400
#09512:00000024000000000024000000000000
#09812:001400140014
#0981a:001414
#09816:002424242424
#0991a:14
#09916:240000000000000034143400000000000000000000000000
#09919:003400000000000034000000
#09918:000034000000003400000000
#09917:00343400
#10216:12
#10218:12
#10312:12000026
#1031c:12
#10318:00000026
#10612:22120000
#1061c:22000000001200000000000000000000
#10613:0000001200000000
#1061b:00000000000000120000000000000000
#10614:0012
#1061a:00000000000000000012000000000000
#10615:0000000000120000
#10619:00000000000000000000001200000000
#10616:00000014
#11012:1313
#11018:00130013
#11013:00530000000000000053000000000000
#11014:0053000000530000
#11015:00000053000000000000005300000000
#11019:00000000005300000000000000530000
#1101a:0000005300000053
#1101b:00000000000000530000000000000053
#11416:0000140000142400
#1141b:2300002300000000
#1141a:00000024
#11412:2300002300000000
#11615:00140000000000000000000000000000
#11619:0014000000000000
#11614:00000014000000000000140000140000
#11618:00000000140000000014000000001400
#11617:00000000000000140000000000000000
#11613:0014
#11612:00000000000024000000000000000014
#1161a:24000024
#11716:1400001400000000
#11718:00000014000000002400240000000024
#11714:00000000140000000024002400002400
#1171a:00000000001400000000000024000000
#11712:0024000000000000
#11915:00130000001300130000001300000000
#11918:0013130013130064
#11912:00000023000000000023000000000000
#1191b:2300002300000000
#1191a:00000024
#11914:00000000000000000000000000000024
#11919:00000000000000000000000000640000
#12112:53130013001300130013001400000000
#12113:00000000000000000000000000140000
#12114:00000000000000000000000000000014
#1211b:2323232323000000
#1211a:0000000000240000
#12119:00000024
#12118:0000000000000024
#12215:00130013001300130013000000000000
#12214:00000000000000000000001400000000
#12213:00000000000000000000000000150000
#12212:00000000000000000000000000000016
#12218:2323232323242526
#05012:00000000001300000000000000000053
#0501b:0023000000000000
#05013:0000005300000053
#05014:63000000000000530000000000530000
#05015:00005353
#05016:00630000000000000053005300000000
#05017:0000630000530000
#05019:00000063000000000000000000000000
#00615:0000000000000014
#0061c:52
#00212:0000000000000013
#00217:52
#05516:0000000000000014
#05716:0000000000000014
#05916:0000000000000014
#06412:1c19
#06512:1619
#01913:000000000013
#01917:000013
#0191b:0013
#04218:1616161656000000
#04212:2626262600000000
#04214:00000056
#04215:00000000000000000000005600560000
#04216:0000000000560056
#04217:00000000000000000056000000000056
#04412:1414141454000000
#0441a:2424242400000000
#04413:00000000000000000054000000000054
#04414:0000000000540054
#04416:00000054
#04415:00000000000000000000005400540000
#04312:0014
#04314:00000000560000000000001400000000
#04316:0056005600000014
#04318:5656
#04317:00560000000000560000000000000000
#04315:00000056005600000000000000000000
#07618:0013130000000000
#07615:00000013001300000000000000000000
#0761b:0000001300000000
#07612:2300000000000013
#07714:0014140000000000
#07718:00000014001400000000000000000000
#07712:00000000000014000000002400000000
#0771a:2400000024000024
#12015:00000000001300000000005300530000
#1201a:0024000000000000
#12014:0000005300530053
#12013:64000000000000530053000000000053
#12012:00640000000000005300000000000000
#12016:00000053
#12018:00640000
#12019:00000064000000000000000000000000
#05218:23
#07018:240024
#07014:002400000000000000240000
#07017:002400000024
#07013:000000240000000000000024
#07016:002400
#07012:000000000024000000000000
#07019:0024
#07015:000000000000002400000000
#00918:00230000
#00919:0023
#0091a:00000023
#04812:24002400000000240000240000000000
#04816:00240000000000002400000000002400
#0481a:00000000240000000000000000240000
#04814:00000000002400000000000024000000
#04818:00000000000024000000002400000000
#08714:0024
#08719:00000025
#08712:22
#08718:00230000
#09212:00220000
#0921c:00220000
#10712:24000024
#1071a:24000024
#1181a:00000000240000000000000000240000
#11812:00002400000000240000240000000000
#11814:24000000002400000000000024000000
#11818:00240000000024000000002400000000
#11816:0000000024000024
#12312:2c
#12314:0000005252000000
#12316:0000000000000052
#08612:00220062
#08614:0000006200620000
#08616:0062
#08613:00000000006200000000006200000000
#08615:00000000000000620062000000000000
#1121a:000000000000000000000000000000000000003300000000
#11219:000000000033
#11218:000000000000000000000000000000000000000000333333
#06714:38
#10010:41
#00114:00520000
#00115:0052
#00116:00000052
#00113:52
#12612:000000000000005c
#12617:52
#1261a:0000005252000000
#00519:00520000
#0051a:0052
#0051b:00000052
#00518:52
#12416:52
#12418:0000005252000000
#1241a:0000000000000052
#1251a:52
#12514:0000005252000000
#12517:0000000000000052
#06917:00620000
#0745b:0000004300000043
#07458:56
#07452:0000000000330000
#08455:36
#08453:0036
#08452:00000036
#08454:00360000
#08555:46
#08556:00460000
#08557:0046
#08558:00000046
#09152:0000000036000036
#09158:00000000000000000000004600000000
#09652:34
#0965a:44
#01355:0023000000000000
#01352:53530000
#01357:00530000
#0135b:00006363
#01358:0000000000230000
#01356:00000063
#01452:13000013
#01456:0000001300000000
#01457:13000013
#0145b:0000001300000000
#02658:46
#02652:0000001300000000
#03058:46
#03052:00131313
#02552:00000036
#03452:0014
#0345a:5400000000000064
#03456:00240000
#0385b:53
#03852:0000000000130053
#07252:00340000
#0725a:00440000
#07156:000000000000000000000000000000000000000000000000000000000000000000000000000000000000000000000000000000000000000000000000000000000000000000000000000000000000000000000000000000000000000000000000000000000000000000000000000000000000000000000000000000000000000000000000000000000000000000000000000000000000000000000000000000000000000000000000000000000000000000000000000000000000000000000000000000000000000000000000000000000000000000000000000000000000000000000000000000000000000000000000000000000000000000000000000000000000000000000000000000000000000000000000000000000000000000000000000000000000000000000000000000000000000000000000000000000000000000000000000000000000000000000000000000000000000000000000000000000000000000000000000000000000000000000000000000000000000000000000000000000000000000000000000000000000000000000000000000000000000000000000000000000000000000000000000000000000000000000000000000000000000000000000000000000000000000000000000000000000000000000000000000000000000000000000000000000000000000000000000000000000000000000000000000000000000000000000000000000000000000000000000000000000000000000000000000000000000000000000000000000000000000000000000000000000000000000000000000000000000000000000000000000000000000000000000000000000000000000000000000000000000000000000000000000000000000000000000000000000000000000000000000000000000000000000000000000000000000000000000000000000000000000000000000000000000000000000000000000000000000000000000000000000000000000000000000000000000000000000000000000000000000000000000000000000000000000000000000000000000000000000000000000000000000000000000000000000000000000000000000000000000000000000000000000000000000000000000000000000000000000000000000000000000000000000000000000000000000000000000000000000000000000000000000000000000000000000000000000000000000000000000000000000000000000000000000000000000000000000000000000000000000000000000000000000000000000000000000000000000000000000000000000000000000000000000000000000000000000000000000000000000000000000000000000000000000000000000000000000000000000000000000000000000000000000000000000000000000000000000000000000000000000000000000000000000000000000000000000000000000000000000000000000000000000000000000000000000000000000000000000000000000000000000000000000000000000000000000000000000000000000000000000000000000000000000000000000000000000000000000000000000000000000000000000000000000000000000000000000000000000000000000000000000000000000000000000000000000000000000000000000000000000000000000000000000000000000000000000000000000000000000000000000000000000000000000000000000000000000000000000000000000000000000000000000000000000000000000000000000000000000000000000000000000000000000000000000000000000000000000000000000000000000000000000000000000000000000000000000000000000000000000000000000000000000000000000000000000000000000000000000000000000000000000000000000000000000000000000000000000000000000000000000000000000000000000000000000000000000000000000000000000000000000000000000000000000000000000000000000000000000000000000000000000000000000000000000000000000000000000000000000000000000000000000000000000000000000000000000000000000000000000000000000000000000000000000000000000000000000000000000000000000000000000000000000000000000000000000000000000000000000000000000000000000000000000000000000000000000000000000000000000000000000000000000000000000000000000000000000000000000000000000000000000000000000000000000000000000000000000000000000000000000000000000000000000000000000000000000000000000000000000000000000000000000000000000000000024240000000000000000000000000000000000000000000000000000000000000000000000000000000000000000000000000000000000000000000000000000000000000000000000000000000000000000000000000000000000000000000000000000000000000000000000000000000000000000000000000000000000000000000000000000000000000000000000000000000000000000000000000000
#07158:000000000066
#07152:000000000066
#08256:12
#08258:12
#10452:62
#1045c:0052
#10556:62
#10558:00000062
#10552:00520000
#1055c:0062
#10956:22
#10958:22
#10952:00000034
#1095a:00000044
#10852:0000005200000000
#1085c:0000006200000000
#10858:52
#10856:62
#01054:14
#0105b:53
#01157:23
#0125b:53
#01258:0023
#01658:46
#01655:00230000
#02755:0013000000000000
#0285b:0000001300000000
#02852:36
#02958:0013000000000000
#03552:0000000014000054
#03555:00000024000000000000000000000000
#0365a:0014
#03656:00000024000000000000000000000000
#03652:0000000000000054
#03757:00000024000000000000000000000000
#0375a:0014
#03956:00000000000000000000005300000000
#04156:24
#04155:00000016
#05452:5c
#05652:5c
#05356:0000000000000024
#06255:0069
#06252:2c
#06355:0059
#06358:26
#0315b:00131300
#03152:36
#03356:24
#03252:0000003600370038
#0325b:0000000000000053
#04057:13
#0405b:0000000000000053
#04052:0000000000000036
#04054:0000003400000000
#04058:0000000000450000
#05852:6c
#06052:6c
#06855:56
#07852:00000034
#07858:0000000000000044
#0785a:0000004400000000
#07954:0034000000000000
#0795a:00440014
#07952:0014
#08052:14
#09258:00000016
#09252:00000016
#09752:13
#0995a:54000044
#09956:0000002400000000
#10256:62
#10258:62
#10352:62000016
#1035c:62
#10358:00000016
#1065c:12
#10656:00000014
#10652:12
#10752:54
#1075a:54
#1145b:13
#11452:0000001300000000
#1145a:00000014
#11559:0044
#1155a:00000044
#11552:0014000000003400
#11553:0034
#12352:1c
#12652:000000000000003c
#00655:0000000000000024
#0065c:52
#00252:0000000000000023
#00257:52
#1175a:00000014
#11852:0014000000000000
#11856:0000000014000014
#05258:53
#05556:0000000000000024
#05756:0000000000000024
#05956:0000000000000024
#06452:2c59
#06552:2669
#06155:00560000
#06156:24
#02458:00000012
#02456:00000012
#002370:12
#002320:0000000000000053
#004360:24
#0063c0:12
#006350:0000000000000054
#008380:26
#008340:0000000000000014
#010340:24
#0103b1:13
#011371:53
#0123b1:53
#012381:0053
#0133b1:23
#013320:13330000
#013350:0053000000000000
#013360:0023
#013371:00130000
#0133b1:00003333
#013381:0000000000530000
#014371:23
#013360:00000013
#014320:23
#015350:00000000000000000000000000000013
#016350:00530000
#017320:22
#018320:0000000000000012
#019320:0022
#0203c0:0000000000000012
#0213c0:0022
#022340:0000000000000012
#024340:22
#0243c1:12
#024381:0000003200002200
#024360:0000001200002200
#026320:13230000
#026350:00000013
#027350:23
#0283b0:13230000
#028380:00000013
#029380:23
#032350:1353535353535353230000000000000000000000000000000000000000000000
#032340:00550055005500550055005500550055000000000000000000000000000000000000000000000000000000000000000000000000000000000000000000000000
#0323b0:0000000000000013
#033360:54
#0333a0:0024000000000000
#0343a0:1424
#034360:00540000
#0343a0:0000000000000014
#035350:00000054000000000000000000000000
#0353a0:0024
#035320:0000000000000014
#036360:00000054000000000000000000000000
#036320:0024
#036320:0000000000000014
#037370:00000054000000000000000000000000
#037320:0024
#0383b0:13
#038370:0023
#038320:0000000000000013
#039360:0023
#0393b1:00000000000000001300002300000000
#039360:00000000000000000000001300000000
#039320:0000000000000023
#0403b0:0000000000000013
#041360:54
#0413a0:0024000000000000
#052380:13
#053360:0000000000000054
#054320:3c
#055360:0000000000000054
#056320:3c
#057360:0000000000000054
#058320:3c
#059360:0000000000000054
#060320:3c
#061360:54
#061350:00560000
#062320:3c
#062350:0059
#063380:36
#063350:0059
#064320:3c59
#065320:3659
#066320:3c
#067340:38
#068350:36
#069370:00220000
#071320:000000000016
#071360:000000000000000000000054
#072320:00003434240000000000000000000000
#071381:000000000016
#071361:00000000000000000000000000000000000000000000000000000000000000000000000000000000000000000000000000000000000000000000000000000000000000000000000000000000000000000000000000000000000000000000000000000000000000000000000000000000000000000000000000000000000000000000000000000000000000000000000000000000000000000000000000000000000000000000000000000000000000000000000000000000000000000000000000000000000000000000000000000000000000000000000000000000000000000000000000000000000000000000000000000000000000000000000000000000000000000000000000000000000000000000000000000000000000000000000000000000000000000000000000000000000000000000000000000000000000000000000000000000000000000000000000000000000000000000000000000000000000000000000000000000000000000000000000000000000000000000000000000000000000000000000000000000000000000000000000000000000000000000000000000000000000000000000000000000000000000000000000000000000000000000000000000000000000000000000000000000000000000000000000000000000000000000000000000000000000000000000000000000000000000000000000000000000000000000000000000000000000000000000000000000000000000000000000000000000000000000000000000000000000000000000000000000000000000000005400000000000000000000000000000000000000000000000000000000000000000000000000000000000000000000000000000000
#0723a1:00003434240000000000000000000000
#0723b1:00001323
#073321:13230000
#073351:00000000000000001300002300000000
#073380:00000000000000000000001400002400
#073331:0000000000000015
#074331:25
#074380:16
#074360:00240000
#076320:0013
#076360:00000000000000000000002300000000
#0763b1:00000000000000000000001300000000
#076371:0000000000000023
#0773a1:0014
#077361:00000000000000000000002400000000
#077320:00000000000000000000001400000000
#077360:0000000000000024
#0813c0:1232
#081380:00000000000000000000003200000000
#0813b0:0000000000000032
#082380:22
#081361:00000000000000001200003200000000
#081331:0000000000000032
#082361:22
#083321:0000000013000023
#083380:00000000000000000000001300002300
#0863b0:13
#0873b0:23
#087321:12220000
#087380:00132300
#087341:00001424
#087390:00000015
#088390:25
#092320:000000000000000000000000000000000000000000000000000000000000000000000000000000000000000000000000000000000000000000000000000000000000000000000000000000000000000000000000000000000000000000000000000000000000000000000000000000000000000000000000000000000000000000000000000000000000000000000000000000000000000000000000000000000000000000000000000000000000000000000000000000000000000000000000000000000000000000000000000000000000000000000000000000000000000000000000000000000000000000000000000000000000000000000000000000000000000000000000000000000000000000000000000000000000000000000000000000000000000000000000000000000000000000000000000000000000000000000000000000000000000000000000000000000000000000000000000000000000000000000000000000000000000000000000000000000000000000000000000000000000000000000000000000000000000000000000000000000000000000000000000000000000000000000000000000000000000000000000000000000000000000000000000000000000000000000000000000000000000000000000120000000000000000000000000000000000000053000000000000000000000000000000000000005200000000000000000000000000000000000000530000000000000000000000000000000000000052000000000000000000000000000000000000005300000000000000000000000000000000000000520000000000000000000000000000000000000053000000000000000000000000000000000000005200000000000000000000000000000000000000530000000000000000000000000000000000000052000000000000000000000000000000000000005300000000000000000000000000000000000000520000000000000000000000000000000000000054000000000000000000000000000000000000005200000000000000000000000000000000000000540000000000000000000000000000000000000052000000000000000000000000000000000000005400000000000000000000000000000000000000520000000000000000000000000000000000000054000000000000000000000000000000000000005200000000000000000000000000000000000000540000000000000000000000000000000000000052000000000000000000000000000000000000005400000000000000000000000000000000000000520000000000000000000000000000000000005500000000000000000000000000000000000052000000000000000000000000000000000000550000000000000000000000000000000000005200000000000000000000000000000000000000550000000000000000000000000000000000005200000000000000000000000000000000000055000000000000000000000000000000000000520000000000000000000000000000000000005500000000000000000000000000000000000000520000000000000000000000000000000000005500000000000000000000000000000000000052000000000000000000000000000000000000560000000000000000000000000000000000005200000000000000000000000000000000000000560000000000000000000000000000000000005200000000000000000000000000000000000056000000000000000000000000000000000000520000000000000000000000000000000000005600000000000000000000000000000000000000520000000000000000000000000000000000005600000000000000000000000000000000000052000000000000000000000000000000000000560000000000000000000000000000000000005200000000000000000000000000000000000000260000000000000000000000000000000000000000000000000000000000000000000000000000000000000000000000000000000000000000000000000000000000000000000000000000000000000000000000000000000000000000000000000000000000000000000000000000000000000000000000000000000000000000000000000000000000000000000000000000000000000000000000000000000000000000000000000000000000000000000000000000000000000000000000000000000000000000000000000000000000000000000000000000000000000000000000000000000000000000000000000000000000000000000000000000000000000000000000000000000000000000000000000000000000000000000000000000000000000000000000000000000000000000000000000000000000000000000000000000000000000000000000000000000000000000000000000000000000000000000000000000000000000000000000000000000000000000000000000000000000000000000000000000000000000000000000000000000000000000000000000000000000000000000000000000000000000000000000000000000000000000000000000000000000000000000000000000000000000000000000
#0923c1:000000000000000000000000000000000000000000000000000000000000000000000000000000000000000000000000000000000000000000000000000000000000000000000000000000000000000000000000000000000000000000000000000000000000000000000000000000000000000000000000000000000000000000000000000000000000000000000000000000000000000000000000000000000000000000000000000000000000000000000000000000000000000000000000000000000000000000000000000000000000000000000000000000000000000000000000000000000000000000000000000000000000000000000000000000000000000000000000000000000000000000000000000000000000000000000000000000000000000000000000000000000000000000000000000000000000000000000000000000000000000000000000000000000000000000000000000000000000000000000000000000000000000000000000000000000000000000000000000000000000000000000000000000000000000000000000000000000000000000000000000000000000000000000000000000000000000000000000000000000000000000000000000000000000000000000000000000000000000000000000120000000000000000000000000000000000000000000000000000000000000000000000000000005200000000000000000000000000000000000000000000000000000000000000000000000000000052000000000000000000000000000000000000000000000000000000000000000000000000000000520000000000000000000000000000000000000000000000000000000000000000000000000000005200000000000000000000000000000000000000000000000000000000000000000000000000000052000000000000000000000000000000000000000000000000000000000000000000000000000000520000000000000000000000000000000000000000000000000000000000000000000000000000005200000000000000000000000000000000000000000000000000000000000000000000000000000052000000000000000000000000000000000000000000000000000000000000000000000000000000520000000000000000000000000000000000000000000000000000000000000000000000000000005200000000000000000000000000000000000000000000000000000000000000000000000000000052000000000000000000000000000000000000000000000000000000000000000000000000000000520000000000000000000000000000000000000000000000000000000000000000000000000052000000000000000000000000000000000000000000000000000000000000000000000000005200000000000000000000000000000000000000000000000000000000000000000000000000005200000000000000000000000000000000000000000000000000000000000000000000000000520000000000000000000000000000000000000000000000000000000000000000000000000000520000000000000000000000000000000000000000000000000000000000000000000000000052000000000000000000000000000000000000000000000000000000000000000000000000005200000000000000000000000000000000000000000000000000000000000000000000000000005200000000000000000000000000000000000000000000000000000000000000000000000000520000000000000000000000000000000000000000000000000000000000000000000000000000520000000000000000000000000000000000000000000000000000000000000000000000000052000000000000000000000000000000000000000000000000000000000000000000000000005200000000000000000000000000000000000000000000000000000000000000000000000000000000000000000000000000000000000000000000000000000000000000000000000000000000000000000000000000000000000000000000000000000000000000000000000000000000000000000000000000000000000000000000000000000000000000000000000000000000000000000000000000000000000000000000000000000000000000000000000000000000000000000000000000000000000000000000000000000000000000000000000000000000000000000000000000000000000000000000000000000000000000000000000000000000000000000000000000000000000000000000000000000000000000000000000000000000000000000000000000000000000000000000000000000000000000000000000000000000000000000000000000000000000000000000000000000000000000000000000000000000000000000000000000000000000000000000000000000000000000000000000000000000000000000000000000000000000000000000000000000000000000000000000000000000000000000000000000000000000000000000000000000000000000000000000000000000000000000000000000000000000000000000000000000000000000
#0923b1:000000000000000000000000000000000000000000000000005300530053005300530053000000000000000000000000000000000000000000000000000000000000000000000000000000000000000000000000000000000000000000000000
#0923a1:000000000000000000000000000000000000000000000000000000000000000000000000005400540054005400540054000000000000000000000000000000000000000000000000000000000000000000000000000000000000000000000000
#092391:000000000000000000000000000000000000000000000000000000000000000000000000000000000000000000000000000000000000000000000000000000000000000000000000000000000000000000000000000000000000000000000000000000000000000000000000000000000000000000000000000000000000000000000000000000000000000000000000000000000000000000000000000000000000000000000000000000000000000000000000000000000000000000000000000000000000000000000000000000000000000000000000000000000000000000000000000000000000000000000000000000000000000000000000000000000000000000000000000000000000000000000000000000000000000000000000000000000000000000000000000000000000000000000000000000000000000000000000000000000000000000000000000000000000000000000000000000000000000000000000000000000000000000000000000000000000000000000000000000000000000000000000000000000000000000000000000000000000000000000000000000000000000000000000000000000000000000000000000000000000000000000000000000000000000000000000000000000000000000000000000000000000000000000000000000000000000000000000000000000000000000000000000000000000000000000000000000000000000000000000000000000000000000000000000000000000000000000000000000000000000000000000000000000000000000000000000000000000000000000000000000000000000000000000000000000000000000000000000000000000000000000000000000000000000000000000000000000000000000000000000000000000000000000000000000000000000000000000000000000000000000000000000000000000000000000000000000000000000000000000000000000000000000000000000000000000000000000000000000000000000000000000000000000000000000000000000000000000000000000000000000000000000000000000000000000000000000000000000000000000000000000000000000000000000000000000000000000000000000000000000000000000000000000000000000000000000000000000000000000000000000000000000000000000000000000000000000000000000000000000000000000000000000000000000000000000000000000000000000000000000000000000000000000000000000000000000000000000000000000000000000000000000000000000000000000000005500000000000000000000000000000000000000000000000000000000000000000000000000550000000000000000000000000000000000000000000000000000000000000000000000000000550000000000000000000000000000000000000000000000000000000000000000000000000055000000000000000000000000000000000000000000000000000000000000000000000000005500000000000000000000000000000000000000000000000000000000000000000000000000005500000000000000000000000000000000000000000000000000000000000000000000000000000000000000000000000000000000000000000000000000000000000000000000000000000000000000000000000000000000000000000000000000000000000000000000000000000000000000000000000000000000000000000000000000000000000000000000000000000000000000000000000000000000000000000000000000000000000000000000000000000000000000000000000000000000000000000000000000000000000000000000000000000000000000000000000000000000000000000000000000000000000000000000000000000000000000000000000000000000000000000000000000000000000000000000000000000000000000000000000000000000000000000000000000000000000000000000000000000000000000000000000000000000000000000000000000000000000000000000000000000000000000000000000000000000000000000000000000000000000000000000000000000000000000000000000000000000000000000000000000000000000000000000000000000000000000000000000000000000000000000000000000000000000000000000000000000000000000000000000000000000000000000000000000000000000000000000000000000000000000000000000000000000000000000000000000000000000000000000000000000000000000000000000000000000000000000000000000000000000000000000000000000000000000000000000000000000000000000000000000000000000000000000000000000000000000000000000000000000000000000000000000000000000000000000000000000000000000000000000000000000000000000000000000000000000000000000000000000000000000000000000000000000000000000000000000000000000000000000000000000000000000000000000000000000000000000000000000000000
#092381:000000000000000000000000000000000000000000000000000000000000000000000000000000000000000000000000000000000000000000000000000000000000000000000000000000000000000000000000000000000000000000000000000000000000000000000000000000000000000000000000000000000000000000000000000000000000000000000000000000000000000000000000000000000000000000000000000000000000000000000000000000000000000000000000000000000000000000000000000000000000000000000000000000000000000000000000000000000000000000000000000000000000000000000000000000000000000000000000000000000000000000000000000000000000000000000000000000000000000000000000000000000000000000000000000000000000000000000000000000000000000000000000000000000000000000000000000000000000000000000000000000000000000000000000000000000000000000000000000000000000000000000000000000000000000000000000000000000000000000000000000000000000000000000000000000000000000000000000000000000000000000000000000000000000000000000000000000000000000000000000000000000000000000000000000000000000000000000000000000000000000000000000000000000000000000000000000000000000000000000000000000000000000000000000000000000000000000000000000000000000000000000000000000000000000000000000000000000000000000000000000000000000000000000000000000000000000000000000000000000000000000000000000000000000000000000000000000000000000000000000000000000000000000000000000000000000000000000000000000000000000000000000000000000000000000000000000000000000000000000000000000000000000000000000000000000000000000000000000000000000000000000000000000000000000000000000000000000000000000000000000000000000000000000000000000000000000000000000000000000000000000000000000000000000000000000000000000000000000000000000000000000000000000000000000000000000000000000000000000000000000000000000000000000000000000000000000000000000000000000000000000000000000000000000000000000000000000000000000000000000000000000000000000000000000000000000000000000000000000000000000000000000000000000000000000000000000000000000000000000000000000000000000000000000000000000000000000000000000000000000000000000000000000000000000000000000000000000000000000000000000000000000000000000000000000000000000000000000000000000000000000000000000000000000000000000000000000000000000000000000000000000000000000000000000000000000000000000000000000000000000000000000000000000000000000000000000000000000000000000000000000000000000000000000000000000000000000000000000000000000000000000000000000560000000000000000000000000000000000000000000000000000000000000000000000000000560000000000000000000000000000000000000000000000000000000000000000000000000056000000000000000000000000000000000000000000000000000000000000000000000000005600000000000000000000000000000000000000000000000000000000000000000000000000005600000000000000000000000000000000000000000000000000000000000000000000000000560000000000000000000000000000000000000000000000000000000000000000000000000000260000000000000000000000000000000000000000000000000000000000000000000000000000000000000000000000000000000000000000000000000000000000000000000000000000000000000000000000000000000000000000000000000000000000000000000000000000000000000000000000000000000000000000000000000000000000000000000000000000000000000000000000000000000000000000000000000000000000000000000000000000000000000000000000000000000000000000000000000000000000000000000000000000000000000000000000000000000000000000000000000000000000000000000000000000000000000000000000000000000000000000000000000000000000000000000000000000000000000000000000000000000000000000000000000000000000000000000000000000000000000000000000000000000000000000000000000000000000000000000000000000000000000000000000000000000000000000000000000000000000000000000000000000000000000000000000000000000000000000000000000000000000000000000000000000000000000000000000000000000000000000000000000000000000000000000000000000000000000000000000
#0943b1:1323000000000000
#094321:0000132300000000
#0943b1:0000000000001323
#094350:0000000000000013
#095350:23
#0963b0:0013
#096380:0000000000230000
#096351:0000000000130000
#096321:00000023
#097381:00130000
#0973b1:0000002300000000
#097350:0000001300000000
#097320:0023
#0993a0:14000024
#099390:003400000000000034000000
#099380:000034000000003400000000
#099370:00343400
#099360:000000000000000034543400000000000000000000000000
#1003c0:12
#102380:52
#1033c0:52
#103380:00000026
#100321:12
#102361:52
#103321:52000026
#104321:12
#104361:0022
#1043c0:0012
#105380:22
#105361:1222
#105321:00320000
#1053c0:0012
#105380:00000032
#1063c0:22
#107320:14
#107360:0022
#1073a1:14
#107381:0022
#108361:12
#108321:0000003200000000
#109361:52
#109321:00000024
#108380:12
#1083c0:0000003200000000
#109380:52
#1093a0:00000024
#112320:1333000033002300
#112340:00000033000000330000000000000000
#112360:0000333300000000
#1123b1:00000013
#1123a1:000000000000000000000000000000000000003300000000
#112391:000000000033
#112381:000000000000000000000000000000000000000000333333
#113381:3323
#114321:13230000
#1143b1:0000001300230000
#114361:00000014
#115321:24
#115361:0014000000000000
#1153a1:0000002400000000
#001930:12
#002970:22
#005980:12
#0069c0:22
#042980:0000001656000000
#042940:00000056
#043980:5626
#043940:00560000
#044920:0000001454000000
#044960:00000054
#045920:24
#0499b0:00000013
#049970:0000000000000023
#049920:00000000000000000000000000000013
#050960:00230000000000000000000000000000
#0509b0:0013000000000000
#050970:00230000
#050920:00000000001300000000000000000023
#050970:0000000000530000
#075960:0012
#075930:00000000000000000000002200000000
#0759a0:00000012
#075970:00000000000000000000000000000022
#0809b0:00120000
#080970:000000000000005200000000
#0819c0:22
#081930:00120000
#081960:0022
#086920:00120022
#086960:0052
#088980:0012000000000000
#0889c0:00220000
#088960:0012
#088920:0000000000220000
#088970:0000000000000013
#0899b0:23
#089960:00130000
#089920:0000002300000000
#096920:00130000
#096960:0023
#096970:00000013
#0979b0:23
#110920:13
#110950:00000023000000000000000000000000
#110980:00130000
#1109b0:00000000000000230000000000000000
#110920:0013
#110950:00000000000000000000002300000000
#110980:00000013
#1109b0:00000000000000000000000000000023
#113950:13
#113920:0023000000000000
#113950:00130000
#113920:0000002300000000
#1199a0:00000014
#119980:0000000000000024
#119940:00000000000000000000000000000014
#120920:00240000000000000000000000000000
#1209a0:0014000000000000
#120980:00240000
#120950:00000000001300000000000000000000
#120920:0053
#120960:00000053
#121920:23
#126920:000000000000001c
#129920:21
