This file was generated by Ched 2.7.0.0.
#TITLE ""
#ARTIST ""
#DESIGNER ""
#DIFFICULTY 0
#PLAYLEVEL
#SONGID ""
#WAVE ""
#WAVEOFFSET 0
#JACKET ""
#REQUEST "ticks_per_beat 480"
#00002: 4
#BPM01: 198.22
#00008: 01
#TIL00: ""
#VOLUME: ""
#HISPEED 00
#MEASUREHS 00
#10814:0000001400000000
#05414:14
#09914:14
#01017:00000014
#0101a:14
#01214:14
#01218:0014
#03014:00140014
#03018:2414
#05512:14
#08412:00000014
#08414:00140000
#0841a:24
#08418:0024
#08514:00140000
#08512:00000014
#0851a:24
#08518:0024
#09018:1414
#09014:00140014
#12218:0014001400140000
#12214:24242424
#00814:1414
#00818:00140000
#01515:14
#01412:14
#01814:14
#01810:41
#02018:14
#02214:14
#02418:14
#02414:0014
#0251a:1414
#02512:00140014
#02712:0014
#0271a:00000014
#0261a:0000001400000000
#03112:00140014
#0311a:2414
#03218:2400000000000014
#03412:14
#03410:41
#03516:0000000000000014
#04017:14
#04018:0000003400000000
#04019:0000000000340000
#0401a:0000000000000034
#0381a:1400000034340034
#05614:14
#05818:14
#05810:41
#0591a:14
#06018:14
#06214:14
#0621f:11
#06312:14
#06414:14
#06618:14
#0671a:14
#07214:14
#07218:00140000
#07212:0014
#0721a:00000014
#0721f:21
#07314:14
#07318:00140000
#07312:0014
#0731a:00000014
#07310:41
#07618:14
#07612:00140000
#0761a:0014
#07614:00000014
#07718:14
#07712:00140000
#0771a:0014
#07714:00000014
#07414:0000000000000014
#07918:0014
#07914:00000014
#07912:0026000000000000
#0811a:0014
#08312:0014
#0911a:1414
#09112:00140000
#09314:00140000
#09318:0014
#09312:00000014
#0931a:14
#0941a:14
#09412:00140000
#09418:0014
#09414:00000014
#09618:00140000
#09614:0014
#0961a:00000014
#09612:14
#09712:14
#0971a:00140000
#09714:0014
#09718:00000014
#10218:14
#10314:14
#1041a:14
#10412:0014
#10518:14
#10514:0014
#11018:14
#11014:0014
#1111a:1414
#11112:00140014
#1131a:1414
#11312:00140014
#11218:14
#11214:0014
#11518:0014
#11514:00000014
#11512:0026000000000000
#1211a:00140014
#12112:2424
#05118:24242424
#05114:0024002400240024
#0951a:24
#09813:002400000000
#04214:24240000
#04218:0024002400000000
#0471a:0024
#01718:24
#04414:0024002400000000
#04418:24240000
#05218:24
#07014:24
#07018:0024
#07113:25
#07118:0025
#07818:26000026
#07812:0000002600000000
#0861a:24
#09212:00240000
#11418:26000026
#11412:0000002600000000
#11712:0024
#00113:00000034
#00112:00343400
#00519:00000034
#00518:00343400
#0091a:00000034
#00919:0034
#01312:00000034
#01313:0034
#01314:00340000
#04915:00000000000000000034000000000000
#04914:00000000000034000000000000000034
#04913:00000034000000000000000000000000
#05013:0034000000000000
#05012:00000000003400000000000000000000
#11917:00000000000000000034000000000000
#11918:00000000000034000000000000000034
#11919:00000034000000000000000000000000
#12019:0034000000000000
#1201a:00000000003400000000000000000000
#08810:41
#10010:41
#1261a:0000005454000054
#12618:54
#12518:0000005454000054
#1251a:54
#1241a:0000005454000054
#12418:54
#12318:5400005454000054
#10854:0000005400000000
#05454:54
#09954:54
#01057:00000024
#0105a:64
#0115a:0014
#05552:54
#10758:14
#01555:24
#01452:54
#01652:14
#01854:54
#02058:64
#02254:54
#0265a:0000005400000000
#02952:0014
#03258:0000000000000054
#03452:64
#03752:0014
#03556:0000000000000054
#04057:64
#0385a:54
#0415a:00000000000000000014000000000000
#05258:14
#05654:54
#05858:64
#0595a:64
#06058:64
#06254:54
#06352:54
#06454:54
#06658:64
#0675a:64
#07454:0000000000000064
#07552:0014
#08756:14
#0865a:54
#08952:0014
#0915a:0014
#10052:14
#001320:14343400
#001330:00000034
#002340:34
#004340:24
#005380:14343400
#005390:00000034
#0063a0:34
#0073a0:0024
#008380:0000000000001434
#009380:00340000
#009390:0034
#0093a0:00000034
#0103a0:34
#010370:00000054
#0113a0:0024
#013340:14340000
#013330:0034
#013320:00000034
#014320:34
#015350:54
#016320:24
#018340:14
#018320:0000000000003434
#019320:0024
#020380:14
#0203a0:0000000000003434
#0213a0:0024
#022340:14
#022320:0000000000003434
#023320:0024
#0263a0:1400003400000000
#027380:00240000
#028340:14
#028320:0034
#028330:00000034
#029340:34
#029320:0024
#032380:1400003400340034
#0333a0:0024
#034320:14
#035360:0000000034340034
#037320:0024
#0383a0:1400000034340034
#039370:00000000000000003400003400003400
#040370:34
#040380:0000003400000000
#040390:0000000000340000
#0403a0:0000000000000034
#0413a0:00000000000000000024000000000000
#046320:14000034
#046340:0000003400000000
#047340:0024000000000000
#0473a0:0014
#047380:0000000000000034
#0483a0:00340000
#048380:0000000000240000
#049320:14
#049330:00000034000000000000000000000000
#049340:00000000000034000000000000000034
#049350:00000000000000000034000034000000
#050330:0034000000000000
#050320:00000000003400002400000000000000
#054340:14
#055320:54
#056340:54
#057320:24
#058380:14
#0593a0:54
#060380:54
#0613a0:24
#062340:14
#063320:34
#064340:34
#065320:24
#066380:14
#0673a0:34
#068380:34
#069370:00260000
#074340:1400343400340034
#075320:0024
#080380:14
#0813a0:24
#082340:14
#083320:24
#0863a0:14
#087360:24
#088320:14000034
#088340:0000003400000000
#089340:0034000000000000
#089320:0024
#092320:00140024
#0953a0:1424
#098330:001400340034
#098340:003434
#099340:34
#100320:24
#106380:14
#107380:24
#108340:1400003400000000
#109320:0024
#1163a0:14000034
#116380:0000003400000000
#117380:0024000000000000
#117320:0014
#117340:0000000000000034
#118320:00340000
#118340:0000000000240000
#1193a0:14
#119390:00000034000000000000000000000000
#119380:00000000000034000000000000000034
#119370:00000000000000000034000034000000
#120390:0034000000000000
#1203a0:00000000003400002400000000000000
#123980:1454
#124980:54
#1249a0:0000005454000000
#1259a0:54
#125980:0000005454000000
#126980:54
#1269a0:0000005400000054
#1299c0:22
