This file was generated by Ched 2.7.0.0.
#TITLE ""
#ARTIST ""
#DESIGNER ""
#DIFFICULTY 0
#PLAYLEVEL
#SONGID ""
#WAVE ""
#WAVEOFFSET 0
#JACKET ""
#REQUEST "ticks_per_beat 480"
#00002: 4
#BPM01: 198
#00008: 01
#TIL00: ""
#VOLUME: ""
#HISPEED 00
#MEASUREHS 00
#00118:0000730000001313
#0011b:2300000023001323
#00112:2300000000007323
#00115:0073
#00212:0013002300000000
#00215:0000130000000013
#0021b:0000002300130000
#00218:0023001300001300
#0031b:1300000000002323
#00318:1300131323230000
#00315:0013000013131313
#00312:2300232300000000
#00418:0013001300002300
#0041b:00131300
#00412:0023002300001300
#00415:00232300
#00718:0013000013000013
#00712:00130000
#00715:0000001300130000
#0071b:00005313
#00717:72
#00815:131300
#00818:001300130000000000530000
#0081b:000013000013000000000000
#00812:5300130000262600
#01115:0013000013000013
#0111b:00130000
#01118:7200001300130000
#01112:00005313
#01215:000000001300000000000000230000000000000013000000000000000000000000000000000000130000000000130000
#01212:0000000000000000130000000000000000000000000000002c0000000000000000000000000000130000000000130000
#01218:230000000000000013000000000000000000130000130000
#0121b:53230000
#01315:0013000000000000
#01316:0000001400140000
#01318:0000530000000013
#01310:41
#01312:0053
#0131b:00000053
#01412:0016000000001300
#01418:0000531613130013
#01415:53000000000000005300130000130000
#0141b:00000000000000000000000000000013
#01512:00540014
#01516:0000230000000023
#0151a:0000230000540023
#01517:0000000000230000
#01513:0000000000230000
#01616:1424
#01614:00140000
#01612:0014
#01615:0000000000001313
#01618:00000000240000000000000000130013
#0161b:00000000000000000000000000130013
#0161a:24
#01718:0013000000000000
#01716:0000001400140000
#01715:0000530000000013
#0171b:0053
#01712:00000053
#01818:53001600000000005300130000130000
#01812:00000000000016000000000000000013
#01815:0000530013130013
#0181b:00000013
#0191a:0000540000231400
#01917:0000230000000023
#01913:0000230000000023
#01916:0000000000230000
#01912:0000000000540000
#02016:14000000000000002400000000140014
#02018:00140000
#0201a:0014
#02012:2400000000001313
#02015:0000000000001313
#02014:00240000
#02112:14
#02116:00141400
#0211a:24140014
#02117:00000013
#02114:00000013
#02212:1414
#02218:0013001300130013
#0221b:0013130000000000
#02215:0000001300130013
#0221a:00000014
#02216:54
#0231a:14
#02316:00141413
#02312:24140014
#02319:00000013
#0241a:1414
#02415:0013001300130000
#02412:0013130000001414
#02418:0000001300130000
#02416:54000000000000000000000000140014
#02512:14140014
#02517:0013000000000013
#02519:0000001300000000
#0251a:2400000014000013
#02514:0013000000000000
#02516:0000001300130000
#02513:0000000000130000
#02510:41
#0261a:1400000014001414
#02615:0013000000130000
#02612:0013140000130000
#02618:0000001300000000
#0261b:0000001300000000
#02616:00000000000000000000000000140014
#0271a:14
#02712:2400000000130000
#02715:0000000000531300
#02718:0000000000530013
#0271b:0000000000530000
#0281b:1313
#02812:0013130013001300
#02816:0014140000000000
#02818:000000000000001300000013
#02815:000000001313
#02912:23120012
#02914:0000001200120000
#02916:0012
#0291b:23
#0291a:0000005200520000
#0291c:0052
#02918:00520052
#0301c:00120012
#0301a:2200001200120000
#03018:0012
#03014:2200005200520000
#03017:22
#03012:0052
#03016:00520052
#03118:00120012
#0311a:2200001200120000
#0311c:0012
#03112:00120012
#03114:2200001200120000
#03116:0012
#03117:22
#0321c:0052001200000000
#03216:0052001200000000
#03218:0000000000130013
#0321b:00000013
#03215:0000000000130013
#03212:00000013
#03213:0000005200000000
#03219:0000005200000000
#03718:0013000000130013
#03715:0000130013000013
#0371b:2300002300002300
#03712:0000002300002300
#03818:0013000000000000
#03815:2613000000000000
#0381b:23
#03812:23
#03917:0013
#03915:1300000000000013
#03916:00130000
#03912:23000013
#0391b:00000013
#03914:0023
#0391a:0023
#03918:23
#03913:00230000
#03919:00230000
#03910:41
#0401b:13130013
#04018:1300001300130000
#04015:0013000013000013
#04012:00131313
#04116:0013
#04118:13
#04117:00130000
#04112:00000013
#0411b:23000013
#04115:2300000000000013
#04119:0023
#04113:0023
#0411a:00230000
#04114:00230000
#04212:13000000130000001300000013000013
#0421b:13131313
#04218:00001300000000000000130000130000
#04215:0000001300000013
#04318:0000001414000000
#0431a:14000014
#04312:00000014
#04316:00000014
#04414:0000001414000000
#04412:14000014
#04418:14
#0441a:00000014
#04416:00000014
#04515:1300000000130013
#04514:00130000
#04517:00130000
#04512:1300002c00132c13
#04518:26
#0461b:2323230000001313
#04618:23002300230000000000000000130013
#04612:0000000023232300
#04615:0000000023232300
#04717:13
#04716:00130000
#04715:0013
#0471b:23000013
#04712:00002313
#04718:0000000000000013
#04714:23
#0471a:00230000
#04713:00230000
#04719:0023
#04812:13130013
#04815:1300001300130000
#04818:0013000013000013
#0481b:00131313
#04912:23000000160000000000002300000000
#04915:13000000000013000000001300002300
#04918:00000013000023001300000016001300
#0491b:00000023000000002300000000000000
#0501b:0000001313000000
#05018:23000000000000130000000053000000
#05012:1300000000001313
#05015:00000000000000005300000000130013
#05112:1313
#05115:0013
#0511c:00220022
#05119:00220022
#05116:00220022
#05212:2200000000001313
#05218:22000000000000000000000000130013
#05215:2200000000001313
#0521b:00000000000000000000000000130013
#0521a:00220000
#05217:00220000
#05214:00220000
#0521c:0022
#05219:0022
#05216:0022
#05318:0013001300130013
#0531b:00130013
#05315:23131313
#05312:23130013
#05412:1313
#05415:1300001313000000
#05416:0013000000000000
#05413:0013000000000000
#05414:00130000
#05417:00130000
#05418:0000001300001313
#0541b:00000000000000130000000000130013
#05518:2313131313131313
#05515:53130013
#0551b:0013
#05510:41
#05618:1300130013000016
#0561b:1300001300000000
#05615:0013000000001600
#05612:0013001600160000
#05715:2313131313131313
#05718:00130013
#05712:1313
#05815:13001300000000130000130000001300
#05818:00000013000000001300001300130013
#0581b:00130013
#05812:1300001300000000
#0591b:13
#05912:1300001200000000
#05918:0000120000121200
#0591c:0000001200000000
#05914:0000000012000012
#0591a:0000000012000012
#05916:00000000520000000000001200000000
#0601c:1212
#06012:1212
#0601a:0012001200001200
#06018:00120000
#06014:0000120000120012
#06016:00000012
#06112:1213001300000013
#0611c:12
#06118:0000000000131300
#06115:00000000000053001300000000130013
#0611b:0013000000001300
#06215:00000023000023000000000013001300
#06212:00000000000023000000000000130013
#06218:23000023000000002300000000000000
#0621b:2323
#06315:2313131313131313
#06318:53130013
#06312:0013
#06415:13131316
#06412:1300001300000016
#06418:0013001600160000
#0641b:0013000000000000
#06518:2313131313131313
#06515:00130013
#0651b:1313
#06618:13001300000000130000130000001300
#06615:00000013000000001300001300130013
#06612:00130013
#0661b:1300001300000000
#07015:0013231323000000
#07018:0023132313000000
#07012:0023002300001400
#0701a:00000014
#07016:00000014
#0701b:00232300
#07318:0013000013000013
#07312:72130000
#07315:0000001300130000
#0731b:00005313
#07417:001200000012000000000000
#07419:001212000000
#07418:0000000000001212
#07416:00000000000000000000000000120012
#07415:22222200
#0741b:00220000
#07412:53
#07814:0000120000000012
#07816:00000000000000000000120000000012
#0781a:00120012
#07818:52000000000000000000001200000000
#07812:12
#0781c:0012
#07815:52
#07912:00130000
#07918:23001313
#07915:0000230000130000
#0791b:13001313
#0801b:0000130000000013
#08015:23001313
#08018:0000230000130013
#08012:13001313
#08112:00130000
#08115:0000131313131313
#08118:0000531313131313
#0811b:00530000
#08215:23000023000000000012000000000000
#08218:00000023000023000000120000000000
#0821b:00000000000023000000001200000000
#08216:00000000000000000000000000120000
#08219:0000000000000012
#0821c:00000000000000000000000000000012
#08212:2322
#08213:00000022
#08312:23002313
#0831b:00230013
#08315:1300230013000013
#08318:23132300
#0831f:21
#0841a:13
#08416:13
#08415:0013000000000013
#08412:13130013
#0841b:00131313
#08418:0000001300130000
#08417:0013
#08413:0013
#08410:41
#08518:13000000160013000000001300002300
#08515:00000013000023001300000000001300
#08512:00000023000000002300000016000000
#0851b:23000000000000000000002300000000
#08612:0000001313000000
#08615:23000000000000130000000053000000
#0861b:1300000000001313
#08618:00000000000000005300000000130013
#0871b:1313
#08718:00221322
#08712:00220022
#08715:00220022
#0881b:0000000000001313
#08815:00000000000000002200000000130013
#08818:0000000022001313
#08812:00000000000000002200000000130013
#0881c:22
#08819:22
#08816:22
#08814:00220000
#08817:00220000
#0881a:00220000
#08915:0013001300130013
#08912:00130013
#08918:23131313
#0891b:23130013
#09018:13000000000023000000000000130013
#09017:0013000023000000
#09016:00130000
#09015:00130000000013000000000000000000
#09014:00000013000000002300000000000000
#09013:00000000001300000000000000000000
#09012:00000000000000130000000000000000
#0901b:2300000000001313
#0901a:0023000000000000
#09019:00230000
#09215:0013000000001600
#09218:2200130013000016
#09212:1300001600160000
#0921b:5300001300000000
#09415:00001300000000130000130000001300
#09418:00000013000000001300001300130013
#0941b:13130013
#09412:5300001300000000
#09416:22
#09518:160000000000000000000000000000000000000000000000000000000000000000000000000000000000000000000000000000000000000000000000000000000000000000000000000000000000000000000000000000000000000000000000000000000000000000000000000000000000000000000000000000000000000000000000000000000000000000000000000000000000000000000000000000000000000000000000000000000000000000000000000000000000000000000000000000000000000000000000000000000000000000000000000000000000000000000000000000000000000000000000000000000000000000000000000000000000000000000000000000000000000000000000000000000000000000000000000000000000000000000000000000000000000000000000000000000000000000000000000000000000000000000000000000000000000000000000000000000000000000000000000000000000000000000000000000000000000000000000000000000000000000000000000000000000000000000000000000000000000000000000000000000000000000000000000000000000000000000000000000000000000000000000000000000000000000000000000000000000000000000000000000000000000000000000000000000000000000000000000000000000000000000000000000000000000000000000000000000000000000000000000000000000000000000000000000000000000000000000000000000000000000000000000000000000000000000000000000000000000000000000000000000000000000000000000000000000000000000000000000000000000000000000000000000000000000000000000000000000000000000000000000000000000000000000000000000000000000000000000000000000000000000000000000000000000000000000000000000000000000000000000000000000000000000000000000000000000000000000000000000000000000000000000000000000000000000000000000000000000000000000000000000000000000000000000000000000000000000000000000000000000000000000000000000000000000000000000000000000000000000000000000000000000000000000000000000000000000000000000000000000000000000000000000000000000000000000000000000000000000000000000000000000000000000000000000000000000000000000000000000000000000000000000000000000000000000000000000000000000000000000000000000000000000000000000000000000000000000000000000000000000000000000000000000000000000000000000000000000000000000000000000000000000000000000000000000000000000000000000000000000000000000000000000000000000000000000000000000000000000000000000000000000000000000000000000000000000000000000000000000000000000000000000000000000000000000000000000000000000000000000000000000000000000000000000000000000000000000000000000000000000000000000000000000000000000000000000000000000000000000000000000000000000000000000000000000000000000000000000000000000000000000000000000000000000000000000000000000000000000000000000000000000000000000000000000000000000000000000000000000000000000000000000000000000000000000000000000000000000000000000000000000000000000000000000000000000000000000000000000000000000000000000000000000000000000000000000000000000000000000000000000000000000000000000000000000000000000000000000000000000000000000000000000000000000000000000000000000000000000000073000000000000000000000000000000000000000000000000000000000000000000000000000000000000000000000000000000000000000000000000000000000000000000000000000000000000000000000000000000000000000000000000000000000000000000000000000000000000000000000000000000000000000000000000000000000000000000000000000000000000000000000000000000000000000000000000000000000000000000000000000000000000000000000000000000000000000000000000000000000000000000000000000000000000000000000000000000000000000000000000000000000000000000000000000000000000000000000000000000000000000000000000000000000000000000000000000000000000000000000000000000000000000000000000000000000000000000000000000000000000000000000000000000000000000000000000000000000000000000000000000000000000000000000000000000000000000000000000000000000000000000000000000000000000000000000000000000000000000000000000000000000000000000000000000000000000000000000000000000000000000000000000000000000000000000000000000000000000000000000000
#0951b:0013
#09512:006c006c
#09515:000000000000000000000000000000000000000000000000000000000000000000000000000000000000000000000000000000000000000000000000000000000000000000000000000000000000000000000000000000000000000000000000000000000000000000000000000000000000000000000000000000000000000000000000000000000000000000000000000000000000000000000000000000000000000000000000000000000000000000000000000000000000000000000000000000000000000000000000000000000000000000000000000000000000000000000000000000000000000000000000000000000000000000000000000000000000000000000000000000000000000000000000000000000000000000000000000000000000000000000000000000000000000000000000000000000000000000000000000000000000000000000000000000000000000000000000000000000000000000000000000000000000000000000000000000000000000000000000000000000000000000000000000000000000000000000000000000000000000000000000000000000000000000000000000000000000000000000000000000000000000000000000000000000000000000000000000000000000000000000073000000000000000000000000000000000000000000000000000000000000000000000000000000000000000000000000000000000000000000000000000000000000000000000000000000000000000000000000000000000000000000000000000000000000000000000000000000000000000000000000000000000000000000000000000000000000000000000000000000000000000000000000000000000000000000000000000000000000000000000000000000000000000000000000000000000000000000000000000000000000000000000000000000000000000000000000000000000000000000000000000000000000000000000000000000000000000000000000000000000000000000000000000000000000000000000000000000000000000000000000000000000000000000000000000000000000000000000000000000000000000000000000000000000000000000000000000000000000000000000000000000000000000000000000000000000000000000000000000000000000000000000000000000000000000000000000000000000000000000000000000000000000000000000000000000000000000000000000000000000000000000000000000000000000000000000000000000000000000000000000000000000000000000000000000000000000000000000000000000000000000000000000000000000000000000000000000000000000000000000000000000000000000000000000000000000000000000000000000000000000000000000000000000000000000000000000000000000000000000000000000000000000000000000000000000000000000000000000000000000000000000000000000000000000000000000000000000000000000000000000000000000000000000000000000000000000000000000000000000000000000000000000000000000000000000000000000000000000000000000000000000000000000000000000000000000000000000000000000000000000000000000000000000000000000000000000000000000000000000000000000000000000000000000000000000000000000000000000000000000000000000000000000000000000000000000000000000000000000000000000000000000000000000000000000000000000000000000000000000000000000000000000000000000000000000000000000000000000000000000000000000000000000000000000000000000000000000000000000000000000000000000000000000000000000000000000000000000000000000000000000000000000000000000000000000000000000000000000000000000000000000000000000000000000000000000000000000000000000000000000000000000000000000000000000000000000000000000000000000000000000000000000000000000000000000000000000000000000000000000000000000000000000000000000000000000000000000000000000000000000000000000000000000000000000000000000000000000000000000000000000000000000000000000000000000000000000000000000000000000000000000000000000000000000000000000000000000000000000000000000000000000000000000000000000000000000000000000000000000000000000000000000000000000000000000000000000000000000000000000000000000000000000000000000000000000000000000000000000000000000000000000000000000000000000000000000000000000000000000000000000000000000000000000000000000000000000000000000000000000000000000000000000000000000000000000000000000000000000000000000000000000000000000000000000000000000000000000000000000000000000000000000000000000000000000000000000000000000000000000000
#09818:0013231323000000
#09815:0023132313000000
#0981a:00000014
#09812:00232314
#09816:00000014
#0981b:0023002300000000
#09917:12001200120000000000005200000000
#09914:0012
#09912:0000000000000026
#09915:00000000000000000052000000000000
#09916:0000000000520000
#09918:00000052
#09919:00000000000000000000000000520000
#0991a:0000000000000052
#09115:00130013
#09118:0012121212121212
#09112:5313
#07519:12
#07518:00520000
#07517:0052
#07516:00000052
#09318:00130013
#0931b:1313
#09316:2212121212121212
#06712:13691366
#06710:41
#0671b:00530000
#06718:00000053
#0681b:1313
#06812:00530000
#06815:00690053
#06818:00000066
#09612:166c136c
#09615:000000000000000000000000000000000000000000000000000000000000000000000000000000000000000000000000000000000000000000000000000000000000000000000000000000000000000000000000000000000000000000000000000000000000000000000000000000000000000000000000000000000000000000000000000000000000000000000000000000000000000000000000000000000000000000000000000000000000000000000000000000000000000000000000000000000000000000000000000000000000000000000000000000000000000000000000000000000000000000000000000000000000000000000000000000000000000000000000000000000000000000000000000000000000000000000000000000000000000000000000000000000000000000000000000000000000000000000000000000000000000000000000000000000000000000000000000000000000000000000000000000000000000000000000000000000000000000000000000000000000000000000000000000000000000000000000000000000000000000000000000000000000000000000000000000000000000000000000000000000000000000000000000000000000000000000000000000000000000000000000000000000000000000000000000000000000000000000000000000000000000000000000000000000000000000000000000000000000000000000000000000000000000000000000000000000000000000000000000000000000000000000000000000000000000000000000000000000000000000000000000000000000000000000000000000000000000000000000000000000000000000000000000000000000000000000000000000000000000000000000000000000000000000000000000000000000000000000000000000000000000000000000000000000000000000000000000000000000000000000000000000000000000000000000000000000000000000000000000000000000000000000000000000000000000000000000000000000000000000000000000000000000000000000000000000000000000000000000000000000000000000000000000000000000000000000000000000000000000000000000000000000000000000000000000000000000000000000000000000000000000000000000000000000000000000000000000000000000000000000000000000000000000000000000000000000000000000000000000000000000000000000000000000000000000000000000000000000000000000000000000000000000000000000000000000000000000000000000000000000000000000000000000000000000000000000000000000000000000000000000000000000000000000000000000000000000000000000000000000000000000000000000000000000000000000000000000000000000000000000000000000000000000000000000000000000000000000000000000000000000000000000000000000000000000000000000000000000000000000000000000000000000000000000000000000000000000000000000000000000000000000000000000000000000000000000000000000000000000000000000000000000000000000000000000000000000000000000000000000000000000000000000000000000000000000000000000000000000000000000000000000000000000000000000000000000000000000000000000000000000000000000000000000000000000000000000000000000000000000000000000000000000000000000000000000000000000000000000000000000000000000000000000000000000000000000000000000000000000000000000000000000000000000000000000000000000000000000000000000000000000000000000000000000000000000000000000000000000000000000073000000000000000000000000000000000000000000000000000000000000000000000000000000000000000000000000000000000000000000000000000000000000000000000000000000000000000000000000000000000000000000000000000000000000000000000000000000000000000000000000000000000000000000000000000000000000000000000000000000000000000000000000000000000000000000000000000000000000000000000000000000000000000000000000000000000000000000000000000000000000000000000000000000000000000000000000000000000000000000000000000000000000000000000000000000000000000000000000000000000000000000000000000000000000000000000000000000000000000000000000000000000000000000000000000000000000000000000000000000000000000000000000000000000000000000000000000000000000000000000000000000000000000000000000000000000000000000000000000000000000000000000000000000000000000000000000000000000000000000000000000000000000000000000000000000000000000000000000000000000000000000000000000000000000000000000000000000000000000000000000
#09618:000000000000000000000000000000000000000000000000000000000000000000000000000000000000000000000000000000000000000000000000000000000000000000000000000000000000000000000000000000000000000000000000000000000000000000000000000000000000000000000000000000000000000000000000000000000000000000000000000000000000000000000000000000000000000000000000000000000000000000000000000000000000000000000000000000000000000000000000000000000000000000000000000000000000000000000000000000000000000000000000000000000000000000000000000000000000000000000000000000000000000000000000000000000000000000000000000000000000000000000000000000000000000000000000000000000000000000000000000000000000000000000000000000000000000000000000000000000000000000000000000000000000000000000000000000000000000000000000000000000000000000000000000000000000000000000000000000000000000000000000000000000000000000000000000000000000000000000000000000000000000000000000000000000000000000000000000000000000000000000073000000000000000000000000000000000000000000000000000000000000000000000000000000000000000000000000000000000000000000000000000000000000000000000000000000000000000000000000000000000000000000000000000000000000000000000000000000000000000000000000000000000000000000000000000000000000000000000000000000000000000000000000000000000000000000000000000000000000000000000000000000000000000000000000000000000000000000000000000000000000000000000000000000000000000000000000000000000000000000000000000000000000000000000000000000000000000000000000000000000000000000000000000000000000000000000000000000000000000000000000000000000000000000000000000000000000000000000000000000000000000000000000000000000000000000000000000000000000000000000000000000000000000000000000000000000000000000000000000000000000000000000000000000000000000000000000000000000000000000000000000000000000000000000000000000000000000000000000000000000000000000000000000000000000000000000000000000000000000000000000000000000000000000000000000000000000000000000000000000000000000000000000000000000000000000000000000000000000000000000000000000000000000000000000000000000000000000000000000000000000000000000000000000000000000000000000000000000000000000000000000000000000000000000000000000000000000000000000000000000000000000000000000000000000000000000000000000000000000000000000000000000000000000000000000000000000000000000000000000000000000000000000000000000000000000000000000000000000000000000000000000000000000000000000000000000000000000000000000000000000000000000000000000000000000000000000000000000000000000000000000000000000000000000000000000000000000000000000000000000000000000000000000000000000000000000000000000000000000000000000000000000000000000000000000000000000000000000000000000000000000000000000000000000000000000000000000000000000000000000000000000000000000000000000000000000000000000000000000000000000000000000000000000000000000000000000000000000000000000000000000000000000000000000000000000000000000000000000000000000000000000000000000000000000000000000000000000000000000000000000000000000000000000000000000000000000000000000000000000000000000000000000000000000000000000000000000000000000000000000000000000000000000000000000000000000000000000000000000000000000000000000000000000000000000000000000000000000000000000000000000000000000000000000000000000000000000000000000000000000000000000000000000000000000000000000000000000000000000000000000000000000000000000000000000000000000000000000000000000000000000000000000000000000000000000000000000000000000000000000000000000000000000000000000000000000000000000000000000000000000000000000000000000000000000000000000000000000000000000000000000000000000000000000000000000000000000000000000000000000000000000000000000000000000000000000000000000000000000000000000000000000000000000000000000000000000000000000000000000000000000000000000000000000000000000000000000000000000000000000000
#0711f:11
#07115:007300000073000000000072
#07118:007373000000
#0711b:00730073
#07112:0073
#07116:000000000000007300000000
#07119:000072
#07117:000000000073
#03312:23242324
#0331a:2424
#0331b:00230023
#03319:00640000000000000000000000000000000000000000000000000000000000000064000000000000000000000000000000000000000000000000000000000000
#03318:0064000000000000000000000000000000640000000000000000000000000000
#03317:00000064000000000000000000000000000000000000000000000000000000000000006400000000000000000000000000000000000000000000000000000000
#03316:00640000006400000064000000640000
#03313:00000000000000000000000000000000006400000000000000000000000000000000000000000000000000000000000000640000000000000000000000000000
#03314:0000000000000000006400000000000000000000000000000064000000000000
#03315:00000000000000000000000000000000000000640000000000000000000000000000000000000000000000000000000000000064000000000000000000000000
#0341b:23232300
#03412:23232323
#03418:0023002300230023
#03415:00230023
#0351b:2300000023230000
#03512:2400232324002323
#0351a:00240024
#03513:00640000000000000000000000000000000000000000000000000000000000000064000000000000000000000000000000000000000000000000000000000000
#03514:0064000000000000000000000000000000640000000000000000000000000000
#03515:00000064000000000000000000000000000000000000000000000000000000000000006400000000000000000000000000000000000000000000000000000000
#03516:00640000006400000064000000640000
#03519:00000000000000000000000000000000006400000000000000000000000000000000000000000000000000000000000000640000000000000000000000000000
#03518:0000000000000000006400000000000000000000000000000064000000000000
#03517:00000000000000000000000000000000000000640000000000000000000000000000000000000000000000000000000000000064000000000000000000000000
#03615:23000000000000000023000000230000
#03614:0023000000000000
#03613:00230000
#03612:00000000000023000000002300000023
#0361b:23002323
#0361a:0023000000000000
#03619:00230000
#03618:0000002300230023
#06912:2323230000002300
#06915:2323230023232323
#06918:2323230023232323
#0691b:0000000023230023
#0971b:2323230000002300
#09718:2323230023232323
#09715:2323230023232323
#09712:0000000023230023
#10018:0023002300002300
#1001b:0023002300002300
#10015:00232300
#10012:00232300
#07618:52000052
#07615:52
#07616:00520000
#07617:0052
#07719:52
#07718:00520000
#07717:0052
#07716:52000052
#0091b:530073000073
#00912:007300000000007300000000
#00915:007300737300
#00918:000000730073000000720073
#0051b:007300000000007300000000
#00518:007300737300
#00515:000000730073000000730073
#00512:000073000073
#0061b:007300000000007300000000
#00619:007200007200
#00616:00730000
#00617:00007372
#00618:73
#00612:000073000073
#00615:000000000072000000000072
#07217:007300000000000000000000
#0721a:007200007200
#0721c:00720072
#07218:000000000000007200000000
#07212:7372
#07216:000073000072
#07214:000000000072000000000072
#01012:007300000000007200000000
#01015:007200000000
#01017:00727200
#01014:000072
#01016:72000072
#0101b:007300
#01019:000000000072000000000000
#0101c:000000000072
#0101a:000000000000000000000072
#0035b:0000000000000013
#00355:0000000000000013
#00455:0013
#0045b:0013
#00452:00000013
#00458:00000013
#01252:001c
#01656:34
#01654:00340000
#01652:0034
#02056:44
#02058:00440000
#0205a:0044
#02152:5414
#02156:00245400
#0215a:00000024
#0235a:6414
#02356:00246400
#02352:00000024
#0275a:14
#0385b:5300004300000000
#03858:0023000000000000
#03855:0023001600000000
#03852:6300003300000000
#0395a:0013
#03957:0013
#03954:0013
#04156:0013
#04159:0013
#04153:0013
#04352:00001414
#0435a:54000014
#04358:0014
#04356:00000014
#04452:64000014
#0445a:00001414
#04454:0014
#04456:00000014
#04558:16
#04552:0000001c00001c00
#04658:00130000
#0465b:00130000
#04655:00000013
#04652:00000013
#04752:0013
#04755:0013
#04759:0013
#04952:00160000
#04958:00000016
#05052:53
#0505b:0053
#05156:00120012
#05159:00120012
#0515c:00120012
#0525c:0012
#05259:0012
#05256:0012
#05652:0000001600000000
#0565b:0000001300000000
#05952:53
#0615b:0053000000000000
#0625b:0043
#06258:0043
#06458:0000001600000000
#06452:0000001300000000
#06952:00330000
#06955:00330000
#0695b:0000000000000043
#06958:0000000000000043
#07052:00000034
#0705a:00000044
#07056:00000014
#07455:0012
#07958:00000013
#0795b:00000013
#08052:00000013
#08055:00000013
#08558:00160000
#08552:00000016
#08652:0063
#0865b:63
#08358:0013
#08352:0013
#08355:0013
#08752:00120012
#08755:00120012
#08758:00120012
#08852:0012
#08855:0012
#08858:0012
#09252:0000001600000000
#0925b:0000001300000000
#0985a:00000044
#09852:00000034
#09856:00000014
#0975b:00430000
#09758:00430000
#09752:0000000000000033
#09755:0000000000000033
#10052:0013
#10055:0013
#10058:00000013
#1005b:00000013
#09952:0000000000000016
#02252:14
#0245a:14
#06752:00190016
#06855:00190000
#06858:00000016
#09552:001c001c
#09652:001c001c
#001380:13230000
#001351:00132300
#001320:00001323
#0053b0:132300000000000000000000
#005381:001323000000000000000000
#005350:000013230000000000000000
#005321:000000132300000000000000
#005350:000000001323000000000000
#005381:000000000013230000000000
#0053b0:000000000000132300000000
#005381:000000000000001323000000
#005350:000000000000000013230000
#005321:000000000000000000132300
#005350:000000000000000000001323
#005381:000000000000000000000013
#006381:23
#0063b0:132300000000000000000000
#006391:001222000000000000000000
#006360:000013230000000000000000
#006321:000000132300000000000000
#006350:000000001222000000000000
#006371:000000000013230000000000
#0063b0:000000000000132300000000
#006391:000000000000001222000000
#006370:000000000000000012220000
#006321:000000000000000000132300
#006350:000000000000000000001222
#006371:000000000000000000000012
#007371:22
#0073b0:1323
#007321:0013
#008321:23
#008381:00001323
#0083b0:00000013
#0093b0:23
#009321:132300000000000000000000
#009350:001323000000000000000000
#009381:000013230000000000000000
#0093b0:000000132300000000000000
#009381:000000001323000000000000
#009350:000000000013230000000000
#009321:000000000000132300000000
#009350:000000000000001323000000
#009381:000000000000000012220000
#0093b0:000000000000000000132300
#009381:000000000000000000001323
#009360:000000000000000000000012
#010360:22
#010321:132300000000000000000000
#010350:001222000000000000000000
#010371:000012220000000000000000
#0103b0:000000132300000000000000
#010391:000000001222000000000000
#010370:000000000012220000000000
#010321:000000000000122200000000
#010340:000000000000001222000000
#010361:000000000000000012220000
#0103c0:000000000000000000122200
#0103a1:000000000000000000001222
#010380:000000000000000000000012
#011380:22
#011321:1323
#0113b0:0013
#0123b0:23
#013380:13230000
#013321:00132300
#0133b0:00001323
#013351:00000013
#014351:23
#014380:13230000
#014351:00132300
#015321:14240000
#0153a1:0000001400240000
#017351:13230000
#0173b0:00132300
#017321:00001323
#017380:00000013
#018380:23
#018351:13230000
#018380:00132300
#0193a0:14240000
#019320:0000001400240000
#021320:1424
#021360:00540000
#021361:0014
#0213a1:00000054
#022361:24
#0233a1:1424
#023361:00540000
#023360:0014
#023320:00000054
#024360:24
#0273b0:0000130000230000
#027381:0000001300230000
#027352:0000000013230000
#0313c1:0000000000000012
#0323c1:0022000000000000
#031362:0000000000000012
#032362:0022000000000000
#032390:0012002200000000
#032333:0012002200000000
#0383b3:1300332300000000
#038383:0053000000000000
#038320:1300332300000000
#038350:0053000000000000
#038352:1600002600000000
#0433a0:14
#043320:0000003424000000
#044320:14
#0443a0:0000003424000000
#050320:13
#050350:0023
#0503b2:0013
#050382:00000023
#054352:00000013
#055352:23
#059322:13
#059362:00220000
#0613b2:0013000000000000
#061352:0000002300000000
#062382:00000013
#063382:23
#0673b2:13230000
#067380:130000000000000000000000000000000000000000000000000000000000000000000000000000000000000000000000000000000000000000000000000000000000000000000000000000000000000000000000000000000000000000000000000000000000000000000000000000000000000000000000000000000000000000000000000000000000000000000000000000000000000000000000000000000000000000000000000000000000000000000000000000000000000000000000000000000000000000000000000000000000000000000000000000000000000000000000000000000000000000000053000000000000000000000000000000000000000000000000000000000000000000000000000000000000000000000000000000000000000000000000000000000000000000000000000000000000000000000000000000000000000000000000000000000000000000000000000000000000000000000000000000000000000000000000000000000000000000000000000000000000000000000000000000000000000000000000000000000000000000000000000000000000000000000000000000000000000000000000000000000000000000000000000000000000000000000000000000000000000000000000000000000000000000000000000000000000000000000000000000000000000000000000000000000000000000000000000000000000000000000000000000000000000000000000000000000000000000000000000000000000000000000000000000000000000000000000000000000000000000000000000000000000000000000000000000000000000000000000000000000000000000000000000000000000000000000000000000000000000000000000000000000000000000000000000000000000000000000000000000000000000000000000000000000000000000000000000000000000000000000000000000000000000000000000000000000000000000000000000000000000000000000000000000000000000000000000000000000000000000000000000000000000000000000000000000000000000000000000000000000000000000000000000000000000000000000000000000000000000000000000000000000000000000000000000000000000000000000000000000000000000000000000000000000000000000000000000000000000000000000000000000000000000000000000000000000000000000000000000000000000000000000000000000000000000000000000000000000000000000000000
#067320:00290000
#067350:000000000000000000000000000000000000000000000000000000000000000000000000000000000000000000000000000000000000000000000000000000000000000000000000000000000000000000000000000000000000000000000000000000000000000000000000000000000000000000000000000000000000000000000000000000000000000000000000000000000000000000000000000000000000000000000000000000000000000000000000000000000000000000000000000000000000000000000000000000000000000000000000000000000000000000000000000000000000000000000000000000000000000000000000000000000000000000000000000000000000000000000000000000000000000000000000000000000000000000000000000000000000000000000000000000000000000000000000000000000000000000000000000000000000000000000000000000000000000000000000000000000000000000000000000000000000000000000000000000000000000000000000000000000000000000000000000000000000000000000000000000000000000000000000000000000000000000000000000000000000000000000000000000000000000000000000000000000000000000000000130000000000000000000000000000000000000000000000000000000000000000000000000000000000000000000000000000000000000000000000000000000000000000000000000000000000000000000000000000000000000000000000000000000000000000000000000000000000000000000000000000000000000000000000000000000000000000000000000000000000000000000000000000000000000000000000000000000000000000000000000000000000000000000000000000000000000000000000000000000000000000000000000000000000000000000000000000000000000000000053000000000000000000000000000000000000000000000000000000000000000000000000000000000000000000000000000000000000000000000000000000000000000000000000000000000000000000000000000000000000000000000000000000000000000000000000000000000000000000000000000000000000000000000000000000000000000000000000000000000000000000000000000000000000000000000000000000000000000000000000000000000000000000000000000000000000000000000000000000000000000000000000000000000000000000000000000000000000000000000000
#067320:00000026
#067382:00001323
#068322:13230000
#068350:130000000000000000000000000000000000000000000000000000000000000000000000000000000000000000000000000000000000000000000000000000000000000000000000000000000000000000000000000000000000000000000000000000000000000000000000000000000000000000000000000000000000000000000000000000000000000000000000000000000000000000000000000000000000000000000000000000000000000000000000000000000000000000000000000000000000000000000000000000000000000000000000000000000000000000000000000000000000000000000053290000000000000000000000000000000000000000000000000000000000000000000000000000000000000000000000000000000000000000000000000000000000000000000000000000000000000000000000000000000000000000000000000000000000000000000000000000000000000000000000000000000000000000000000000000000000000000000000000000000000000000000000000000000000000000000000000000000000000000000000000000000000000000000000000000000000000000000000000000000000000000000000000000000000000000000000000000000000000000000000000000000000000000000000000000000000000000000000000000000000000000000000000000000000000000000000000000000000000000000000000000000000000000000000000000000000000000000000000000000000000000000000000000000000000000000000000000000000000000000000000000000000000000000000000000000000000000000000000000000000000000000000000000000000000000000000000000000000000000000000000000000000000000000000000000000000000000000000000000000000000000000000000000000000000000000000000000000000000000000000000000000000000000000000000000000000000000000000000000000000000000000000000000000000000000000000000000000000000000000000000000000000000000000000000000000000000000000000000000000000000000000000000000000000000000000000000000000000000000000000000000000000000000000000000000000000000000000000000000000000000000000000000000000000000000000000000000000000000000000000000000000000000000000000000000000000000000000000000000000000000000000000000000000000000000000000000000000000000000000000
#068380:000000000000000000000000000000000000000000000000000000000000000000000000000000000000000000000000000000000000000000000000000000000000000000000000000000000000000000000000000000000000000000000000000000000000000000000000000000000000000000000000000000000000000000000000000000000000000000000000000000000000000000000000000000000000000000000000000000000000000000000000000000000000000000000000000000000000000000000000000000000000000000000000000000000000000000000000000000000000000000000000000000000000000000000000000000000000000000000000000000000000000000000000000000000000000000000000000000000000000000000000000000000000000000000000000000000000000000000000000000000000000000000000000000000000000000000000000000000000000000000000000000000000000000000000000000000000000000000000000000000000000000000000000000000000000000000000000000000000000000000000000000000000000000000000000000000000000000000000000000000000000000000000000000000000000000000000000000000000000000000000130000000000000000000000000000000000000000000000000000000000000000000000000000000000000000000000000000000000000000000000000000000000000000000000000000000000000000000000000000000000000000000000000000000000000000000000000000000000000000000000000000000000000000000000000000000000000000000000000000000000000000000000000000000000000000000000000000000000000000000000000000000000000000000000000000000000000000000000000000000000000000000000000000000000000000000000000000000000000000000053260000000000000000000000000000000000000000000000000000000000000000000000000000000000000000000000000000000000000000000000000000000000000000000000000000000000000000000000000000000000000000000000000000000000000000000000000000000000000000000000000000000000000000000000000000000000000000000000000000000000000000000000000000000000000000000000000000000000000000000000000000000000000000000000000000000000000000000000000000000000000000000000000000000000000000000000000000000000000000000000
#068352:00001323
#071352:132300000000000000000000
#071380:001323000000000000000000
#0713b2:000013230000000000000000
#071380:000000132300000000000000
#071352:000000001323000000000000
#071320:000000000013230000000000
#071362:000000000000132300000000
#071390:000000000000001222000000
#0713b2:000000000000000013230000
#071370:000000000000000000132300
#071352:000000000000000000001222
#071320:000000000000000000000013
#072320:23
#072372:132300000000000000000000
#0723a0:001222000000000000000000
#0723c2:000012220000000000000000
#072360:000000132300000000000000
#072342:000000001222000000000000
#072320:000000000012220000000000
#072382:000000000000122200000000
#0723a0:000000000000001222000000
#0723c2:000000000000000012220000
#072360:000000000000000000122200
#072342:000000000000000000001222
#072320:000000000000000000000012
#073320:22
#0733b2:1323
#073320:0013
#074320:23
#0753c0:12
#076380:22
#076322:12
#077362:22
#0773c0:12
#078380:22
#081380:13230000
#0813b2:13230000
#0863b2:13
#086382:0023
#086320:0013
#086350:00000023
#090320:00000013
#091320:23
#0913b2:13
#0923b2:23
#093322:13
#094322:23
#095322:1300000000000000000000000000000000000000000000000000000000000000000000000000000000000000000000000000000000000000000000000000000000000000000000000000000000000000000000000000000000000000000000000000000000000000000000000000000000000000000000000000000000000000000000000000000000000000000000000000000000000000000000000000000000000000000000000000000000000000000000000000000000000000000000000000000000000000000000000000000000000000000000000000000000000000000000000000000000000000000000000000000000000000000000000000000000000000000000000000000000000000000000000000000000000000000000000000000000000000000000000000000000000000000000000000000000000000000000000000000000000000000000000000000000000000000000000000000000000000000000000000000000000000000000000000000000000000000000000000000000000000000000000000000000000000000000000000000000000000000000000000000000000000000000000000000000000000000000000000000000000000000000000000000000000000000000000000000000000000000000532c0000000000000000000000000000000000000000000000000000000000000000000000000000000000000000000000000000000000000000000000000000000000000000000000000000000000000000000000000000000000000000000000000000000000000000000000000000000000000000000000000000000000000000000000000000000000000000000000000000000000000000000000000000000000000000000000000000000000000000000000000000000000000000000000000000000000000000000000000000000000000000000000000000000000000000000000000000000000000000000000000000000000000000000000000000000000000000000000000000000000000000000000000000000000000000000000000000000000000000000000000000000000000000000000000000000000000000000000000000000000000000000000000000000000000000000000000000000000000000000000000000000000000000000000000000000000000000000000000000000000000000000000000000000000000000000000000000000000000000000000000000000000000000000000000000000000000000000000000000000000000000000000000000000000000000000000000000000000000000000000000000000000000000000000000000000000000000000000000000000000000000000000000000000000000000000000000000000000000000000000000000000000000000000000000000000000000000000000000000000000000000000000000000000000000000000000000000000000000000000000000000000000000000000000000000000000000000000000000000000000000000000000000000000000000000000000000000000000000000000000000000000000000000000000000000000000000000000000000000000000000000000000000000000000000000000000000000000000000000000000000000000000000000000000000000000000000000000000000000000000000000000000000000000000000000000000000000000000000000000000000000000000000000000000000000000000000000000000000000000000000000000000000000000000000000000000000000000000000000000000000000000000000000000000000000000000000000000000000000000000000000000000000000000000000000000000000000000000000000000000000000000000000000000000000000000000000000000000000000000000000000000000000000000000000000000000000000000000000000000000000000000000000000000000000000000000000000000000000000000000000000000000000000000000000000000000000000000000000000000000000000000000000000000000000000000000000000000000000000000000000000000000000000000000000000000000000000000000000000000000000000000000000000000000000000000000000000000000000000000000000000000000000000000000000000000000000000000000000000000000000000000000000000000000000000000000000000000000000000000000000000000000000000000000000000000000000000000000000000000000000000000000000000000000000000000000000000000000000000000000000000000000000000000000000000000000000000000000000000000000000000000000000000000000000000000000000000000000000000000000000000000000000000000000000000000000000000000000000000000000000000000000000000000000000000000000000000000000000000000000000000000000000000000000000000000000000000000000000000000000000000000000000000000000000000000000000000000000000000000000000000000000000000000000000000000000000000000000000000000000
#095350:130000000000000000000000000000000000000000000000000000000000000000000000000000000000000000000000000000000000000000000000000000000000000000000000000000000000000000000000000000000000000000000000000000000000000000000000000000000000000000000000000000000000000000000000000000000000000000000000000000000000000000000000000000000000000000000000000000000000000000000000000000000000000000000000000000000000000000000000000000000000000000000000000000000000000000000000000000000000000000000000000000000000000000000000000000000000000000000000000000000000000000000000000000000000000000000000000000000000000000000000000000000000000000000000000000000000000000000000000000000000000000000000000000000000000000000000000000000000000000000000000000000000000000000000000000000000000000000000000000000000000000000000000000000000000000000000000000000000000000000000000000000000000000000000000000000000000000000000000000000000000000000000000000000000000000000000000000000000000000000023000000000000000000000000000000000000000000000000000000000000000000000000000000000000000000000000000000000000000000000000000000000000000000000000000000000000000000000000000000000000000000000000000000000000000000000000000000000000000000000000000000000000000000000000000000000000000000000000000000000000000000000000000000000000000000000000000000000000000000000000000000000000000000000000000000000000000000000000000000000000000000000000000000000000000000000000000000000000000000000000000000000000000000000000000000000000000000000000000000000000000000000000000000000000000000000000000000000000000000000000000000000000000000000000000000000000000000000000000000000000000000000000000000000000000000000000000000000000000000000000000000000000000000000000000000000000000000000000000000000000000000000000000000000000000000000000000000000000000000000000000000000000000000000000000000000000000000000000000000000000000000000000000000000000000000000000000000000000000000000000000000000000000000000000000000000000000000000000000000000000000000000000000000000000000000000000000000000000000000000000000000000000000000000000000000000000000000000000000000000000000000000000000000000000000000000000000000000000000000000000000000000000000000000000000000000000000000000000000000000000000000000000000000000000000000000000000000000000000000000000000000000000000000000000000000000000000000000000000000000000000000000000000000000000000000000000000000000000000000000000000000000000000000000000000000000000000000000000000000000000000000000000000000000000000000000000000000000000000000000000000000000000000000000000000000000000000000000000000000000000000000000000000000000000000000000000000000000000000000000000000000000000000000000000000000000000000000000000000000000000000000000000000000000000000000000000000000000000000000000000000000000000000000000000000000000000000000000000000000000000000000000000000000000000000000000000000000000000000000000000000000000000000000000000000000000000000000000000000000000000000000000000000000000000000000000000000000000000000000000000000000000000000000000000000000000000000000000000000000000000000000000000000000000000000000000000000000000000000000000000000000000000000000000000000000000000000000000000000000000000000000000000000000000000000000000000000000000000000000000000000000000000000000000000000000000000000000000000000000000000000000000000000000000000000000000000000000000000000000000000000000000000000000000000000000000000000000000000000000000000000000000000000000000000000000000000000000000000000000000000000000000000000000000000000000000000000000000000000000000000000000000000000000000000000000000000000000000000000000000000000000000000000000000000000000000000000000000000000000000000000000000000000000000000000000000000000000000000000000000000000000000000000000000000000000000000000000000000000000000000000000000000000000000000000000000000000000000000000000000000
#095382:000000000000000000000000000000000000000000000000000000000000000000000000000000000000000000000000000000000000000000000000000000000000000000000000000000000000000000000000000000000000000000000000000000000000000000000000000000000000000000000000000000000000000000000000000000000000000000000000000000000000000000000000000000000000000000000000000000000000000000000000000000000000000000000000000000000000000000000000000000000000000000000000000000000000000000000000000000000000000000000000000000000000000000000000000000000000000000000000000000000000000000000000000000000000000000000000000000000000000000000000000000000000000000000000000000000000000000000000000000000000000000000000000000000000000000000000000000000000000000000000000000000000000000000000000000000000000000000000000000000000000000000000000000000000000000000000000000000000000000000000000000000000000000000000000000000000000000000000000000000000000000000000000000000000000000000000000000000000000000000000000000000000000000000000000000000000000000000000000000000000000000000000000000000000000000000000000000000000000000000000000000000000000000000000000000000000000000000000000000000000000000000000000000000000000000000000000000000000000000000000000000000000000000000000000000000000000000000000000000000000000000000000000000000000000000000000000000000000000000000000000000000000000000000000000000000000000000000000000000000000000000000000000000000000000000000000000000000000000000000000000000000000000000000000000000000000000000000000000000000000000000000000000000000000000000000000000000000000000000000000000000000000000000000000000000000000000000000000000000000000000000000000000000000000000000000000000000000000000000000000000000000000000000000000000000000000000000000000000000000000000000000000000000000000000000000000000000000000000000000000000000000000000000000000000000000000000000000000000000000000000000000000000000000000000000000000000000000000000000000000130000000000000000000000000000000000000000000000000000000000000000000000000000000000000000000000000000000000000000000000000000000000000000000000000000000000000000000000000000000000000000000000000000000000000000000000000000000000000000000000000000000000000000000000000000000000000000000000000000000000000000000000000000000000000000000000000000000000000000000000000000000000000000000000000000000000000000000000000000000000000000000000000000000000000000000000000000000000000000000000000000000000000000000000000000000000000000000000000000000000000000000000000000000000000000000000000000000000000000000000000000000000000000000000000000000000000000000000000000000000000000000000000000000000000000000000000000000000000000000000000000000000000000000000000000000000000000000000000000000000000000000000000000000000000000000000000000000000000000000000000000000000000000000000000000000000000000000000000000000000000000000000000000000000000000000000000000000000000000000023000000000000000000000000000000000000000000000000000000000000000000000000000000000000000000000000000000000000000000000000000000000000000000000000000000000000000000000000000000000000000000000000000000000000000000000000000000000000000000000000000000000000000000000000000000000000000000000000000000000000000000000000000000000000000000000000000000000000000000000000000000000000000000000000000000000000000000000000000000000000000000000000000000000000000000000000000000000000000000000000000000000000000000000000000000000000000000000000000000000000000000000000000000000000000000000000000000000000000000000000000000000000000000000000000000000000000000000000000000000000000000000000000000000000000000000000000000000000000000000000000000000000000000000000000000000000000000000000000000000000000000000000000000000000000000000000000000000000000000000000000000000000000000000000000000000000000000000000000000000000000000000000000000000000000000000000000000000000000000000000
#095350:000000000000000000000000000000000000000000000000000000000000000000000000000000000000000000000000000000000000000000000000000000000000000000000000000000000000000000000000000000000000000000000000000000000000000000000000000000000000000000000000000000000000000000000000000000000000000000000000000000000000000000000000000000000000000000000000000000000000000000000000000000000000000000000000000000000000000000000000000000000000000000000000000000000000000000000000000000000000000000000000000000000000000000000000000000000000000000000000000000000000000000000000000000000000000000000000000000000000000000000000000000000000000000000000000000000000000000000000000000000000000000000000000000000000000000000000000000000000000000000000000000000000000000000000000000000000000000000000000000000000000000000000000000000000000000000000000000000000000000000000000000000000000000000000000000000000000000000000000000000000000000000000000000000000000000000000000000000000000000000000000000000000000000000000000000000000000000000000000000000000000000000000000000000000000000000000000000000000000000000000000000000000000000000000000000000000000000000000000000000000000000000000000000000000000000000000000000000000000000000000000000000000000000000000000000000000000000000000000000000000000000000000000000000000000000000000000000000000000000000000000000000000000000000000000000000000000000000000000000000000000000000000000000000000000000000000000000000000000000000000000000000000000000000000000000000000000000000000000000000000000000000000000000000000000000000000000000000000000000000000000000000000000000000000000000000000000000000000000000000000000000000000000000000000000000000000000000000000000000000000000000000000000000000000000000000000000000000000000000000000000000000000000000000000000000000000000000000000000000000000000000000000000000000000000000000000000000000000000000000000000000000000000000000000000000000000000000000000000000000000130000000000000000000000000000000000000000000000000000000000000000000000000000000000000000000000000000000000000000000000000000000000000000000000000000000000000000000000000000000000000000000000000000000000000000000000000000000000000000000000000000000000000000000000000000000000000000000000000000000000000000000000000000000000000000000000000000000000000000000000000000000000000000000000000000000000000000000000000000000000000000000000000000000000000000000000000000000000000000000000000000000000000000000000000000000000000000000000000000000000000000000000000000000000000000000000000000000000000000000000000000000000000000000000000000000000000000000000000000000000000000000000000000000000000000000000000000000000000000000000000000000000000000000000000000000000000000000000000000000000000000000000000000000000000000000000000000000000000000000000000000000000000000000000000000000000000000000000000000000000000000000000000000000000000000000000000000000000000000000053000000000000000000000000000000000000000000000000000000000000000000000000000000000000000000000000000000000000000000000000000000000000000000000000000000000000000000000000000000000000000000000000000000000000000000000000000000000000000000000000000000000000000000000000000000000000000000000000000000000000000000000000000000000000000000000000000000000000000000000000000000000000000000000000000000000000000000000000000000000000000000000000000000000000000000000000000000000000000000000000000000000000000000000000000000000000000000000000000000000000000000000000000000000000000000000000000000000000000000000000000000000000000000000000000000000000000000000000000000000000000000000000000000000000000000000000000000000000000000000000000000000000000000000000000000000000000000000000000000000000000000000000000000000000000000000000000000000000000000000000000000000000000000000000000000000000000000000000000000000000000000000000000000000000000000000000000000000000000000000000
#095320:0000002c
#0963b0:130000000000000000000000000000000000000000000000000000000000000000000000000000000000000000000000000000000000000000000000000000000000000000000000000000000000000000000000000000000000000000000000000000000000000000000000000000000000000000000000000000000000000000000000000000000000000000000000000000000000000000000000000000000000000000000000000000000000000000000000000000000000000000000000000000000000000000000000000000000000000000000000000000000000000000000000000000000000000000000000000000000000000000000000000000000000000000000000000000000000000000000000000000000000000000000000000000000000000000000000000000000000000000000000000000000000000000000000000000000000000000000000000000000000000000000000000000000000000000000000000000000000000000000000000000000000000000000000000000000000000000000000000000000000000000000000000000000000000000000000000000000000000000000000000000000000000000000000000000000000000000000000000000000000000000000000000000000000000000000053000000000000000000000000000000000000000000000000000000000000000000000000000000000000000000000000000000000000000000000000000000000000000000000000000000000000000000000000000000000000000000000000000000000000000000000000000000000000000000000000000000000000000000000000000000000000000000000000000000000000000000000000000000000000000000000000000000000000000000000000000000000000000000000000000000000000000000000000000000000000000000000000000000000000000000000000000000000000000000000000000000000000000000000000000000000000000000000000000000000000000000000000000000000000000000000000000000000000000000000000000000000000000000000000000000000000000000000000000000000000000000000000000000000000000000000000000000000000000000000000000000000000000000000000000000000000000000000000000000000000000000000000000000000000000000000000000000000000000000000000000000000000000000000000000000000000000000000000000000000000000000000000000000000000000000000000000000000000000000000000000000000000000000000000000000000000000000000000000000000000000000000000000000000000000000000000000000000000000000000000000000000000000000000000000000000000000000000000000000000000000000000000000000000000000000000000000000000000000000000000000000000000000000000000000000000000000000000000000000000000000000000000000000000000000000000000000000000000000000000000000000000000000000000000000000000000000000000000000000000000000000000000000000000000000000000000000000000000000000000000000000000000000000000000000000000000000000000000000000000000000000000000000000000000000000000000000000000000000000000000000000000000000000000000000000000000000000000000000000000000000000000000000000000000000000000000000000000000000000000000000000000000000000000000000000000000000000000000000000000000000000000000000000000000000000000000000000000000000000000000000000000000000000000000000000000000000000000000000000000000000000000000000000000000000000000000000000000000000000000000000000000000000000000000000000000000000000000000000000000000000000000000000000000000000000000000000000000000000000000000000000000000000000000000000000000000000000000000000000000000000000000000000000000000000000000000000000000000000000000000000000000000000000000000000000000000000000000000000000000000000000000000000000000000000000000000000000000000000000000000000000000000000000000000000000000000000000000000000000000000000000000000000000000000000000000000000000000000000000000000000000000000000000000000000000000000000000000000000000000000000000000000000000000000000000000000000000000000000000000000000000000000000000000000000000000000000000000000000000000000000000000000000000000000000000000000000000000000000000000000000000000000000000000000000000000000000000000000000000000000000000000000000000000000000000000000000000000000000000000000000000000000000000000000000000000000000000000000000000000000000000000000000000000000000000000000000000000000000000000000
#096320:002c0000
#096382:130000000000000000000000000000000000000000000000000000000000000000000000000000000000000000000000000000000000000000000000000000000000000000000000000000000000000000000000000000000000000000000000000000000000000000000000000000000000000000000000000000000000000000000000000000000000000000000000000000000000000000000000000000000000000000000000000000000000000000000000000000000000000000000000000000000000000000000000000000000000000000000000000000000000000000000000000000000000000000000000000000000000000000000000000000000000000000000000000000000000000000000000000000000000000000000000000000000000000000000000000000000000000000000000000000000000000000000000000000000000000000000000000000000000000000000000000000000000000000000000000000000000000000000000000000000000000000000000000000000000000000000000000000000000000000000000000000000000000000000000000000000000000000000000000000000000000000000000000000000000000000000000000000000000000000000000000000000000000000000023000000000000000000000000000000000000000000000000000000000000000000000000000000000000000000000000000000000000000000000000000000000000000000000000000000000000000000000000000000000000000000000000000000000000000000000000000000000000000000000000000000000000000000000000000000000000000000000000000000000000000000000000000000000000000000000000000000000000000000000000000000000000000000000000000000000000000000000000000000000000000000000000000000000000000000000000000000000000000000000000000000000000000000000000000000000000000000000000000000000000000000000000000000000000000000000000000000000000000000000000000000000000000000000000000000000000000000000000000000000000000000000000000000000000000000000000000000000000000000000000000000000000000000000000000000000000000000000000000000000000000000000000000000000000000000000000000000000000000000000000000000000000000000000000000000000000000000000000000000000000000000000000000000000000000000000000000000000000000000000000000000000000000000000000000000000000000000000000000000000000000000000000000000000000000000000000000000000000000000000000000000000000000000000000000000000000000000000000000000000000000000000000000000000000000000000000000000000000000000000000000000000000000000000000000000000000000000000000000000000000000000000000000000000000000000000000000000000000000000000000000000000000000000000000000000000000000000000000000000000000000000000000000000000000000000000000000000000000000000000000000000000000000000000000000000000000000000000000000000000000000000000000000000000000000000000000000000000000000000000000000000000000000000000000000000000000000000000000000000000000000000000000000000000000000000000000000000000000000000000000000000000000000000000000000000000000000000000000000000000000000000000000000000000000000000000000000000000000000000000000000000000000000000000000000000000000000000000000000000000000000000000000000000000000000000000000000000000000000000000000000000000000000000000000000000000000000000000000000000000000000000000000000000000000000000000000000000000000000000000000000000000000000000000000000000000000000000000000000000000000000000000000000000000000000000000000000000000000000000000000000000000000000000000000000000000000000000000000000000000000000000000000000000000000000000000000000000000000000000000000000000000000000000000000000000000000000000000000000000000000000000000000000000000000000000000000000000000000000000000000000000000000000000000000000000000000000000000000000000000000000000000000000000000000000000000000000000000000000000000000000000000000000000000000000000000000000000000000000000000000000000000000000000000000000000000000000000000000000000000000000000000000000000000000000000000000000000000000000000000000000000000000000000000000000000000000000000000000000000000000000000000000000000000000000000000000000000000000000000000000000000000000000000000000000000000000000000000000000000000000
#096350:000000000000000000000000000000000000000000000000000000000000000000000000000000000000000000000000000000000000000000000000000000000000000000000000000000000000000000000000000000000000000000000000000000000000000000000000000000000000000000000000000000000000000000000000000000000000000000000000000000000000000000000000000000000000000000000000000000000000000000000000000000000000000000000000000000000000000000000000000000000000000000000000000000000000000000000000000000000000000000000000000000000000000000000000000000000000000000000000000000000000000000000000000000000000000000000000000000000000000000000000000000000000000000000000000000000000000000000000000000000000000000000000000000000000000000000000000000000000000000000000000000000000000000000000000000000000000000000000000000000000000000000000000000000000000000000000000000000000000000000000000000000000000000000000000000000000000000000000000000000000000000000000000000000000000000000000000000000000000000000000000000000000000000000000000000000000000000000000000000000000000000000000000000000000000000000000000000000000000000000000000000000000000000000000000000000000000000000000000000000000000000000000000000000000000000000000000000000000000000000000000000000000000000000000000000000000000000000000000000000000000000000000000000000000000000000000000000000000000000000000000000000000000000000000000000000000000000000000000000000000000000000000000000000000000000000000000000000000000000000000000000000000000000000000000000000000000000000000000000000000000000000000000000000000000000000000000000000000000000000000000000000000000000000000000000000000000000000000000000000000000000000000000000000000000000000000000000000000000000000000000000000000000000000000000000000000000000000000000000000000000000000000000000000000000000000000000000000000000000000000000000000000000000000000000000000000000000000000000000000000000000000000000000000000000000000000000000000000000000000000130000000000000000000000000000000000000000000000000000000000000000000000000000000000000000000000000000000000000000000000000000000000000000000000000000000000000000000000000000000000000000000000000000000000000000000000000000000000000000000000000000000000000000000000000000000000000000000000000000000000000000000000000000000000000000000000000000000000000000000000000000000000000000000000000000000000000000000000000000000000000000000000000000000000000000000000000000000000000000000000000000000000000000000000000000000000000000000000000000000000000000000000000000000000000000000000000000000000000000000000000000000000000000000000000000000000000000000000000000000000000000000000000000000000000000000000000000000000000000000000000000000000000000000000000000000000000000000000000000000000000000000000000000000000000000000000000000000000000000000000000000000000000000000000000000000000000000000000000000000000000000000000000000000000000000000000000000000000000000000023000000000000000000000000000000000000000000000000000000000000000000000000000000000000000000000000000000000000000000000000000000000000000000000000000000000000000000000000000000000000000000000000000000000000000000000000000000000000000000000000000000000000000000000000000000000000000000000000000000000000000000000000000000000000000000000000000000000000000000000000000000000000000000000000000000000000000000000000000000000000000000000000000000000000000000000000000000000000000000000000000000000000000000000000000000000000000000000000000000000000000000000000000000000000000000000000000000000000000000000000000000000000000000000000000000000000000000000000000000000000000000000000000000000000000000000000000000000000000000000000000000000000000000000000000000000000000000000000000000000000000000000000000000000000000000000000000000000000000000000000000000000000000000000000000000000000000000000000000000000000000000000000000000000000000000000000000000000000000000000000
#096382:000000000000000000000000000000000000000000000000000000000000000000000000000000000000000000000000000000000000000000000000000000000000000000000000000000000000000000000000000000000000000000000000000000000000000000000000000000000000000000000000000000000000000000000000000000000000000000000000000000000000000000000000000000000000000000000000000000000000000000000000000000000000000000000000000000000000000000000000000000000000000000000000000000000000000000000000000000000000000000000000000000000000000000000000000000000000000000000000000000000000000000000000000000000000000000000000000000000000000000000000000000000000000000000000000000000000000000000000000000000000000000000000000000000000000000000000000000000000000000000000000000000000000000000000000000000000000000000000000000000000000000000000000000000000000000000000000000000000000000000000000000000000000000000000000000000000000000000000000000000000000000000000000000000000000000000000000000000000000000000000000000000000000000000000000000000000000000000000000000000000000000000000000000000000000000000000000000000000000000000000000000000000000000000000000000000000000000000000000000000000000000000000000000000000000000000000000000000000000000000000000000000000000000000000000000000000000000000000000000000000000000000000000000000000000000000000000000000000000000000000000000000000000000000000000000000000000000000000000000000000000000000000000000000000000000000000000000000000000000000000000000000000000000000000000000000000000000000000000000000000000000000000000000000000000000000000000000000000000000000000000000000000000000000000000000000000000000000000000000000000000000000000000000000000000000000000000000000000000000000000000000000000000000000000000000000000000000000000000000000000000000000000000000000000000000000000000000000000000000000000000000000000000000000000000000000000000000000000000000000000000000000000000000000000000000000000000000000000000000000000130000000000000000000000000000000000000000000000000000000000000000000000000000000000000000000000000000000000000000000000000000000000000000000000000000000000000000000000000000000000000000000000000000000000000000000000000000000000000000000000000000000000000000000000000000000000000000000000000000000000000000000000000000000000000000000000000000000000000000000000000000000000000000000000000000000000000000000000000000000000000000000000000000000000000000000000000000000000000000000000000000000000000000000000000000000000000000000000000000000000000000000000000000000000000000000000000000000000000000000000000000000000000000000000000000000000000000000000000000000000000000000000000000000000000000000000000000000000000000000000000000000000000000000000000000000000000000000000000000000000000000000000000000000000000000000000000000000000000000000000000000000000000000000000000000000000000000000000000000000000000000000000000000000000000000000000000000000000000000000053000000000000000000000000000000000000000000000000000000000000000000000000000000000000000000000000000000000000000000000000000000000000000000000000000000000000000000000000000000000000000000000000000000000000000000000000000000000000000000000000000000000000000000000000000000000000000000000000000000000000000000000000000000000000000000000000000000000000000000000000000000000000000000000000000000000000000000000000000000000000000000000000000000000000000000000000000000000000000000000000000000000000000000000000000000000000000000000000000000000000000000000000000000000000000000000000000000000000000000000000000000000000000000000000000000000000000000000000000000000000000000000000000000000000000000000000000000000000000000000000000000000000000000000000000000000000000000000000000000000000000000000000000000000000000000000000000000000000000000000000000000000000000000000000000000000000000000000000000000000000000000000000000000000000000000000000000000000000000000000000
#096322:0000002c
#029980:00120022
#0299c0:0052
#030960:00120022
#030920:0052
#0339a0:14
#033960:00240000000000000000000000000000
#033920:00140000
#033960:00000000002400000000000000000000
#0339a0:0014
#033960:00000000000000000024000000000000
#033920:00000014
#033960:00000000000000000000000000240000
#035920:14
#035960:00240000000000000000000000000000
#0359a0:00140000
#035960:00000000002400000000000000000000
#035920:0014
#035960:00000000000000000024000000000000
#0359a0:00000014
#035960:00000000000000000000000000240000
#075990:12
#076950:52
#077990:52
#077980:00520000
#077970:0052
#077960:00000052
#078950:22
#099940:0012
#0999a0:0000000000000022
