This file was generated by Ched 2.7.0.0.
#TITLE ""
#ARTIST ""
#DESIGNER ""
#DIFFICULTY 0
#PLAYLEVEL
#SONGID ""
#WAVE ""
#WAVEOFFSET 0
#JACKET ""
#REQUEST "ticks_per_beat 480"
#00002: 4
#BPM01: 198
#00008: 01
#TIL00: ""
#VOLUME: ""
#HISPEED 00
#MEASUREHS 00
#00119:14
#00313:14
#0051a:14
#00614:14
#00718:14
#00812:14
#0091a:14
#01014:14
#01118:14
#01212:14
#01514:14
#01618:14
#01918:14
#02014:14
#0291a:14
#03014:14
#0311a:14
#03214:14
#03318:14
#03412:14
#03518:14
#03612:14
#03918:0016
#03912:26
#03910:41
#04012:1616
#04118:16
#04112:0016
#04218:1616
#04512:16
#04518:0016
#04612:16
#04618:0016
#04718:0016
#04712:26
#04812:1616
#04918:16
#04912:0016
#05018:1616
#05312:16
#05318:0016
#05518:2616
#05510:41
#05618:1616
#05712:2616
#05812:1616
#06118:16
#06112:0016
#06312:2616
#06412:1616
#06518:2616
#06618:1616
#06912:16
#06918:0016
#0711a:14
#0711f:11
#07214:14
#07318:14
#07412:14
#08312:0016
#08318:26
#0831f:21
#08418:1616
#08410:41
#08512:16
#08518:0016
#08612:1616
#08918:16
#08912:0016
#09112:2616
#09212:1616
#09318:2616
#09418:1616
#09712:16
#09718:0016
#09918:16
#09912:0016
#09018:26
#10018:26
#01310:41
#02510:41
#06710:41
#0133a0:14
#0143a0:24
#017320:14
#018320:24
#0213a0:14
#022380:34
#0233a0:34
#024380:24
#025320:14
#026340:34
#027320:34
#028340:24
#037390:14
#038390:24
#043320:1626
#044380:1626
#051320:1626
#052380:16362600
#054320:1626
#059380:1626
#060320:1626
#062380:1626
#067320:1626
#068380:1626
#070320:1626
#0753a0:14
#0763a0:24
#077340:14
#078340:24
#079380:14
#080380:24
#081320:14
#082320:24
#087380:1626
#088320:16362600
#090380:1626
#095320:1626
#096380:1626
#098320:1626
#100380:16363626
