This file was generated by Ched 2.7.0.0.
#TITLE ""
#ARTIST ""
#DESIGNER ""
#DIFFICULTY 0
#PLAYLEVEL
#SONGID ""
#WAVE ""
#WAVEOFFSET 0
#JACKET ""
#REQUEST "ticks_per_beat 480"
#00002: 4
#BPM01: 198
#00008: 01
#TIL00: ""
#VOLUME: ""
#HISPEED 00
#MEASUREHS 00
#0011b:2300000013000023
#00112:1300000023000013
#0021b:0000001300130000
#00215:0000130000000013
#00218:0023000000001300
#00212:0000002300000000
#00312:1313000000000013
#00318:0000232300000000
#00315:0000000023230000
#0031b:0000000000002323
#00415:0013001300000000
#00418:00131300
#00412:00000023
#0041b:00000023
#00515:00130013
#0051b:1313
#0051a:005300000000005300000000
#00519:005300005300
#00518:00530053
#00514:000053000053
#00513:000000000053000000000053
#00512:0053
#00716:0014001400140014
#00715:53
#00915:00130013
#00918:1313
#00919:005300000000005300000000
#0091a:005300005300
#0091b:00530053
#00914:000053000053
#00913:000000000053000000000053
#00912:0053
#01112:0014000000140000
#0111a:0000001400000014
#01115:53
#0131b:1300001300000013
#01318:0013000000130000
#01312:0013000000130000
#01315:0000001300000000
#01310:41
#01418:1300000000001313
#01415:00001300000000000000000000130013
#0141b:0000001300000000
#01412:0000001300130000
#01517:0000132300000000
#0151b:2300000000130000
#01518:00000013
#01515:0000000000000013
#01512:0000131300000000
#01612:1313
#0161b:00130000
#01615:0000000000001313
#01618:00000000000000000000000000130013
#01617:2323
#01616:00230000
#0201b:13001313
#02015:00000000000000000000000000130000
#02012:00000000130000000000000000000013
#02018:0000000000000013
#02016:2323
#02017:00230000
#01218:0000000000001313
#01215:00000000000000000000000000130013
#01216:001400001400000000000000
#01212:241400240000
#0121a:000000240014000000000000
#02415:00000000000000001300130000130000
#02412:13001300000000000000000000000013
#02418:0000131300000013
#0241b:13000013
#02515:0000130000130013
#02512:00001313
#02518:0013001300001300
#0251b:23131300
#02510:41
#02612:13000013
#02615:0000131300000013
#02618:00000000000000001300130000130000
#0261b:13001300000000000000000000000013
#02715:00130013
#02712:2300000013000013
#02718:0013000000130000
#0271b:0000001300000013
#02812:000000130000000000000000140000001400000000000000
#02816:000000130000001400001400
#0281a:000000000000000000140014
#02817:0013000000000000
#0281b:00130000
#02912:12
#02916:0000000000120000
#0291a:0000001200000000
#02918:00121212
#0321b:0000000000130000
#03218:0012000000001300
#03215:0000000000000013
#0321a:0000001200000000
#03212:0012000000000000
#03214:0000001200000000
#03418:0000000000000013
#03412:23000023
#03414:00230000
#03416:0023
#0341b:23232323
#03515:0000001300000013
#03518:0000000000130000
#03512:23232323
#0351b:23232323
#04117:1300000000000013
#04119:00130000
#0411b:0013
#04112:1300000000000013
#04114:00130000
#04116:0013
#04217:13
#0421b:00131300
#04218:0000001300001313
#04215:00000000000000001300000000130013
#04212:13
#04318:13
#04312:0000001313001300
#0431b:00000013
#04518:00130023
#04515:0000002300130013
#0451b:2300002300000000
#04512:23000023
#05015:00000000000013000000000000130013
#05012:0013
#05018:00000000000000130000000013001300
#0501b:13
#0511a:1414
#05116:00140014
#05112:00130013
#05418:0000000000001313
#05415:00000000000000000000000000130013
#0541a:2424242424000000
#05412:2424242424000000
#0551b:2313000013130000
#05515:0000131300001313
#05510:41
#0561a:1400001400000000
#05616:0014000000000000
#05612:0000001400130000
#05615:00000013
#05618:0000000000000013
#0571b:2313000000000000
#05715:0000131300000000
#05718:0000000013130000
#05712:0000000000001313
#05812:0014001400000000
#0581a:0000001400000000
#05818:0000000000001313
#05815:00000000000000000000000000130013
#05816:24
#0591b:13
#05912:0000131300000000
#05915:0000000000131300
#05918:00000000000000000000001300001300
#05917:0000001300000000
#0601b:1300001300130000
#06015:0013000000000013
#06018:00130013
#06012:13
#06112:1313001300000000
#06115:0000000013001313
#06118:00000000000000000000130000130013
#0611b:1313001300000000
#0621a:0000002400001400
#06212:2424
#06216:00000024000000000000000000000000
#06712:1300000000001313
#06716:0013
#06714:00130000
#0671a:00240024
#06710:41
#06816:0013000000000013
#06812:0000001300130000
#06814:00130013
#0681a:00240024
#0691b:1300000013131300
#06912:1300130000000023
#06916:0000000013131300
#06919:0013000000000000
#06917:0000130000000023
#0701b:0023000000001300
#07012:00002313
#07018:00230000
#07015:0000002300000000
#07112:00130000
#0711b:13000053
#07118:00531300
#07115:00005313
#0711f:11
#0711a:005300000000000053000000
#07119:000053000000005300000000
#07113:000000005300000000000053
#07114:000000000053000000005300
#07315:0013000000000000
#0731b:0000001300000000
#07312:5300000000130000
#07318:0000000000000013
#07512:14141414
#07518:00120000
#0751a:0012
#0751c:00000012
#07918:0000001313000000
#0791a:24000014
#07912:13000014
#08112:13
#08118:00131313
#08115:0000001300130013
#0811b:23
#0911b:2313000013130000
#09117:00130013
#0921b:2313000000000000
#09217:0000001300000000
#09212:0000001300130000
#09215:00000013
#09218:0000000000000013
#09216:0013000000000000
#0941b:0013000000000000
#09412:0000001300000000
#09416:2313000000000000
#09417:0000001300000000
#09418:0000000000001313
#09415:00000000000000000000000000130013
#09918:1313000000000023
#09915:0000130013131300
#0991b:00130000
#09912:0000000000000023
#00618:1313
#00612:53130013
#00619:005300000000005300000000
#0061a:005300005300
#0061b:00530053
#00613:000053000053
#00614:000000000053000000000053
#00615:0053
#00815:00130000
#0081b:13
#00814:000000005300000000240000
#00818:0000530000240000
#0081a:005300000000000000000000
#00819:005300000000
#00813:000000000053000000000000
#00812:0053
#0101b:1313
#01012:53130013
#0101a:005300000000005300000000
#01019:005300005300
#01018:00530053
#01013:000053000053
#01014:000000000053000000000053
#01015:0053
#01712:1300001300000000
#01715:0013000000130013
#0171b:0013000000130000
#01718:0000001300001300
#01812:1300001300000000
#01815:0013000000001313
#0181b:0000001300130000
#01818:00000000130000000000000000130013
#01916:0000132300000000
#01912:2300000000130000
#01915:00000013
#01918:0000000000000013
#0191b:0000131300000000
#02118:0013001300001300
#02115:0000130000130013
#0211b:2313
#02112:0013
#02212:1300000000001313
#0221b:1313000000000000
#02215:0000131300000000
#02218:0000000013130000
#02312:1313
#02315:0013001300001300
#02318:0000130000130013
#0231b:2313
#0301a:12
#03014:1200001200000000
#03018:0000000000120000
#03016:00121212
#03114:1200000000000012
#0311a:1200001200000012
#03116:0000000000120000
#03118:00121212
#03718:26131326
#03715:0013000000130013
#03712:0000002600000000
#04415:13
#0441b:0000001313001300
#04412:00000013
#04418:13
#04717:2300000000000013
#04712:2300000000000013
#04714:00230000
#04716:0023
#04719:00230000
#0471b:0023
#0481b:1313
#04818:00130000
#04815:0000001300000000
#04812:00001313
#04816:13
#05317:0000001300000013
#05316:0000130000130000
#0531b:0000130000130000
#05312:2300001300000013
#04912:00000013000013000000000000000000
#0491b:00000000000000000000001300001300
#05215:0000000000001313
#05218:00000000000000000000000000130013
#05216:23
#05214:00230000
#05212:0023
#0521b:23
#05219:00230000
#05217:0023
#06312:2313000013130000
#06318:0000131300001313
#06412:1400001400000000
#06416:0014000000000000
#0641b:0000000000130000
#06418:00000013
#06415:0000000000000013
#0641a:0000001400000000
#06512:2313000000000000
#06518:0000131300000000
#06515:0000000013130000
#0651b:0000000000001313
#0661a:0014001400000000
#06612:0000001400000000
#06615:0000000000001313
#06618:00000000000000000000000000130013
#06616:24
#07212:53130000
#0721b:13000053
#07218:00531300
#07215:00005313
#0721a:005300000000000053000000
#07219:000053000000005300000000
#07213:000000005300000000000053
#07214:000000000053000000005300
#07416:000012000000000000001200000000000000120000120000
#07418:000000000000000012000000000000001200000000000000000000000000000000000000000000120000000000120000
#0741a:2222
#07414:00220000
#07612:14141414
#0761c:12
#0761a:00120000
#07618:00001212
#0771a:14141414
#07716:12120000
#07714:0012
#07712:00000012
#0781a:14141414
#07812:12
#07814:00120000
#07816:00001212
#08015:0000001313000000
#08012:23000014
#0801b:13
#0801a:00000014
#08316:2300000000000013
#0831b:2300000000000013
#08319:00230000
#08317:0023
#08314:00230000
#08312:0023
#0831f:21
#08412:1313
#08415:00130000
#08418:0000001300000000
#0841b:0000000013131300
#08417:13
#08410:41
#0851b:00000013000013000000000000000000
#08512:00000000000000000000001300001300
#08612:13
#08618:00000000000013000000000000130013
#0861b:0013
#08615:00000000000000130000000013001300
#08712:1414
#08716:00140014
#0871b:00130013
#08916:0000001300000013
#08917:0000130000130000
#08912:0000130000130000
#0891b:2300001300000013
#08818:0000240000001313
#08815:00000000000000000000000000130013
#08816:2424
#0881a:0024
#08812:24
#08814:00240000
#09012:00000013000000000000000013000000
#09017:00000013000000000000000013000000
#0901b:0023
#09016:0023
#09316:2313000013130000
#09312:00130013
#0971b:1300130000000023
#09717:0000000013131300
#09714:0013000000000000
#09716:0000130000000023
#09712:1300000013131300
#09812:0023000000001300
#0981b:00002313
#09815:00230000
#09818:0000002300000000
#0951b:1300000000001313
#09517:0013
#09519:00130000
#09512:00240024
#09617:0013000000000013
#0961b:0000001300130000
#09619:00130013
#09612:00240024
#03812:23000013
#03817:00000013
#03818:00230000
#03815:0000002300000000
#0381b:23
#03312:23232323
#0331b:23000023
#03319:00230000
#03317:0023
#03612:23002300230023000000002300000023
#03615:00000000000000000023000000230000
#0361b:2323232300230023
#03618:00002323
#0391b:23
#03919:00230000
#03917:0023
#03918:0000000000000023
#03916:23
#03914:00230000
#03912:0023
#03910:41
#04015:2323
#0401b:00230023
#04018:0000002300000000
#04012:00000023
#04618:2323230000002300
#04612:2323230000002300
#04615:0000000023230000
#0461b:0000000023230000
#0821a:242424240000
#08212:242424240000
#1001b:0023000023002300
#10018:00230000
#10015:0000002300000000
#10012:00002323
#00854:00000014
#00858:0000000000140000
#0435b:00000013
#04358:53
#04352:00000013
#05256:13
#05254:00130000
#05252:0013
#0525b:13
#05259:00130000
#05257:0013
#0705b:00000013
#07052:00000013
#0795a:00000014
#07952:53000014
#0025b:0000001300000000
#00252:0000001300000000
#01252:0014
#01552:0000001300000000
#01557:0000001300000000
#01652:1313
#0165b:00130000
#0205b:1313
#02052:00130000
#0195b:0000001300000000
#01956:0000001300000000
#02752:0000000000000013
#0275b:0000000000000013
#03758:16000016
#03752:0000001600000000
#03957:0013
#03952:0013
#04055:53
#0405b:00000013
#04052:00000013
#0415b:0013
#04156:0013
#04455:63
#04452:00000013
#0445b:00000013
#04658:00130013
#04652:00130013
#04756:0013
#0475b:0013
#0485b:0053
#04852:00000053
#0505b:13
#05056:13
#05052:0013
#05152:00130013
#05156:00140014
#05452:0014
#0545a:0014
#05656:0014000000000000
#05852:0014000000000000
#0595b:53
#0605b:0000001300000000
#06252:0034
#0625a:00000044
#06456:0014000000000000
#0665a:0014004400000000
#06652:0000003400000000
#06957:0000000000000013
#06952:0000000000000013
#08052:00000014
#0805b:63
#0805a:00000014
#0825a:0014
#08252:0014
#08452:0063
#0845b:00000063
#08652:13
#08657:13
#0865b:0013
#08357:0013
#08352:0013
#08756:00140014
#0875b:00130013
#08856:1414
#08858:00140000
#0885a:0014
#08852:14
#08854:00140000
#0895b:0000000000000053
#08956:0000000000000053
#09057:00000023000000000000000000000000
#09052:00000023000000000000000053000000
#09056:0043
#0905b:0043
#09252:0000001300000000
#09257:0000001300000000
#09452:0000001300000000
#09457:0000001300000000
#0975b:0000000000000013
#09756:0000000000000013
#09852:00000013
#0985b:00000013
#1005b:00004343
#10052:00003333
#0675a:00140014
#0685a:00140014
#09652:00140014
#09552:00140014
#00452:00000013
#0045b:00000013
#03855:0000001300000000
#09958:0000000000000013
#0073b0:1323000000000000
#007320:0000132300000000
#0073b0:0000000013230000
#007320:0000000000001323
#011380:1323000000000000
#011350:0000132300000000
#011380:0000000013230000
#011350:0000000000001323
#040350:13
#040320:00230000
#043380:13
#0433b0:0000003323000000
#044350:13
#044320:0000003323000000
#0483b0:0013
#048370:00000023
#048321:00000013
#049361:23
#0493b0:13
#049370:00000033000033002300000000000000
#049321:0013
#049361:00000000000000000000003300003300
#050361:23
#0593b1:13
#059371:00230000
#0733b1:13
#073381:0023000000000000
#073351:00130000
#073321:0000002300000000
#073381:0013
#0733b1:0000000000230000
#073321:00000013
#073351:0000000000000023
#079321:13
#079351:0000003323000000
#0803b1:13
#080381:0000003323000000
#084321:0013
#084361:00000023
#0843b0:00000013
#085370:23
#085321:13
#085361:00000033000033002300000000000000
#0853b0:0013
#085370:00000000000000000000003300003300
#086370:23
#0893b0:0000000000000013
#090370:00000053000000000000000000000000
#0903b0:0023
#089361:0000000000000013
#090321:00000053000000000000000000000000
#090361:0023
#090321:00000013
#091361:3333000033330000
#091321:0000333300003333
#092361:23
#0933b1:1333000033330000
#093371:0000333300003333
#0943b1:23
#0059b0:13
#005980:00230000
#005951:00130000
#005921:0023
#0059b0:0013
#005980:00000023
#005951:00000013
#006921:23
#006980:13
#0069b0:00230000
#006921:00130000
#006951:0023
#006980:0013
#0069b0:00000023
#006921:00000013
#007951:23
#0089b1:13
#008981:00230000
#008950:00130000
#008920:0023
#009980:13
#0099b0:00230000
#009951:00130000
#009921:0023
#009980:0013
#0099b0:00000023
#009951:00000013
#010921:23
#0109b0:13
#010980:00230000
#010921:00130000
#010951:0023
#0109b0:0013
#010980:00000023
#010921:00000013
#011951:23
#0719b1:13
#071981:00230000
#071920:00130000
#071950:0023
#071981:0013
#0719b1:00000023
#071950:00000013
#072920:23
#0729b1:13
#072981:00230000
#072920:00130000
#072950:0023
#072981:0013
#0729b1:00000023
#072950:00000013
#073920:23
