This file was generated by Ched 2.7.0.0.
#TITLE ""
#ARTIST ""
#DESIGNER ""
#DIFFICULTY 0
#PLAYLEVEL
#SONGID ""
#WAVE ""
#WAVEOFFSET 0
#JACKET ""
#REQUEST "ticks_per_beat 480"
#00002: 4
#BPM01: 198
#00008: 01
#TIL00: ""
#VOLUME: ""
#HISPEED 00
#MEASUREHS 00
#00414:0014001400000000
#00418:00141400
#00412:00000026
#00716:0014001400001400
#0071a:0000000000140014
#00712:00141400
#01315:1300000000130000
#01318:0013001300000000
#0131b:0000000000130000
#01312:0000001300000013
#01310:41
#01418:1300000000000013
#01415:0013000000001300
#0141b:0000000000130000
#01518:0000130000000013
#0151b:0000000000130000
#01515:0000002300001300
#01512:23
#01612:1414
#0161a:00140000
#01618:0000000000000013
#02615:0000131300000000
#02612:13
#0261b:0000131300000000
#02618:0000000000140000
#02614:0000000000000014
#02712:0000130000000013
#02715:0013
#02718:0013000000130000
#0271b:0000001300000000
#02818:0013000000000000
#02815:00130000
#02812:0013
#0281b:0013
#0321b:0000000000130000
#03218:00120013
#03215:0000000000000013
#0321a:12
#03216:0012000000000000
#03214:0000001200000000
#0411b:13
#04115:00130000
#04118:0013
#04112:0000000000000013
#0421b:00130000
#04218:1313
#04215:0013000000000000
#04212:0000001300000000
#04518:0000130000130013
#04512:23
#04515:0000002300002300
#0511a:1414
#05112:00140014
#0551b:23131313
#05515:0013001300130013
#05510:41
#05615:0013000000130013
#0561b:2300001300000000
#05618:00000013
#05612:0000001300000000
#05712:0013001300130013
#05718:23131313
#05812:0013001300000000
#0581b:0000001300000000
#05818:23
#05915:13000013
#0591b:1300000000130000
#05918:0000000000000013
#06018:0013000000000013
#06015:00130013
#0601b:0000001300000000
#06012:1300000000130000
#06112:0000001300000000
#06118:0013
#06115:0000000000130013
#0611b:1313000000001300
#0671b:13
#06715:0000000013000013
#06712:13
#06718:00230023
#06710:41
#06818:0013000000002300
#0681b:0000001300000000
#06812:0000230000130000
#06815:0000000000000013
#0691b:13
#06918:0013000000001300
#06915:0000130000130000
#06912:0000000013000026
#07018:0000002300001600
#0701b:0023000000000000
#07015:00230000
#07012:0023
#07315:0013000000001300
#0731b:0000001300000013
#07318:0000130000130000
#07312:0013
#07512:13
#07513:00130013
#07514:0013
#07918:2400001414001400
#07912:00000014
#08112:13
#08118:00131313
#08115:0000001300130013
#0811b:23
#09918:1300000000130000
#09915:0013000013000000
#09912:00000013
#0991b:0000130000000023
#00214:00140000
#00215:0000000000130013
#00218:0024000000001300
#0021a:0000002400000000
#01715:13000013
#01712:0000001300000000
#01718:0000001300000013
#0171b:0013000000130000
#01812:1300000000130000
#01818:0013000000001300
#0181b:0000001300000000
#01815:0000130000000013
#02115:0000130000000013
#02118:0000001300001300
#02112:2300000000130000
#0211b:13
#0221b:1313000000000000
#02215:0000131300000000
#02218:0000000000130013
#02212:00000013
#02315:2313000000001300
#02318:0000131300130000
#02312:0013
#0231b:0000000000000013
#02412:13000013
#02415:0013000000000000
#02418:00130013
#0241b:0000001300000000
#02518:0000130000130013
#02515:0000001300000000
#02512:00000013
#02510:41
#0291a:0000001200000000
#02916:0012
#02914:12
#02918:0000000000000012
#03014:1200000000120000
#03018:0000001200001200
#03016:0000120000000012
#0301a:0012000000000000
#04312:1400001414001400
#04815:1300001300000000
#0481b:00130000
#04818:0013
#04718:0000230000000013
#04712:23
#04715:0023
#05318:0000130000130000
#05315:0000001300000013
#05312:23
#0531b:23
#03116:0012
#03118:00120000
#03114:00000012
#0311a:12
#00118:24000014
#00116:00140000
#00114:0000000024000024
#0031a:14240000
#00314:0014000000000000
#00318:0000000000140014
#00312:00002424
#0051b:1313
#00518:00130013
#00612:1313
#00615:00130013
#00812:143434003434000000000000
#00816:00140000
#0081a:00000014
#01116:0014001400001400
#01112:0000000000140014
#0111a:00141400
#00912:1313
#00915:00130013
#0101b:1313
#01018:00130013
#01216:00140000
#0121a:243434003434000000000000
#01915:0000130000000013
#01912:0000000000130000
#01918:0000002300001300
#0191b:23
#0201a:1414
#02012:00140000
#0441a:1400001414001400
#05012:14
#06418:0013000000130013
#06412:2300001300000000
#06415:00000013
#0641b:0000001300000000
#0651b:0013001300130013
#06515:23131313
#0661b:0013000000000000
#06612:0000001400000000
#0661a:0000001400000000
#06615:23
#06318:0013001300130013
#06312:23131313
#07115:1313
#07112:00130013
#0711f:11
#07218:1313
#0721b:00130013
#0761a:00130000
#07619:0013
#07618:00000013
#07714:00130013
#07712:0013
#07819:00130013
#0781b:0013
#08014:2400001414001400
#0801a:00000014
#08712:1414
#0871a:00140014
#08418:1300001300000000
#08412:00130013
#08415:0013
#0841b:0000000000130000
#08410:41
#08315:0000230000000013
#0831b:23
#08318:0023
#08312:23
#0831f:21
#0861a:14
#08915:0000130000130000
#08918:0000001300000013
#0891b:23
#08912:23
#09112:23131313
#09118:0013001300130013
#09218:0013000000130013
#09212:2300001300000000
#09215:00000013
#0921b:0000001300000000
#0931b:0013001300130013
#09315:23131313
#0941b:0013001300000000
#09412:0000001300000000
#09415:23
#09512:13
#09518:0000000013000013
#0951b:13
#09515:00230023
#09615:0013000000002300
#09612:0000001300000000
#0961b:0000230000130000
#09618:0000000000000013
#09712:13
#09715:0013000000001300
#09718:0000130000130026
#0971b:0013
#09812:0023000000001600
#09818:00230000
#09815:0000002300000000
#0981b:0023
#03814:00000014000000000000000000000000
#03818:00000014000000000000000000000000
#03812:24
#0381a:24
#05418:00000013
#05412:00002313
#09015:00000013
#0901b:00002313
#03312:23
#03315:00230000
#03318:0023
#0331b:00000023
#03412:23000023
#0341b:23
#03418:00230000
#03415:0023
#03512:23232323
#0351b:23232323
#03618:23000000230000002333333333333333
#03615:0023002300000000
#03918:0000230000000023
#03912:23
#03915:0023
#03910:41
#0401b:00230000
#04015:2300002300000000
#04018:0023
#04012:00000023
#0521b:2323
#05218:00230000
#05215:2323
#05212:00230000
#0821a:24
#08216:003434000000
#10015:0023002300000000
#10018:00232600
#10012:00000026
#04612:23230000
#04618:0023000000000000
#0461b:00002323
#04615:0000000000230000
#0621a:24
#06216:00000034000000000000000000000000
#03712:0000002600000000
#03718:00000026
#07414:22
#08812:2323
#08815:00230000
#08818:2323
#0881b:00230000
#0525b:1313
#05258:00130000
#05255:1313
#05252:00130000
#07058:00000016
#07958:00000014
#07952:00000014
#01652:1414
#0165a:00140000
#02752:0000000000000013
#03955:0013
#04052:00000013
#04158:0013
#04352:00000014
#04652:00130000
#0465b:00000013
#04858:0053
#05152:00140014
#05955:53
#0595b:53
#0605b:0000001300000000
#06952:0000000000000016
#10058:0046
#10052:00000036
#0055b:5353
#00558:00530053
#00652:6363
#00655:00630063
#00856:00540000
#00852:54
#00952:6363
#00955:00630063
#0105b:5353
#01058:00530053
#01256:00640000
#0125a:5414
#01455:0053000000000000
#0205a:1414
#02052:00140000
#02255:0000005300000000
#02458:00000053
#02452:00000053
#03758:16000016
#03752:0000001600000000
#04258:0053
#0445a:00000014
#04755:0013
#05052:64
#05056:0014
#05355:0000000000000053
#06256:0014
#0625a:54
#06652:0000001400000000
#0665a:0000001400000000
#07155:5353
#07152:00530053
#07258:6363
#0725b:00630063
#08054:00000014
#0805a:00000014
#0825a:54
#08256:0014
#0875a:00140014
#08852:1313
#08855:00130000
#08858:1313
#0885b:00130000
#08358:0013
#0865a:54
#08656:0014
#08958:0000000000000063
#09758:0000000000000016
#09852:00000016
#02658:0000000000140000
#02654:0000000000000014
#00452:00000016
#01555:0000001300000000
#01958:0000001300000000
#03852:5400003400000000
#03854:00000024000000000000000000000000
#03858:00000024000000000000000000000000
#0385a:6400004400000000
#0025a:0000001400000000
#05452:0013
#0905b:0013
#0995b:0000000000000013
#0053b0:1333
#005380:00330033
#0063b0:23
#006321:1333
#006351:00330033
#007321:23
#008321:143434003434240000000000
#008361:00340000
#009321:1333
#009351:00330033
#010321:23
#0103b0:1333
#010380:00330033
#0113b0:23
#0123a0:143434003434240000000000
#012360:00340000
#014350:0013000000000000
#014320:0000002300000000
#022350:0000001300000000
#022320:0000000000230000
#024320:00000013
#025350:23
#024381:00000013
#0253b1:23
#036381:00000000000000001333333333333333
#037381:26
#038321:1400002400000000
#038341:00000054000000000000000000000000
#0383a0:1400002400000000
#038380:00000054000000000000000000000000
#042380:0013
#0423b0:00000023
#048380:0013
#0483b0:00000023
#049320:14
#049340:00000034000034002400000000000000
#049381:0014
#0493a1:00000000000000000000003400003400
#0503a1:24
#050320:14
#050360:00000000000034342400000000000000
#053350:0000000000000013
#054320:0023
#059350:13
#059320:0000332300000000
#0593b1:13
#059381:0000332300000000
#0623a1:14
#062361:00000034000034002400000000000000
#071351:1333
#071321:00330033
#072351:23
#072380:1333
#0723b0:00330033
#073380:23
#074340:1222
#074350:003200000032000000000000
#074360:003232000000
#074370:00320000
#0753b0:13333333
#0763b0:23
#076321:13333333
#077321:23
#077380:13333333
#078380:23
#078351:13333333
#079351:23
#0823a1:14
#082361:003434240000
#0853a1:14
#085381:00000034000034002400000000000000
#085340:0014
#085320:00000000000000000000003400003400
#086320:24
#0863a1:14
#086361:00000000000034342400000000000000
#089381:0000000000000013
#0903b1:0023
