This file was generated by Ched 2.7.0.0.
#TITLE ""
#ARTIST ""
#DESIGNER ""
#DIFFICULTY 0
#PLAYLEVEL
#SONGID ""
#WAVE ""
#WAVEOFFSET 0
#JACKET ""
#REQUEST "ticks_per_beat 480"
#00002: 4
#BPM01: 198
#00008: 01
#TIL00: ""
#VOLUME: ""
#HISPEED 00
#MEASUREHS 00
#00119:14
#00318:1414
#00314:00140014
#00512:14
#00518:0014
#00612:14
#00618:0014
#00714:14
#0071a:0014
#00814:14
#0081a:0014
#00912:14
#00918:0014
#01012:14
#01018:0014
#01114:14
#0111a:0014
#01214:14
#0121a:0014
#01312:1414
#01318:00140014
#01310:41
#01412:14
#01714:1414
#01718:00140014
#01814:14
#02112:1414
#02118:00140000
#0221a:1414
#02214:00140000
#02312:1414
#02318:00140000
#0241a:1414
#02414:00140000
#02514:1414
#02518:00140000
#02510:41
#0261a:1414
#02612:00140000
#02714:1414
#02718:00140014
#02812:1414
#0281a:00140000
#0291a:14
#03018:14
#0311a:14
#03218:14
#03314:0014
#03418:14
#03412:0014
#0351a:14
#03514:00140000
#03518:0014
#03512:00000014
#0361a:14
#03913:00140000
#03914:0014
#03912:24
#03910:41
#0401a:1414
#04014:00140014
#0411a:14
#04119:00140000
#04118:0014
#04212:1414
#04218:00140014
#04312:14
#04314:0000003400000000
#04418:14
#0441a:0000003400000000
#04512:14
#04518:00140000
#04514:0014
#0451a:00000014
#04613:1454540000000000
#04619:0000000014545400
#04713:00140000
#04714:0014
#04712:24
#0481a:1414
#04814:00140014
#0491a:14000034000034000000003400003400
#04917:0014
#0501a:14000000000034340000000000000000
#05112:14
#05118:0014
#05312:14
#05318:00140000
#05314:0014
#0531a:00000014
#05414:14
#0551a:1414
#05514:00140014
#05510:41
#0561a:14
#05618:00340000
#05714:1414
#0571a:00140014
#05814:14
#05812:00340000
#06118:1414
#06114:00140014
#06312:1414
#06318:00140014
#06412:14
#06414:00340000
#06518:1414
#06512:00140014
#06618:14
#0661a:00340000
#06914:1414
#06918:00140014
#0711a:14
#07114:0014
#0711f:11
#0721a:14
#07214:0014
#07318:14
#07312:0014
#07418:1414
#07414:00140000
#07512:1434
#07614:14
#07612:0034
#07712:1434
#07814:14
#07812:0034
#07918:0014
#08014:14
#0801a:0014
#08114:1414
#08118:00140014
#08319:00140000
#08318:0014
#0831a:24
#0831f:21
#08412:1414
#08418:00140014
#08410:41
#08512:14000034000034000000003400003400
#08515:0014
#08612:14000000000034340000000000000000
#0871a:14
#08714:0014
#0891a:14
#08914:00140000
#08918:0014
#08912:00000014
#09018:14
#09112:1414
#09118:00140014
#09212:14
#09214:00340000
#09318:1414
#09312:00140014
#09418:14
#0941a:00340000
#09714:1414
#09718:00140014
#09918:1414
#09914:00140014
#00419:2424
#00413:00240000
#05212:24
#05216:00240000
#0521a:0024
#07013:2424
#07019:00240000
#0881a:24
#08816:00240000
#08812:0024
#09813:2424
#09819:00240000
#10019:2424
#10013:00240000
#0621a:003434000000
#08212:003434000000
#06710:41
#00459:0014
#0125a:0014
#01452:54
#01454:0000001400000000
#01854:54
#01852:0000001400000000
#02852:0014
#0295a:54
#03058:54
#0315a:54
#03258:54
#0365a:54
#04352:54
#04354:00000014
#04458:54
#0445a:00000014
#0495a:54
#04957:0024
#0505a:54
#05057:0014
#05454:54
#0565a:54
#05854:64
#06257:0014
#06452:64
#06658:54
#07053:0014
#07552:64
#07654:64
#07752:64
#07854:64
#08255:0014
#08552:64
#08555:0024
#08652:64
#08655:0014
#09058:64
#09252:64
#09458:54
#09853:0014
#10059:00000014
#00253:0000001400000000
#001330:0000000014000034
#002330:0034002400000000
#014320:14
#014340:0000002400000000
#0153a0:14000034
#015380:0000003400000000
#0163a0:34
#016390:00340000
#016380:0024
#018340:14
#018320:0000002400000000
#019380:14000034
#0193a0:0000003400000000
#020380:34
#020390:00340000
#0203a0:0024
#0293a0:14
#030380:34
#0313a0:34
#032380:34
#0333a0:24
#0363a0:14
#037380:24
#043320:14
#043340:0000003434002400
#044380:14
#0443a0:0000003434002400
#0493a0:14000034000034000000003400003400
#049370:0034
#0503a0:34000000000034340000000000000000
#050370:0024
#054340:14
#054320:0024
#0563a0:14
#056380:00342400
#058340:14
#058320:00342400
#0593a0:14
#059380:0024
#060340:14
#060320:0024
#0623a0:143434000000
#062370:0024
#064320:14
#064340:00342400
#066380:14
#0663a0:00342400
#067320:14
#067330:00340000
#067340:0024
#068380:14
#068390:00340000
#0683a0:0024
#075320:1434
#076340:34
#076320:0034
#077320:3434
#078340:34
#078320:0034
#079320:24
#082320:143434000000
#082350:0024
#085320:14000034000034000000003400003400
#085350:0034
#086320:34000000000034340000000000000000
#086350:0024
#090380:14
#0903a0:0024
#092320:14
#092340:00342400
#094380:14
#0943a0:00342400
#095320:14
#095330:00340000
#095340:0024
#096380:14
#096390:00340000
#0963a0:0024
#100390:00001424
#046930:14240000
#046990:00001424
