This file was generated by Ched 2.7.0.0.
#TITLE ""
#ARTIST ""
#DESIGNER ""
#DIFFICULTY 0
#PLAYLEVEL
#SONGID ""
#WAVE ""
#WAVEOFFSET 0
#JACKET ""
#REQUEST "ticks_per_beat 480"
#00002: 4
#BPM01: 183
#00008: 01
#TIL00: ""
#VOLUME: ""
#HISPEED 00
#MEASUREHS 00
#00017:00130000
#0001b:0013
#0001a:00000013
#00012:14141414
#00119:1300000000130013
#00118:00130000
#00112:14141414
#00117:00000013
#0011b:0013
#0021a:14141414
#00216:0000130000000013
#00212:13
#0031a:14
#00312:14141414
#00317:0000000000000013
#0041a:14141414
#00415:0000001300000000
#00412:1413
#00414:0000000000000013
#00416:00000013
#0051a:14141414
#00512:13
#00514:0000130000000013
#00516:00001313
#00612:14141414
#00617:0000130000000013
#0061b:13
#00610:41
#00712:14
#0071a:14141414
#00716:0000000000000013
#00817:00130000
#00812:14141414
#0081a:14
#00819:0013
#0081b:00000013
#00917:13000013
#0091b:00131300
#00912:14141414
#00919:0013000000130013
#0101a:14141414
#01012:13
#01016:0000130000000013
#0111a:14
#01112:14141414
#01117:0000000000000013
#0121a:14141414
#01212:14001313
#01216:00130000
#01214:0000001300000013
#01218:0000000000130000
#01316:1313
#0131a:14141414
#01314:0000001300005300
#01315:0000000000530000
#01313:0000000000000053
#01416:14141400
#01413:00000013
#0141a:0000000000000013
#01412:53
#01516:14140000
#0151b:0013
#01518:0000000000130000
#01515:00000013
#01512:0000000000000013
#01616:0000001400000000
#01612:00002413
#0161b:00000013
#01615:0000000000000013
#0161a:0024
#01610:0041
#01718:1300001300130000
#0171b:0013000013000013
#01712:0013000013000013
#01715:00130013
#01812:00131313
#0181b:00000000130000330000000013000000
#01818:1300000000000013
#01815:0013000000130000
#01817:0000001300000000
#01915:1300001300130000
#01912:0013000013000013
#0191b:0013000013000013
#01918:00130013
#0201b:0000130000330000
#02015:1300000000000013
#02018:0013000000000000
#02012:00000000130000330000000023000000
#02016:0000001300000000
#02017:0013
#02118:1300001300001300
#02115:0000130000130000
#0211b:0013000013000013
#02112:0023000024000024
#02215:1300001300001300
#02218:0013000013000013
#0221b:0000130000130000
#02212:0000250000250000
#02315:0013000013000000
#02318:00000000130000000000130000000053
#0231b:1300001300001300
#02312:2600002600001300
#0231a:00000000000000000000000000530000
#02319:0000000000000053
#02412:13000013
#02416:00000013000000000000000000000000
#0241b:00000013000000000000000013000000
#02419:0000000000000013
#02417:53
#02519:13
#0251b:0013000013000013
#02514:0000131300000000
#02512:0013000013000013
#02518:0000000000131300
#02615:1313000000000000
#0261b:0000130000130000
#02619:00001313
#02614:00000013
#02612:00000000130000330000000000001300
#02616:0000001300000000
#02610:0041
#02712:1300000000131300
#02719:0013000013000000
#0271b:0000131300000000
#02714:0013000000000013
#02715:0013
#02718:0000000000000013
#0281b:13001300130000330000000023000000
#02817:0000001300000000
#02812:0000130000330000
#02816:0013
#02818:0000000000000013
#02915:1300001300001300
#02912:0013000013000013
#02918:0000130000130000
#0291b:0023000000000000
#0291a:0000000024000024
#03018:1300001300001300
#03015:0013000013000013
#03012:0000130000130000
#03019:0000250000250000
#03112:1300001300001300
#03118:2613002613000000
#03115:00000000130000000000130000000053
#0311b:00000013
#03113:00000000000000000000000000530000
#03114:0000000000000053
#0321b:13
#03217:00000013000000000000000000000000
#03212:00000013000000000000000000000000
#03216:53
#03312:00002413
#03315:0000000000000013
#0331a:0024
#0331b:00000023
#03415:0000131300001300
#03418:13000000001300000000130000000000
#0341b:0023000013000000
#03412:0000000023000023
#03518:1313000000130013
#03515:00130000000000000000000000000000
#03512:00000000130000330000000023000000
#03516:0000001300000000
#0351b:00231313
#03618:0000131300001300
#03615:13000000001300000000130000000000
#03612:0023000013000000
#0361b:0000000023000023
#03610:0041
#03715:1313000000000000
#03718:00130000000000000000000000000000
#0371b:00000000130000330000000023000000
#03717:0000001300000000
#03712:0000230013000013
#03714:00000000000000000053000000000000
#03716:0000000000530000
#04116:13
#04112:00000013000000000000000023000000
#04117:00000013000000000000000000000000
#0411b:00000013
#04118:0000000000000013
#0411f:0011
#04218:0000131300001300
#04215:13000000001300000000130000000000
#04212:0023000013000000
#0421b:0000000023000023
#04315:1313000000130013
#04318:00130000000000000000000000000000
#0431b:00000000130000330000000023000000
#04317:0000001300000000
#04312:00231313
#04415:0000131300001300
#04418:13000000001300000000130000000000
#0441b:0023000013000000
#04412:0000000023000023
#04518:1313000000000000
#04515:00130000000000000000000000000000
#04512:00000000130000330000000000000000
#04516:00000000000013000000001300001300
#0451b:00231313
#04519:00000000000000000000000000000013
#03817:1323001323001323
#03814:00130000000000130000000000130000
#03812:0000130000130000
#04019:00000000130023000000130023000013
#04012:0013000013000013
#04016:00000000001300000000001300000000
#04018:23
#03918:0013230013230013
#03915:00000013000000000013000000000013
#03912:1300001300001300
#04616:1300131300000000
#0461b:0013000013000013
#04615:0000000000131300
#04618:00000000000000000000001300000000
#04619:00000000001300000000000000000000
#04715:1313001313000000
#04718:00130000000000130000000000000000
#0471b:0000130000130000
#04714:0000000000001313
#04717:00000000000000000000000000130000
#0481b:1300001300001300
#04814:0013130013130000
#04817:00000013000000000013000000000000
#04815:00000000000000000000000000130000
#04818:0000000000000013
#04812:00000000000000000000000000000013
#0491a:14
#04916:00000034140034000000000000000000
#05016:0000000000000014
#05014:00000014
#05012:0024
#05018:0026
#05019:00000025
#0501f:0021
#05114:14
#05112:0014000023002400
#05116:0014
#05118:00000014
#0511a:24
#0511b:00230000
#05110:0041
#0521a:14141400
#05218:0014001400000000
#05216:0000000000000014
#05212:25262724
#05312:14002424
#05316:0000001400000000
#0531a:24241400
#05412:14002425
#05415:0014000000000000
#05417:0000001400000000
#05416:0000000000000014
#05418:00000014
#0541a:24242400
#05518:14
#0551a:0014000000002400
#05514:0000001300000014
#05516:0014
#05512:24230014
#0551b:0023
#05612:14140024
#05617:0014000027000000
#05615:0000001400000000
#0561a:00000014
#05618:0000260000000014
#05619:25
#05714:0014000000000000
#05712:1400240014141414
#0571a:24142400
#05718:0000001400000000
#05717:00000024
#0581a:1414242424001400
#05812:24002414
#05816:0000000000000014
#05815:00240000
#05912:00140014
#05916:00001414
#0591a:2414
#0601a:14141400
#06012:00000014
#06016:0000000000000014
#06112:14000014
#0611a:00141400
#06116:0000001400000000
#06117:00000014
#06118:14
#06114:0014
#0621a:14142414
#06215:14
#06212:00142400
#06218:0000001400000000
#06216:0000000000000014
#06214:00000024
#0631a:14000014
#06312:00140000
#06316:00141414
#06314:0000001400000000
#06318:0000000000000014
#06416:14140000
#06414:0014000000000014
#0641a:00001424
#06412:00000014
#06518:0014000000000000
#0651a:14242400
#06512:24142400
#06514:0000001400000000
#06516:0000000000230000
#06519:00000023
#06513:0000000000000023
#06612:0000002400001300
#0661b:00000013
#06618:0000000000000013
#0661a:2324
#06614:0023000000000000
#06617:00230000
#06610:0041
#06619:00000000000000000000000000000053
#06715:13130013
#0671a:5313000000005300
#06718:0000001300130000
#06713:0000005313000000
#0671b:0000000000000013
#06716:00000000000000000000000000000013
#06714:00000000005300000000000000000000
#06719:00000000000000000000005300000000
#0681b:1300001323001300
#06812:0013130000130000
#06817:00000013000000000000000000000000
#06816:00000000000000130000000000001300
#06814:00000000000000000000000000000053
#06918:13000013
#06912:5313000000005313
#06917:00000000130000000000000000000013
#06915:0000001300000000
#0691b:0000005313000000
#06916:0000000000130000
#06919:00000000005300000000000000000000
#06914:00000000000000000000005300000000
#07012:1300001323000000
#0701b:0013130000130000
#07016:00000013000000000000000000000000
#07017:00000000000000130000000000000000
#07015:0000000000002313
#07018:00000000000000000000000000130013
#0711b:0013000000000000
#07115:13000000130000000013001300000000
#07118:0000000023131300
#07112:00000000000000530000000000001300
#07114:00000000005300000000000000000000
#07113:0000005300000000
#07218:13
#07217:00000000001300130000000000000000
#07212:00000000230013001300000000000053
#0721b:00000053000000000000130000000000
#07215:00000013
#07219:00530000000000000000000000000000
#0721a:0053000000000000
#07214:00000000000000000000000000530000
#07213:0000000000000053
#07316:00130013000000000000000000000000
#0731b:2313130013000000
#07315:00000000000000000013000000000000
#0731a:0000000000130000
#07314:00000000000000000000001300000000
#07319:00000013
#07313:00000000000000000000000000130000
#07318:0000000000000013
#07312:00000000000023000000000000000013
#0741b:00000013000000000000000013000000
#07412:00000023000000000000000013000000
#07417:23000000000000000000000000000013
#07414:0000000000000023
#0761b:13000013
#07618:00000000000013000000000000000013
#07612:0023130000000000
#07617:00000013000000000000000000000000
#07615:00000000000000130000000000002300
#0771b:00000000130000000000000000130000
#07715:1313000000002313
#07718:00130000000000130000000000000000
#07712:0000001300000000
#07818:1313000000000000
#07812:00130000000000000000130000000000
#07815:00000000130000130000000000000000
#0781b:0000001323002300
#07814:0000000000000013
#07817:00000000000000000000000000000013
#07914:1323000000131323
#07917:00130000000000000000001300130000
#07919:0000131323000000
#07916:00000000001300130000000000000000
#0801a:1313230000001414
#08016:00130013000000000000000000140014
#08013:0000001313230000
#08017:00000000000000130013000000000000
#0811a:2400000014140000
#08115:00000000000000000014001400000000
#08112:0014142400000000
#08116:00000014001400000000000000000000
#08118:0000000000002424
#08113:00000000000000000000000000240024
#08216:24000014000000000000000000000000
#08212:00000023000000000000000000000000
#08312:00000013
#08315:0000000000000013
#08418:13130000
#08415:0013000000000000
#0841b:0000001300001313
#08412:0013
#08512:0000000000001313
#08517:0000000000000013
#08519:00000000000000000000000000000000000000000000000000000000000000000000000000000000000000000000000000000000000000000053000000000000
#08615:0013001300000013
#0861b:0000130000001313
#08618:0013
#08612:0013
#08712:0013000000000000
#08715:0000130000130000
#08718:0000001300001300
#0871b:0000000000000013
#08812:13001313
#08815:0013000000000000
#08818:0000130000130013
#0881b:0000001300000000
#08915:1300130000130000
#0891b:0013000013000000
#08918:0000001300001300
#08912:0000000013000013
#0901b:13
#09018:0013000000000000
#09015:00130000
#09012:0000001300000000
#07516:00000000001300130000000000000013
#07519:0000231313000000
#07517:00130000000000000000001300000000
#07512:0000000000231300
#07514:1313000000000000
#0751b:0000000000000023
#0005b:0013
#00256:00230000
#00252:63
#00556:0013
#00657:00230000
#0065b:63
#00857:00130000
#00859:0013
#0085b:00000013
#01056:00230000
#01052:63
#01356:63
#01652:0014
#0165a:0014
#01852:00130000
#0185b:00534300
#01857:0000002300000000
#02052:00633300
#02056:0000002300000000
#02057:0063
#0205b:00000013
#0215b:0013000013000013
#0225b:0000130000130000
#0235b:1300001300000000
#02452:6313
#02456:00000053000000000000000000000000
#0245b:00000053000000000000000000000000
#02457:0013
#02652:00633300
#02656:0000002300000000
#0285b:00534300
#02857:0000002300000000
#02856:0053
#02852:00000013
#02952:0013000013000013
#03052:0000130000130000
#03152:1300001300000000
#0325b:5313
#03257:00000063000000000000000000000000
#03252:00000063000000000000000000000000
#03256:0013
#03352:0014
#0335a:0014
#03552:00633300
#03556:0000002300000000
#0375b:00534300
#03757:0000002300000000
#04156:6313
#04152:00000063000000000000000000000000
#04157:00000063000000000000000000000000
#0415b:0013
#0435b:00534300
#04357:0000002300000000
#04552:00633300
#04556:0000002300000000
#0455b:00004313
#0495a:5444
#04956:00240000
#05052:0014
#05056:0000000000000024
#05054:00000054
#05058:0016
#05154:64140000
#05152:0024000000000000
#05156:0014
#05158:00000014
#0525a:0064
#05252:0037
#05352:54
#0535a:0064
#05356:00000014
#05452:54341400
#05455:0024000000000000
#0545a:0014
#05456:0000000000000024
#05458:00000064
#05558:54140000
#0555a:0024000000000000
#05556:0014
#05657:0047
#05652:00541400
#05655:0000002400000000
#05852:00001464
#0585a:0014
#05856:0000000000000024
#05954:34
#05952:00140014
#0595a:5414
#06052:0034
#0605a:0064
#06152:34000014
#0615a:0044
#0625a:14001414
#06252:0014
#06256:0000000000000024
#06254:00000054
#06352:34
#0635a:6414
#06356:00640064
#06456:54640000
#0645a:00140000
#0665a:0014
#06652:0014
#0715b:0013000000000000
#07152:0000000000000013
#0725b:0000000000130000
#0745b:00000063000000000000000000000000
#07455:0013
#07458:0013
#07457:53
#07452:00000053000000000000000000000000
#0765b:13000013
#07652:00130000
#07755:0013000000000000
#07855:00130000
#0785b:00001313
#08256:00000064000000001300000000000000
#0825a:0014
#08252:00000063000000000000000000000000
#08456:0000000000000013
#08452:0063
#0845b:0000000000000013
#07559:0013
#07552:00000013
#07554:0013000000000000
#0685b:0013
#07352:0000001300000000
#07052:0013
#08655:0000000000000013
#08758:0000001300000000
#002320:1323
#002360:00530000
#0063b0:1323
#006370:00530000
#010320:1323
#010360:00530000
#013360:13
#013320:00230000
#0183b0:00000000130000332300000000000000
#018370:0000003300000000
#020320:00000000130000332300000000000000
#020360:0000003300000000
#020371:0013
#0203b1:0000000000332300
#024321:1323
#024361:00000033000000000000000000000000
#0243b0:00000013000000000000000000000000
#024370:0023
#026320:00000000130000332300000000000000
#026360:0000003300000000
#0283b0:00000000130000332300000000000000
#028370:0000003300000000
#028361:0013
#028321:0000000000332300
#0323b1:1323
#032371:00000033000000000000000000000000
#032320:00000013000000000000000000000000
#032360:0023
#035320:00000000130000332300000000000000
#035360:0000003300000000
#0373b0:00000000130000332300000000000000
#037370:0000003300000000
#041360:1323
#041320:00000033000000000000000000000000
#041371:00000013000000000000000000000000
#0413b1:0023
#0433b1:00000000130000332300000000000000
#043371:0000003300000000
#045321:00000000130000332300000000000000
#045361:0000003300000000
#0493a1:1424
#049361:00000034540034000000000000000000
#049320:0014
#050320:0024
#050340:00000014
#050360:0000000000000054
#051340:34240000
#051320:0054000000000000
#0523a0:0014
#052360:00000024
#053320:14
#053360:00240000
#0533a0:0014
#053360:00000024
#054320:14240000
#054350:0054000000000000
#054380:00000014
#054360:0000000000000054
#055380:34240000
#0553a0:0054000000000000
#056320:00142400
#056350:0000005400000000
#058320:00000014
#058360:0000000000000054
#059340:24
#0593a1:14
#059361:00240000
#060321:14342400
#060351:0034003400000000
#0603a0:0014
#060360:00000024
#062340:00000014
#062360:0000000000000054
#063320:24
#0633a1:1424
#063361:00340000
#063361:00000014
#064321:24
#064360:14
#0643a0:00240000
#064361:00140000
#064321:0024
#0653a1:0000000014240000
#065360:0000000000132300
#065391:0000000000001323
#065330:0000000000000013
#066330:23
#0663a1:1323000000000000
#066340:0013230000000000
#066371:0000132300000000
#066320:0000001424000000
#074370:13
#0743b0:00000033000000000000000000000000
#074380:0023
#074321:00000013000000000000000000000000
#074351:0023
#0763b1:0013
#076381:0000000000230000
#076350:0000000000130000
#076320:00000023
#077320:0013
#077350:0000000000230000
#077381:0000000000130000
#0773b1:00000023
#082361:14000034000000000000000000000000
#0823a1:0024
#082320:00000013000000000000000000000000
#082360:0023
#084320:0013
#084360:0000000000003323
#013960:0013
#014920:23
#0239b0:00000013
#024970:23
#031920:00000013
#032960:23
#037920:0013
#037960:0000000000230000
#066980:0000000000000013
#0679a0:23
#067950:00130000
#067930:0000002300000000
#067980:0000000000130000
#0679a0:00000023
#068960:0000000000000013
#069920:23
#069970:00130000
#0699b0:0000002300000000
#069960:0000000000130000
#069920:00000023
#071950:00130000
#071920:00000000000000230000000000000000
#072980:13
#0729b0:00000023000000000000000000000000
#072950:00000013
#072920:00000000000000000000000000000023
#085970:0000000000000013
#085990:00000000000000000000000000000000000000000000000000000000000000000000000000000000000000000000000000000000000000000023000000000000
