This file was generated by Ched 2.7.0.0.
#TITLE ""
#ARTIST ""
#DESIGNER ""
#DIFFICULTY 0
#PLAYLEVEL
#SONGID ""
#WAVE ""
#WAVEOFFSET 0
#JACKET ""
#REQUEST "ticks_per_beat 480"
#00002: 4
#BPM01: 183
#00008: 01
#TIL00: ""
#VOLUME: ""
#HISPEED 00
#MEASUREHS 00
#0001a:1414
#00114:1414
#00218:1414
#00312:1414
#0041a:1414
#00514:1414
#00618:1414
#00610:41
#00712:1414
#0161a:0014
#01610:0041
#0171a:0014
#01714:14
#0321a:0014
#03312:0014
#01814:14
#01818:0014
#01912:14
#01918:0014
#02012:14
#02412:0014
#02512:0014
#02518:14
#02618:14
#02614:0014
#02610:0041
#0271a:14
#02714:0014
#0281a:14
#03418:14
#03414:0014
#0351a:14
#03512:0014
#03618:14
#03614:0014
#03610:0041
#0371a:14
#03712:0014
#03814:14
#03812:0014
#03914:14
#03912:0014
#04014:14
#04012:0014
#0411a:0014
#0411f:0011
#04214:14
#04218:0014
#04312:14
#0431a:0014
#04414:14
#04418:0014
#04512:14
#0451a:0014
#04618:14
#0461a:0014
#04718:14
#0471a:0014
#04818:14
#0481a:0014
#04914:0014
#05112:14
#0511a:0014
#05114:00000014
#05110:0041
#0521a:1414
#05214:00140000
#05512:14
#0551a:0014
#05614:14
#05612:0014
#05618:00140000
#0571a:14
#05714:0014
#05718:00000014
#05814:1424
#05818:00140000
#05314:14
#05318:00140000
#05312:0014
#05418:14
#05414:00140000
#0541a:0014
#0591a:14
#05912:0014
#05918:00000014
#06012:1414
#06018:00140000
#0631a:14
#06312:0014
#06418:14
#0641a:0014
#06414:00140000
#06512:14
#06518:0014
#06514:00000014
#06618:1414
#06614:00140000
#06610:0041
#06118:14
#06114:00140000
#0611a:0014
#06214:14
#06218:00140000
#06212:0014
#0851a:0014
#08514:14
#08618:0014
#08614:14
#08718:0014
#08712:14
#0881a:0014
#08814:14
#0741a:0014
#07414:00000014
#0751a:1414
#07514:00140014
#0761a:14
#07612:0014
#07618:00000014
#07712:1414
#07718:00140014
#07812:14
#08314:14
#08318:0014
#08412:14
#08418:0014
#08914:14000014
#08918:0014
#09018:14
#09014:00140000
#0501a:0024
#0501f:0021
#04052:0024
#04054:24
#03952:0024
#03954:24
#03852:0024
#03854:24
#03752:0024
#0455a:0024
#04658:24
#0465a:0024
#04758:24
#0475a:0024
#04858:24
#0485a:0024
#05352:0014
#0545a:0014
#05854:0014
#0615a:0014
#06252:0014
#0083a0:14
#008380:0024
#009380:14
#0093a0:0024
#0103a0:14
#010380:0024
#011380:14
#0113a0:0024
#012320:14
#012340:0024
#013340:14
#013320:0024
#014320:14
#014340:0024
#015340:14
#015320:0024
#0203a0:0014
#021380:34
#0213a0:0034
#022380:34
#0223a0:0034
#023380:34
#0233a0:0034
#024380:24
#028320:0014
#029340:34
#029320:0034
#030340:34
#030320:0034
#031340:34
#031320:0034
#032340:24
#037320:0014
#038340:34
#038320:0034
#039340:34
#039320:0034
#040340:34
#040320:0034
#041340:24
#0453a0:0014
#046380:34
#0463a0:0034
#047380:34
#0473a0:0034
#048380:34
#0483a0:0034
#049380:24
#067320:14
#067330:00340034
#067340:0034
#068320:34
#068330:00340000
#068340:0024
#0693a0:14
#069390:00340034
#069380:0034
#0703a0:34
#070390:00340000
#070380:0024
#071320:14
#071330:00340034
#071340:0034
#072320:34
#072330:00340034
#072340:0034
#073320:34
#073330:00340034
#073340:0034
#074320:24
#0783a0:0014
#078390:00000034
#079380:34
#079390:00340034
#0793a0:0034
#080380:34
#080390:00340034
#0803a0:0034
#081380:34
#081390:00340000
#0813a0:00003434
#0823a0:34342400
