This file was generated by Ched 2.7.0.0.
#TITLE ""
#ARTIST ""
#DESIGNER ""
#DIFFICULTY 0
#PLAYLEVEL
#SONGID ""
#WAVE ""
#WAVEOFFSET 0
#JACKET ""
#REQUEST "ticks_per_beat 480"
#00002: 4
#BPM01: 157
#00008: 01
#TIL00: ""
#VOLUME: ""
#HISPEED 00
#MEASUREHS 00
#00119:14
#00213:14
#00319:14
#00413:14
#00614:14
#0071a:14
#00814:14
#00918:14
#00910:41
#01012:14
#01118:14
#01212:14
#0131a:14
#0141a:14
#01514:14
#01614:14
#01718:14
#01710:41
#01818:14
#01912:14
#02012:14
#03618:14
#03714:14
#04118:0016
#04112:26
#0411f:21
#04312:0016
#04318:26
#04512:16
#04518:0016
#04612:16
#04618:0016
#04912:0016
#04918:26
#05118:0016
#05112:26
#05318:16
#05312:0016
#05418:16
#05412:0016
#0591a:14
#06014:14
#06118:14
#06212:14
#06318:14
#06414:14
#0651a:14
#06718:14
#06814:14
#0691a:14
#07014:14
#07118:14
#0311f:11
#0051a:24
#05712:26
#05718:0026
#05812:26
#05810:41
#06612:24
#06610:41
#04210:41
#02510:41
#0213a0:14
#0223a0:24
#023340:14
#024340:24
#025380:14
#026380:24
#027320:14
#028320:24
#0293a0:14
#030380:34
#0313a0:34
#032380:24
#033320:14
#034340:34
#035320:24
#0383a0:14
#0393a0:34
#0403a0:24
#042320:1626
#044380:1626
#047320:1636
#048320:3626
#050380:1626
#052320:1626
#055380:1636
#056380:3626
#072320:14
#074320:34000000000000000000000000000034
#075340:00000024
