This file was generated by Ched 2.7.0.0.
#TITLE ""
#ARTIST ""
#DESIGNER ""
#DIFFICULTY 0
#PLAYLEVEL
#SONGID ""
#WAVE ""
#WAVEOFFSET 0
#JACKET ""
#REQUEST "ticks_per_beat 480"
#00002: 4
#BPM01: 157
#00008: 01
#TIL00: ""
#VOLUME: ""
#HISPEED 00
#MEASUREHS 00
#00515:00000000000013000013000000001300
#0051b:00000000000000000000001300000000
#00518:0013
#0081b:00000013000000001300000000000000
#00815:00130000000013000013000000001300
#00818:13000000000000000000130000130000
#00812:00000013
#01212:00000013000000001300000000000000
#01215:13000000000000000000130000130000
#01218:00130000000013001300000013000000
#0121b:0000000000130013
#01315:0000000000130000
#01318:00000013
#01317:1313
#0131b:00130000
#01312:13
#01316:00130000
#01416:13
#01418:0013001300000000
#01415:00000013001300000000000000000000
#0141b:00001313
#01412:0013
#01419:00000000000000000000000000530053
#01417:0000000000000053
#0161b:13001313
#01617:0000000000130000
#01618:0013001300000000
#01615:00000013001300000000000000000000
#01612:5300000013242400
#0181b:00000013000000001300000000000000
#01812:1300001300001300
#01815:0013000000000000
#01818:00000000001300000000000000000000
#01814:00000000000000000000000000530053
#01816:0000000000000053
#0191b:0013000000001300
#01915:00000013000000000000000000000000
#01912:53000000001300001300000000000000
#01918:0000001300000000
#01919:00000000000000000000000000530053
#01917:0000000000000053
#02018:0013000000000000
#02012:13000013000000001300000013000000
#0201b:53000000001300001300000000000000
#02015:0000001300000000
#02016:0000000000130000
#0201a:0000000000242400
#02115:00000000000000000000000000130000
#0211b:0000000000000013
#02112:14000000001400000000001300000013
#0211a:14000000000000005454000000000000
#02118:00000013
#02116:00005454000014000000000000000000
#02218:13000000000000000000000000130013
#02212:00130000
#02214:0000001300000000
#02216:0013
#02215:00130000000000000000000013001300
#0221b:0013000013000000
#02219:0000001300000000
#0241b:00130000001300000000230000000000
#02415:0013001300000023
#02418:00000013000000130000000023000000
#02412:00132300
#02512:13000000001300000000000000000000
#0251b:1313000013000053
#02516:00000013000000001300000000000000
#02517:0000001300001300
#02510:41
#02519:00000000000000000000000000530053
#02719:0014000000000000
#02718:00140000
#02717:0000001400000000
#02716:5314
#02715:0000000000140000
#02714:00000014
#02713:0000000000000014
#0271a:14
#02712:00130000
#0271b:00000013
#02817:1313
#02819:0013000000130000
#0281b:00130023
#02814:0000001300000000
#02816:00130013
#02812:1423
#02918:00130000
#02912:14
#0291a:14
#02915:00130000
#03018:0013000000000000
#03015:00130000
#0301b:1313
#03012:0013
#03218:00130013
#03212:1300000000130000
#0321b:0000001300000000
#03215:0013
#0331a:14
#03312:14
#03315:00130000
#0341b:00130000
#03418:0013
#03415:1313
#03412:00130000
#0351a:14
#03518:00000014000000000000000013000000
#03516:0000001400000000
#0351b:0000000000130000
#03515:0000000000000013
#03615:0000000000130000
#03618:00000013
#0361b:0000000000000013
#03612:1400000000000013
#03614:00000014000000000000000000000000
#03616:0000001400000000
#0371b:0013000000000013
#03718:00130013
#03715:0000001300130000
#03712:0013
#03716:0000000000000013
#03819:0013000000000000
#03817:0000001300000000
#03814:0013000000000000
#03812:0000001300000000
#03816:00000000000000000000001300000000
#04117:2313
#04119:0000000000130013
#04116:00230013
#04112:2313
#0411b:00230013
#0411f:21
#04217:13
#04212:1300001313000000
#0421b:0013
#04218:0000000000130013
#04215:00000013
#04210:41
#0441b:1300001323001300
#04416:13
#04412:00001323
#04415:0000000000130000
#04418:0000000000000013
#04512:1300230000000013
#04517:0000130000000013
#0451b:2313
#04518:0000000000130000
#04515:00000013
#04616:0013000000000000
#04619:00130000
#04617:0000001300000000
#0461b:0000000000130000
#04618:00000000000000000000000013000013
#04615:0000000000000013
#04612:0000001300000000
#04712:1300001300130000
#04715:0013000013002300
#0471b:00000013000000000000001300000000
#04718:00000000001300000013000000002300
#04812:0013001300000000
#04815:0013
#04818:0000000000130013
#0481b:00130013
#04817:0013000000000000
#04816:00130000
#0561b:0013000000001300
#05615:0013000000001300
#05614:00130000
#05613:0000001300000000
#05612:0013
#0561a:00130000
#05619:0000001300000000
#05618:0013
#05816:00000000130013000000001300000000
#05812:2313
#05817:00000000000000000013000000001300
#05818:23
#05810:41
#0581b:00000000000000000000005300000000
#06012:24000000130013000000001300000000
#06016:0013
#0601b:00000000000000000013000000001300
#0601a:24
#06017:00000000000000000000005300000000
#06112:00000013000000001300000000001300
#06116:1300000000130000
#06115:00000013
#06118:00000000000000000000000000130000
#06117:00000053000000001300000000000000
#0611b:00130000000013000000130000000000
#06516:0013001300001300
#06517:00131300
#06512:00131300
#0651b:0013001300001300
#06616:00000000130000000013000000000000
#06612:23000000000013000000001300000000
#0661b:00131300
#06617:23000000000013000000001300000000
#06610:41
#06812:24000000130000001300001300000000
#06816:0000001300000000
#06817:00000000130000000000001300000000
#0681b:0000001300000000
#0681a:24
#06912:13000013000000001300000013000000
#06916:0000000000130000
#06918:00000000000000000000000000130000
#06915:0000000000000013
#06917:00000013000000001300000000000000
#0691b:0000000000130000
#07412:1300001300001300
#07415:0013000013000013
#0741b:00000013000000000013000000000013
#07418:13000000001300000000001300000000
#00415:00232313
#00412:0023000000000000
#00418:0000002300002300
#0041b:0023
#00615:00130000000013000013000000001300
#0061b:00000013000000000000001300000000
#00618:1313
#00715:00000000000013000013000000001300
#0071b:23000000000000000000001300000000
#00718:0013
#00712:23
#00918:00000000000013000013000000001300
#00912:23000000000000000000001300000000
#00915:0013
#0091b:23
#00910:41
#01018:00130000000013000013000000001300
#01012:00000013000000000000001300000000
#01015:1313
#01118:00000000000013000013000000001300
#01112:23000000000000000000001300000000
#01115:0013
#0111b:23
#01512:13001313
#01515:0013001300000000
#01518:00000013001300000000000000000000
#0151b:5313
#01514:00000000000000000000000000530053
#01516:0000000000000053
#01718:00000000000000000000130000000013
#01716:1313
#01712:00130000
#0171b:13
#01717:00130000
#01715:00000013
#01710:41
#02312:1400001400001400
#0231a:00000014000000000014000000000000
#02316:00005454005454005454005454005454
#02612:1313000013000053
#02617:53000013000000001300000000000000
#0261b:00000000001300000000000000000000
#02616:0000001300001300
#02614:00000000000000000000000000530053
#03112:14
#0311a:14
#03115:00130000
#03118:00130000
#0311f:11
#03916:14
#04316:2313
#04314:0000000000130013
#04317:00230013
#0431b:2313
#04312:00230013
#04916:2313
#04914:0000000000130013
#04917:00230013
#0491b:2313
#04912:00230013
#05016:13
#0501b:1300001313000000
#05012:0013
#05015:0000000000130013
#05018:00000013
#05212:1300001323001300
#05217:13
#0521b:00001323
#05218:0000000000130000
#05215:0000000000000013
#0531b:1300230000000013
#05316:0000130000000013
#05312:2313
#05315:0000000000130000
#05318:00000013
#05417:0013000000000000
#05414:00130000
#05416:0000001300000000
#05412:0000000000130000
#05415:00000000000000000000000013000013
#05418:0000000000000013
#0541b:0000001300000000
#0551b:1300001300130000
#05518:0013000013002300
#05512:00000013000000000000001300000000
#05515:00000000001300000013000000002300
#05117:2313
#05119:0000000000130013
#05116:00230013
#05112:2313
#0511b:00230013
#05114:0000001300000000
#07516:0013
#07515:0000000000000000000000000000000000530000000000000000000000000000
#07514:00000000000000000053000000000000
#07513:0000000000000000000000000000000000000053000000000000000000000000
#07512:0000000000000000000000000000000000000000535353535300000000000000
#00116:1212121212121212
#00118:00000000001200000012001200120000
#00216:1200000012000000120000001200000012000000120000001200520052525252
#00218:00000000001200000012001200000000
#00316:5212121212121212
#00318:00000000001200000012001200120000
#05912:1313
#05916:00000013000000000000001300000000
#05917:00130000000013000013000000001300
#0591b:00000053000000000000005300000000
#06217:00000000130013000000001300000000
#0621b:0013
#06216:00000000000000000013000000001300
#06212:24000000000000000000005300000000
#0621a:24
#0641b:00000000130013000000001300000000
#06417:0013
#06412:24000000000000000013000000001300
#0641a:24
#06416:00000000000000000000005300000000
#0631b:1313
#06317:00000013000000000000001300000000
#06316:00130000000013000013000000001300
#06312:00000053000000000000005300000000
#0671b:1313
#06716:00130000000000000013000000000000
#06717:00000013000000000000001300000000
#06712:00000013000000000000001300000000
#07017:00000000130000000013000000000000
#0701b:00000000000013000000001300000000
#07012:24131300
#07016:00000000000013000000001300000000
#0701a:24
#0721b:00000000130000001300001300000000
#07217:0000001300000000
#07216:00000000130000000000001300000000
#07212:2400001300000000
#0721a:24
#07112:1313
#07117:00130000000000000013000000000000
#07116:00000013000000000000001300000000
#0711b:00000013000000000000001300000000
#04012:24
#04016:00000024000000000000000000000000
#0401a:0000002400000000
#05715:0023000000002300
#05714:00230000
#05713:0000002300000000
#05712:0023
#0571b:0023000000002300
#0571a:00230000
#05719:0000002300000000
#05718:0023
#0731b:0023000000002300
#0731a:00230000
#07319:0000002300000000
#07318:0023
#07315:0023000000002300
#07314:00230000
#07313:0000002300000000
#07312:0023
#0745b:00000013000000000013000000000013
#07452:0000001300001300
#00455:00000053
#00458:00000053
#00555:00000000000000000053000000000000
#0055b:13000000000000000000005300000000
#00552:13
#00655:00530000000000000053000000000000
#0065b:00000053000000000000005300000000
#00752:13
#0075b:13000000000000000000005300000000
#00755:00000000000000000053000000000000
#00855:00530000000000000000000000001300
#0085b:00000053000000000000000000000000
#00858:0000000000130000
#00958:00000000000000000063000000000000
#00952:13000000000000000000006300000000
#0095b:13
#01058:00630000000000000063000000000000
#01052:00000063000000000000006300000000
#0115b:13
#01152:13000000000000000000006300000000
#01158:00000000000000000063000000000000
#01258:00630000000000000000000000000000
#01252:00000063000000000000000000000000
#0125b:0000000000000013
#01352:53
#01356:00530000
#01358:00000053
#01452:0053
#0155b:0063
#01652:0000000000141400
#0175b:63
#01757:00630000
#01755:00000013
#0185b:0053
#01952:0063
#0205a:0000000000141400
#0225b:0053000013000000
#02256:0013
#02556:0053
#02657:0063
#02852:0013
#0285b:00000013
#02955:00530000
#0305b:0013
#03052:0013
#03158:00630000
#03252:2300000000230000
#0325b:0000002300000000
#03255:00005313
#03258:00530013
#03455:0053
#03458:0053
#0345b:00000013
#03452:00000013
#03556:0000001400000000
#03656:0000001400000000
#03652:0000000000000013
#0375b:0000000000000013
#03859:0013000000000000
#03857:0000001300000000
#03852:0000005300000000
#03856:00000000000000000000002300000000
#03956:54
#04052:14
#04056:00000014000000000000000000000000
#0405a:0000001400000000
#04152:13
#0415b:00130000
#04252:13
#04257:53
#04456:63
#0445b:1313
#04452:00000013
#0435b:13
#04352:00130000
#0455b:13
#04557:0000000000000053
#04652:0000001300000000
#04755:00000013
#04758:0000000000000013
#05056:63
#0505b:13
#05257:53
#05252:1313
#0525b:00000013
#05356:0000000000000063
#05352:13
#0545b:0000001300000000
#0495b:13
#04952:00130000
#05152:13
#0515b:00130000
#05558:00000013
#05555:0000000000000013
#05652:0013
#05658:0013
#0565b:00000013
#05655:00000013
#05752:0013
#05758:0013
#05755:00000013
#0575b:00000013
#05858:13
#05852:13
#05856:00000000000000000000005300000000
#05857:0000000000000013
#0605a:14
#06052:14000000000000000000005300000000
#0605b:0000000000000013
#06152:00000053000000000000000000001300
#0615b:0000001300000000
#06252:14
#0625a:14
#06257:00000000000000000000006300000000
#06256:0000000000000013
#06556:00000053
#0655b:00000053
#06557:0053
#06552:0053
#06652:13000000000000000000005300000000
#06657:13000000000000000000005300000000
#06656:00000000000000000053000000001300
#0665b:0000000000000013
#0685a:14
#06852:14000000000000000000005300000000
#06857:00000000000000000000005300000000
#06856:0000000000000013
#0685b:0000000000000013
#06952:00000053000000000000000000000000
#06957:00000053000000000000000000000000
#0695b:0000001300000000
#06956:0000001300000000
#06955:0000000000000013
#07052:1400000000000013
#0705a:14
#07057:00000000000000000063000000001300
#07056:00000000000000000000006300000000
#0705b:00000000000000000000006300000000
#07358:0013
#07352:0013
#07355:00000013
#0735b:00000013
#05956:00000053000000000000005300000000
#05957:0000001300000013
#0645b:00000000000000000000006300000000
#06452:1400000000000013
#0645a:14
#06357:00000063000000000000006300000000
#06356:0000001300000013
#06756:00530000000013000053000000001300
#06757:00000053000000000000005300000000
#06752:00000053000000000000005300000000
#0675b:0000001300000013
#0725b:00000000000000000000006300000000
#07256:00000000000000000000006300000000
#0725a:14
#07252:1400000000000013
#07257:0000000000000013
#07157:00630000000013000063000000001300
#07156:00000063000000000000006300000000
#0715b:00000063000000000000006300000000
#07152:0000001300000013
#000380:00000000000000001200325252525252
#000390:0000000000000000000000000000000000000000005200520052005200520052
#001380:22
#004350:00001333
#005320:23
#004381:00000013
#0053b1:23
#0053b1:0000132300000000
#005351:00000000000000000013000000000000
#005321:00000000000000000000002300000000
#0053b0:00000000000000000000001300000000
#005380:0000000000000023
#006350:00130000000000000000000000000000
#006320:00000023000000000000000000000000
#0063b1:00000013000000000000000000000000
#006381:0000002300000000
#006351:00000000000000000013000000000000
#006321:00000000000000000000002300000000
#0063b0:00000000000000000000001300000000
#006380:0000000000000023
#0073b0:0000132300000000
#007350:00000000000000000013000000000000
#007320:00000000000000000000002300000000
#0073b1:00000000000000000000001300000000
#007381:0000000000000023
#008351:00130000000000000000000000000000
#008321:00000023000000000000000000000000
#0083b0:00000013000000000000000000000000
#008380:0000002300000000
#009320:0000132300000000
#009380:00000000000000000013000000000000
#0093b0:00000000000000000000002300000000
#009321:00000000000000000000001300000000
#009351:0000000000000023
#010381:00130000000000000000000000000000
#0103b1:00000023000000000000000000000000
#010320:00000013000000000000000000000000
#010350:0000002300000000
#010380:00000000000000000013000000000000
#0103b0:00000000000000000000002300000000
#010321:00000000000000000000001300000000
#010351:0000000000000023
#011321:0000132300000000
#011381:00000000000000000013000000000000
#0113b1:00000000000000000000002300000000
#011320:00000000000000000000001300000000
#011350:0000000000000023
#012380:00130000000000000000000000000000
#0123b0:00000023000000000000000000000000
#012321:00000013000000000000000000000000
#012351:0000002300000000
#013321:1323
#013361:00330000
#013381:00000013
#0143b1:23
#014321:0013
#014361:00000023
#0153b1:0013
#015371:00000023
#0173b1:1323
#017371:00330000
#0183b1:0013
#018371:00000023
#019321:0013
#019361:00000023
#0223b1:0013000000000000
#022371:00230000
#025361:0013
#025321:00000023
#026371:0013
#0263b1:00000023
#029351:00130000
#029321:0023
#0293b0:00001323
#029370:0000000000330000
#029361:00000013
#029321:0000000000000033
#030361:23
#031381:00130000
#0313b1:0023
#031320:00001323
#031360:0000000000330000
#031371:00000013
#0313b1:0000000000000033
#032371:23
#032320:13
#032350:00230000
#032381:00132300
#0323b1:0000005300000000
#032350:00001323
#032320:0000000000530000
#033380:00132300
#0333b0:0000003300000000
#033351:00001323
#033321:0000000000330000
#033380:00000013
#0333b0:0000000000000033
#034380:23
#034350:0013
#034320:00000023
#034381:0013
#0343b1:00000023
#035321:1300002300000000
#0363b1:1300002300000000
#038321:0000001300000000
#038361:00000000000000000000005300000000
#039321:23
#039360:14
#0393a0:00005400000000005454545454545454
#039390:0000000000000000000000000000000000540054005400540054005400540054
#0403a0:24
#042370:13
#0423b0:0000002300000000
#044360:13
#044320:0000002300000000
#045370:0000000000000013
#0463b0:0023000000000000
#050360:13
#050320:0000002300000000
#052370:13
#0523b0:0000002300000000
#053360:0000000000000013
#054320:0023000000000000
#0583b0:0000132300000000
#058360:00000000000000000000001300000000
#058320:0000000000000023
#059360:00000013000000000000000000000000
#059320:0000002300000000
#059360:00000000000000000000001300000000
#059320:0000000000000023
#060370:0000132300000000
#060320:00000000000000000000001300000000
#060360:0000000000000023
#061320:00000013000000000000000000000000
#061360:0000002300000000
#062320:0000132300000000
#062370:00000000000000000000001300000000
#0623b0:0000000000000023
#063370:00000013000000000000000000000000
#0633b0:0000002300000000
#063370:00000000000000000000001300000000
#0633b0:0000000000000023
#064360:0000132300000000
#0643b0:00000000000000000000001300000000
#064370:0000000000000023
#065320:0013
#065360:00000033
#066320:23
#065371:0013
#0653b1:00000033
#066371:23
#066361:00000000000000000013000000002300
#066321:00000000000000000000003300000000
#066370:00000000000000000000001300000000
#0663b0:0000000000000023
#067360:00130000000023000000000000000000
#067320:00000033000000000000000000000000
#067371:00000013000000000000000000000000
#0673b1:0000002300000000
#067361:00000000000000000013000000002300
#067321:00000000000000000000003300000000
#067370:00000000000000000000001300000000
#0673b0:0000000000000023
#068370:00000000000000000013003300000000
#0683b0:0000000000000023
#068321:00000000000000000000001300000000
#068361:0000000000000023
#069371:00130033000000000000000000000000
#0693b1:0000002300000000
#069320:00000013000000000000000000000000
#069360:0000002300000000
#070370:00000000000000000013000000002300
#0703b0:00000000000000000000003300000000
#070361:00000000000000000000001300000000
#070321:0000000000000023
#071371:00130000000023000000000000000000
#0713b1:00000033000000000000000000000000
#071360:00000013000000000000000000000000
#071320:0000002300000000
#071370:00000000000000000013000000002300
#0713b0:00000000000000000000003300000000
#071361:00000000000000000000001300000000
#071321:0000000000000023
#072361:00000000000000000013003300000000
#072321:0000000000000023
#0723b0:00000000000000000000001300000000
#072370:0000000000000023
#002960:00000012
#003960:22
#0149b0:00000013
#014970:0000000000000053
#0159b0:23
#015920:00000013
#015960:0000000000000053
#016920:23
#018920:00000013
#018960:0000000000000053
#019920:23
#0199b0:00000013
#019970:0000000000000053
#0209b0:23
#0219a0:14
#021960:00005424000000000000000000000000
#021960:0000001400000000
#0219a0:00000000000000005424000000000000
#023920:14
#023960:00005424000000000000000000000000
#0239a1:00000014000000000000000000000000
#023961:00000000005424000000000000000000
#023920:0000001400000000
#023960:00000000000000005424000000000000
#0239a1:00000000000000000014000000000000
#023961:00000000000000000000005424000000
#023920:00000014
#023960:00000000000000000000000000005424
#025970:00000013
#0259b0:0000000000000053
#026970:23
#026960:00000013
#026920:0000000000000053
#027960:23
#058970:00000000000000000013000000000000
#0589b0:00000000000000000000002300000000
#059970:00130000000000000000000000000000
#0599b0:00000023000000000000000000000000
#059970:00000000000000000013000000000000
#0599b0:00000000000000000000002300000000
#0609b0:00000000000000000013000000000000
#060970:00000000000000000000002300000000
#0619b0:00130000000000000000000000000000
#061970:00000023000000000000000000000000
#062960:00000000000000000013000000000000
#062920:00000000000000000000002300000000
#063960:00130000000000000000000000000000
#063920:00000023000000000000000000000000
#063960:00000000000000000013000000000000
#063920:00000000000000000000002300000000
#064920:00000000000000000013000000000000
#064960:00000000000000000000002300000000
#075960:0013
#075920:0000000000532300
