This file was generated by Ched 2.7.0.0.
#TITLE ""
#ARTIST ""
#DESIGNER ""
#DIFFICULTY 0
#PLAYLEVEL
#SONGID ""
#WAVE ""
#WAVEOFFSET 0
#JACKET ""
#REQUEST "ticks_per_beat 480"
#00002: 4
#BPM01: 157
#00008: 01
#TIL00: ""
#VOLUME: ""
#HISPEED 00
#MEASUREHS 00
#00818:13000000000000001600160000130000
#00815:00130000000013000013000000000000
#00812:0000000000001616
#0081b:0000001300000000
#01216:0013
#01212:0000001300130000
#01215:13000013
#01218:00130000000013000000000000130000
#0121b:0000000013000013
#01217:0000000000130000
#01316:0000000000130000
#01312:1300001313001300
#0131b:0013130000130000
#01317:13000013
#01415:00001300001300000000000000130000
#01412:00000013000000130000000013000000
#01418:00130000000013000000000000001300
#0141b:00000000130000001300000000000013
#01417:0000000000130000
#02115:00000000000000005313000000130000
#02112:1300000013130013
#02118:00000053130000000000000013000013
#0211b:00000013001300000000001300000000
#02114:00530000000000000000000000000000
#02116:0053000000000000
#02119:0000005300000000
#02117:00000000000000530000000000000000
#02215:1300000000000013
#02212:00131300
#02216:0000001300000000
#02218:00130000000000000000000000130013
#0221b:0013001300001300
#02217:00131300
#02512:13000000001313000000130000000000
#0251b:13001313000000001300000013130000
#02516:00000014000014001300000000000000
#02515:0000000000000013
#02518:00000000000000000000000000000013
#02510:41
#02712:1c001b001a2319001800170016231500
#02817:13
#02816:0014001400140000
#0281b:00000000131300001300000013000000
#02812:14142424
#0301c:0012000012000000
#03012:0012000012000000
#03014:12
#03019:00120000
#03015:00120000
#03218:00120012
#03216:1212
#0321c:0000001200120000
#03212:0000000000120000
#03318:1600000000120000
#03312:1600000000000012
#03316:0000121200000000
#0341c:00120000
#03418:0012
#03416:1212
#03412:00120000
#0351a:14
#03518:00000014000000000000000013000000
#03516:0000001400000000
#0351b:0000000000130013
#03512:1252525252525252
#03617:0000000000130013
#0361a:0000001400001300
#03616:14
#03618:00000014000000000000000000000000
#03612:5252525252525252
#03717:0000001300130000
#0371b:0000000013000013
#03719:00130013
#03712:5252525252525252
#03812:00001300000000000000001300000000
#0381b:0000001300000000
#03817:0013000000000000
#03816:0000001300000000
#04216:13
#04212:1400001300000013
#04218:00000000000000001300000000130000
#04215:00000000000000000013000013000000
#0421b:0000000000130000
#04210:41
#0441b:0000001300001300
#04412:00001329
#04415:0000000029160016
#04417:13
#0441a:14
#04512:1316290000001300
#0451b:0000130013000013
#04519:0000000000130000
#04517:00000013
#04518:0000001600000000
#04516:0000000013000013
#04514:0000000000130000
#04515:29
#0461b:00130000
#04617:0000001300000000
#0461c:0000000000120000
#04618:00000012
#0461a:0000000000000012
#04614:00000000000000000000000000000012
#04612:0000001300001200
#04616:0000000000120000
#04718:12000000120000000012000026000000
#04716:00120000001200001200001200000000
#0471a:0012001200120000
#04714:00000012000000120000000000000000
#04712:0000000000000026
#04812:00001300000013000000000000130000
#04815:00000000000000001300001300001300
#04818:00000000000000130000130000000013
#0481b:00130013
#04817:0013000000000000
#04816:00130000
#0581b:00130000
#05816:00000000000054001414000000000000
#0581a:00000000000000000000005400001400
#05812:26535353
#05818:26
#05810:41
#06118:00000000000000000000000000130000
#06115:0000000000000013
#06116:14140000000014000000140000000000
#0611b:00001313
#06112:53535353
#0611a:00000054000000000000000000000000
#07412:12000000000000000000000000000014
#07416:00001212000000001212000000001200
#0741a:00000012000000000012000000000012
#07418:12000000001212000000001212000000
#07414:0000001200001200
#01518:00001313000013000000000000130000
#01515:00000000001300000000000000001300
#01512:00000000000000001300000000000013
#01516:0000000000130000
#0151b:00001313
#02312:14005400000000005400001414000000
#02316:00001414001414000000005400005400
#0231a:00000000005400001414000000001414
#02912:16
#02918:16120012
#0291b:0000001200000000
#02916:0000120000000012
#02913:0000001200000000
#0291a:0000000000120000
#03112:1600120000000012
#03118:16
#0311c:0000120000120000
#0311f:11
#0391a:14000054
#03912:0054
#03914:00000000000000000054000000000000
#03916:0000000000540000
#03918:00000000000000000000005400000000
#04112:24241313
#0411b:0013001300000013
#04117:23130000
#04115:0000000000130000
#04118:00000013
#0411f:21
#05612:0013000014000000
#05616:0014140000001400
#05614:0000001400140000
#0561b:00130000
#05619:0000001300000000
#05618:00000000000000000014000000000000
#0561a:00000000000000000000001400000000
#00115:12000000000000000000001200000000
#00116:00001200001200000012000000001200
#00117:00120012
#00118:0000001200120000
#00119:0012
#00114:00000000000000000000000000120000
#00215:12000000001200000000001200000000
#00216:0000000012000000000000000000000000001200000000000000000012525252
#00217:00120012
#00218:0000001200120000
#00219:0012
#00214:00000000000000000000000000120000
#00315:00001200000000000000001200000000
#00316:52000000120000000012000000000000
#00319:00000000001200000000120000000000
#00317:0000000000000000000000001200000000000000000000000000000012525252
#00318:00001212
#00314:00000000000000000000000000120000
#00018:00000000000000000000120000000012
#0001a:00000000000000000000001200000000
#00017:00000012
#00019:00000000000000000000000000120000
#00016:0000000000000012
#00412:13130000000000002300000013000000
#0041b:00000000231300002300000013000000
#00418:00000000000000000000130000000013
#00415:00000000000000000000001300001300
#00416:0024002400000000
#00417:52
#0051b:23130000
#00512:2300130000000013
#00519:0000001300000000
#00515:0013
#00518:00000000000000000013000000001300
#00514:0000001300000000
#00618:13000000000000000013000000001300
#00615:00130000000013001300000000000000
#0061b:0000001300000000
#00612:0000000000000013
#0071b:23130000
#00712:2300130000000013
#00719:0000001300000000
#00715:0013
#00718:00000000000000000013000000001300
#00714:0000001300000000
#00918:0013
#00915:00000000000000000013000000001300
#0091b:2300130000000013
#00912:23130000
#00919:0000001300000000
#00914:0000001300000000
#00910:41
#01015:13000000000000000013000000001300
#01018:00130000000013001300000000000000
#01012:0000001300000000
#0101b:0000000000000013
#01118:0013
#01115:00000000000000000013000000001300
#0111b:2300130000000013
#01112:23130000
#01119:0000001300000000
#01114:0000001300000000
#01615:00001313000013000000000000000000
#01618:00000000001300000000001600000000
#01612:0000000013262600
#0161b:0013
#01717:0000000000130000
#0171b:1300001313001300
#01712:0013130000130000
#01716:13000013
#01710:41
#01818:00001300001300000000000000130000
#0181b:00000013000000130000000013000000
#01815:00130000000013000000000000001300
#01812:00000000130000001300000000000013
#01816:0000000000130000
#01912:00001313000000001300000013000000
#01918:00000000001300000000000000001300
#01915:00000000000013000000000000130000
#0191b:00000000000000001300000000000013
#01917:0000000000130000
#0201b:00001313000000001300000000000000
#02015:00000000001300000000000000000000
#02018:0000001300262600
#02012:00000000000000001300001600000000
#02412:00141400000000002400000000002400
#0241a:00540000001400000000240000000000
#02416:00000000545400545400000024000000
#02414:00000054000000000000000000000000
#02418:0000005400000000
#02612:13001313000000001300000013130000
#02616:00000014000014000000000000000000
#0261b:00000000001313000000130000000000
#02617:0013
#02618:0000000000000013
#02615:00000000000000000000000000000013
#04317:0013001300000000
#0431b:2300130000000013
#04315:0000000000130000
#04318:00000013
#04312:0000000013000013
#04314:24240000
#05017:13
#0501b:0000001300000013
#0501a:14
#05015:00000000000000001300000000130000
#05018:00000000000000000013000013000000
#05012:0000000000130000
#05212:1400001329001300
#0521b:0013
#05215:0000000000162916
#05216:13
#0531b:13000013
#05312:2900131613000013
#05314:0000000000130000
#05316:00000013
#05318:0016000000000000
#05317:0000000013000013
#05319:0000000000130000
#05315:00290000
#05412:0000130000120000
#05416:0000001300001200
#0541b:0000001300000000
#05418:0000000000120000
#0541c:00000012
#05414:0000000000000012
#0541a:00000000000000000000000000000012
#0491b:00001313
#04912:0013001300000013
#04916:23130000
#04918:0014001400130000
#04915:00000013
#0491a:24240000
#05116:0013001300000000
#05112:2300130000000013
#05118:2400240000130000
#05115:00000013
#0511b:0000000013000013
#0511a:0014001400000000
#05516:12000000120000000012000000000000
#05518:00120000001200001200001200002600
#05514:0012001200120000
#0551a:00000012000000120000000000000000
#05512:00000026
#0591a:00000054000014000000005400000000
#05916:14140000000000001414000000001400
#05912:53535353
#0601b:00130000
#06016:00000000000054001414000000000000
#0601a:00000000000000000000005400001400
#06012:2c535353
#06212:2c000000130000000000005400001400
#06216:00000000000054001414000000000000
#0621b:00535353
#06312:00000054000014000000005400000000
#06316:14140000000000001414000000001400
#0631b:53535353
#06412:2c000000130000000000005400001400
#06416:00000000000054001414000000000000
#0641b:0000530053005353
#06512:0014000014000000
#06514:00140000
#06516:0000001400001400
#0651b:00005300530053535300005300005300
#0661a:00000000140000000014005400001400
#06618:0000001400000000
#06616:0014
#06612:24535353
#06610:41
#06614:0000005300530053
#0661b:53
#06716:1400000014000014
#0671a:00140054000014000014005400000000
#06712:53535353
#06714:0053005300530000
#0681a:24000000140000000014005400001400
#06818:0000001400000000
#06816:0014
#06812:24535353
#06814:0000005300530053
#06916:1400000014001414
#0691a:00140054000014000000140000140000
#06912:53535353
#06914:0053005300530000
#07012:24000000140000000014005400001400
#07014:0000001400000000
#07016:0014
#0701a:24
#0701b:00535353
#07019:0000005300530053
#07116:1400000014000014
#07112:00140054000014000014005400000000
#0711b:53535353
#07119:0053005300530000
#07212:24000000140000000014005400001400
#07214:0000001400000000
#07216:0014
#0721a:24
#0721b:00535353
#07219:0000005300530053
#04017:23
#04019:00000023000000000000000000000000
#0401b:0000002300000000
#04012:23
#04014:00000023000000000000000000000000
#04016:0000002300000000
#05716:0024240023000000
#05712:00230024
#05714:0000002300000000
#0571b:0023000000000000
#05718:0000002400000000
#0571a:0024
#05717:00000023
#07316:0024240000002300
#0731b:00230000
#07319:0000002300000000
#07317:0023
#07312:0023000024000000
#07314:0000002400000000
#0731a:00000024
#0751a:0054
#07519:0000000000000000000000000000000000540000000000000000000000000000
#07518:00000000000000000054000000000000
#07517:0000000000000000000000000000000000000054000000000000000000000000
#07516:0000000000540000
#07515:0000000000000000000000000000000000000000005400000000000000000000
#07514:00000000000000000000005400000000
#07513:0000000000000000000000000000000000000000000000540000000000000000
#07512:00000054
#0745a:00000012000000000012000000000012
#07454:0000001200001200
#07452:00000000000000000000000000000054
#00752:13000000000000000000001300001300
#0075b:13000000000000000000001300000000
#00755:0063
#00758:00000000000000000063000000001300
#00858:5300000000160000
#00852:00000013000000000000000000001600
#00855:00530000000013000000000000000000
#0085b:00000013000013000000000000000000
#0125b:00000013000000000000000000001300
#01255:63
#01258:00630000000013000000000000000000
#01252:00000013000013000000000000000000
#01352:53000053
#0135b:00530000
#01357:00000053
#02252:0013
#02257:0013
#02556:0053
#02552:0000000000230000
#02852:00001414
#0305c:0012
#03052:0012
#03256:22005212
#0325c:0000002200000000
#03258:00520012
#03252:0000000000220000
#03456:0052
#03458:0052
#0345c:00000012
#03452:00000012
#03556:0000001400000000
#0365a:0000001400000000
#03657:0000000000000053
#0375b:0000000000000013
#03852:00001300000000000000002300000000
#0385b:0000001300000000
#03856:0000005300000000
#0395a:54
#03956:00000014
#04057:13
#04059:00000013000000000000000000000000
#0405b:0000001300000000
#04052:13
#04054:00000013000000000000000000000000
#04056:0000001300000000
#04152:14140000
#04157:53530000
#0415b:0023002300000000
#04252:14
#04256:53
#04455:0019
#04452:00000019
#04457:63
#0445a:14
#04555:19
#0455b:0000000000000053
#04556:0000000000000053
#04652:0000001300000000
#04657:0000001300000000
#04758:00000016
#04752:0000000000000016
#05756:0013
#0575a:0014
#05752:00000014
#05757:00000013
#05858:16
#05852:16
#05856:00000000000000000054000000000000
#06052:1c
#06056:00000000000000000054000000000000
#06155:0000000000000013
#06156:00540000000000000000000000000000
#06252:1c
#06256:00000000000000000064000000000000
#0685a:14
#06852:14
#07052:14
#0705a:14
#0055b:13000000000000000000001300000000
#00552:13000000000000000000001300001300
#00555:0063
#00558:00000000000000000063000000001300
#00658:53000000000000000063000000001300
#00655:00530000000013006300000000000000
#0065b:00000013000013000000001300000000
#00652:00000013000000000000001300001300
#00958:0053
#00955:00000000000000000053000000001300
#0095b:13000000000000000000001300001300
#00952:13000000000000000000001300000000
#01055:63000000000000000053000000001300
#01058:00630000000013005300000000000000
#01052:00000013000013000000001300000000
#0105b:00000013000000000000001300001300
#0115b:13000000000000000000001300001300
#01152:13000000000000000000001300000000
#01158:0053
#01155:00000000000000000053000000001300
#0145b:0063
#01457:0000000000230000
#01552:0053
#01556:0000000000230000
#01652:0000000000363600
#0175b:63000063
#01752:00630000
#01756:00000063
#01852:0053
#01856:0000000000230000
#0195b:0063
#01957:0000000000230000
#02058:0000000000464600
#02452:0000000014000014
#0245a:0000000000140000
#02456:00000014
#02657:0063
#0265b:0000000000230000
#0295b:0000002200000000
#02958:00520000
#02956:00620000
#02953:0000002200000000
#0315c:00520000
#04357:0023002300000000
#0435b:63630000
#04354:14140000
#04855:0013
#05057:63
#0505a:14
#05456:0000001300000000
#0545b:0000001300000000
#04952:0023002300000000
#04956:63630000
#0495a:14140000
#05256:53
#05252:1419
#05255:00000019
#05156:0023002300000000
#05152:53530000
#05158:14140000
#05352:1900000000000063
#05357:0000000000000063
#05656:00000034
#05652:0034
#05552:00000016
#05558:0000000000000016
#05956:00540000000000000054000000000000
#06356:00640000000000000064000000000000
#06456:00000000000000000064000000000000
#06452:1c00000000000014
#06652:14
#06552:0054
#06556:00000054
#06956:0000000000000014
#0725a:14
#07252:14
#07357:0013
#07352:0014
#07356:00000013
#0735a:00000014
#0003a0:0000000012220000
#005350:0013
#005320:00000000000000000000002300000000
#005381:00000000000000000013000000000000
#0053b1:00000000000000000000002300000000
#006381:13
#0063b1:00000023000000000000000000000000
#006350:00130000000000000000000000000000
#006320:00000023000000000000000000000000
#006350:0013
#006320:00000000000000000000002300000000
#006381:00000000000000000013000000000000
#0063b1:00000000000000000000002300000000
#007351:0013
#007321:00000000000000000000002300000000
#007380:00000000000000000013000000000000
#0073b0:00000000000000000000002300000000
#008380:13
#0083b0:00000023000000000000000000000000
#008351:00130000000000000000000000000000
#008321:00000023000000000000000000000000
#009381:0013
#0093b1:00000000000000000000002300000000
#009350:00000000000000000013000000000000
#009320:00000000000000000000002300000000
#010350:13
#010320:00000023000000000000000000000000
#010381:00130000000000000000000000000000
#0103b1:00000023000000000000000000000000
#010381:0013
#0103b1:00000000000000000000002300000000
#010350:00000000000000000013000000000000
#010320:00000000000000000000002300000000
#011380:0013
#0113b0:00000000000000000000002300000000
#011351:00000000000000000013000000000000
#011321:00000000000000000000002300000000
#012351:13
#012321:00000023000000000000000000000000
#012380:00130000000000000000000000000000
#0123b0:00000023000000000000000000000000
#013320:13
#013360:00230000
#0133b1:00130000
#013371:0023
#013321:00000013
#014361:23
#013370:00000013
#0143b0:23
#0143b0:00001323
#014370:0000000000530000
#015320:13000023000000000000000000000000
#015320:00001323
#015360:0000000000530000
#0163b0:13000023000000000000000000000000
#0173b0:13
#017370:00230000
#017321:00130000
#017361:0023
#0173b1:00000013
#018371:23
#017360:00000013
#018320:23
#018320:00001323
#018360:0000000000530000
#019380:13000023000000000000000000000000
#0193b0:00001323
#019370:0000000000530000
#020350:13000023000000000000000000000000
#025360:00001323
#025320:0000000000530000
#026370:00001323
#0263b0:0000000000530000
#029380:00122200
#0293b0:0000005200000000
#029361:00122200
#029331:0000005200000000
#0313c1:00120000
#031381:0022
#031320:0012
#031360:0000000000322200
#031381:00000012
#0313c1:0000000000000032
#032381:22
#032360:12
#032320:00220000
#032381:00122200
#0323c1:0000005200000000
#032360:00001222
#032320:0000000000320000
#0333c0:0000123200000000
#033380:0022
#033361:0012
#033321:0000000000322200
#033380:00000012
#0333c0:0000000000000032
#034380:22
#034360:0012
#034320:00000022
#034381:0012
#0343c1:00000022
#036371:0000000000000013
#0373b1:0023000000000000
#038361:0000001300000000
#038321:00000000000000000000005300000000
#039361:23
#0393a0:14
#039360:0054000000002400
#041370:13332300
#0413b0:0053005300000000
#042360:13
#0423b0:0000002300000000
#0433b0:13332300
#043370:0053005300000000
#044370:13
#044320:0000002300000000
#0453b0:0000000000000013
#046370:0023000000000000
#045361:0000000000000013
#046321:0023000000000000
#049361:13332300
#049321:0053005300000000
#050371:13
#050321:0000002300000000
#051321:13332300
#051361:0053005300000000
#052361:13
#0523b1:0000002300000000
#053321:0000000000000013
#054361:0023000000000000
#053370:0000000000000013
#0543b0:0023000000000000
#065320:0014
#065360:00000034
#066320:24
#074320:00000000000000000000000000000014
#0753a0:00542400
#002960:0000000000000012
#003960:22
#003970:0000000000000012
#004970:22
#021920:13
#021980:00000023000000000000000000000000
#0219b0:00000000001300000000000000000000
#021950:0023
#023920:1424000000000000
#023960:00000014000000000000000000000000
#0239a0:00000000002400000000000000000000
#023960:0000001400000000
#023920:0024
#0239a0:00000000000000000014000000000000
#023960:00000000000000000000002400000000
#023920:00000014
#023960:0000000000000024
#0239a0:00000000000000000000000000000014
#0249a0:00240000000000000000000000000000
#024920:0014000000000000
#024960:00000000542400000000000000000000
#0249a1:00000000001400000000000000000000
#024961:00000000000000542400000000000000
#035921:12
#037921:0000000000000022
#039921:0014
#0399a1:00000024
#0589b1:00130000
#058961:0000002400000000
#058920:00130000
#059920:00000023
#058961:00000000000000000014000000000000
#0589a1:00000000000000000000002400000000
#059961:00140000000000000000000000000000
#0599a1:00000024000000000000000000000000
#059961:00000000000000000014000000000000
#0599a1:00000000000000000000002400000000
#060920:00130000
#061920:00000023
#0609b1:00130000
#060961:0000002400000000
#060961:00000000000000000014000000000000
#0609a1:00000000000000000000002400000000
#061961:00140000000000000000000000000000
#0619a1:00000024000000000000000000000000
#062920:00130000
#062960:0000002400000000
#0629b1:00130000
#0639b1:00000023
#062960:00000000000000000014000000000000
#062920:00000000000000000000002400000000
#063960:00140000000000000000000000000000
#063920:00000024000000000000000000000000
#063960:00000000000000000014000000000000
#063920:00000000000000000000002400000000
#064921:00130000
#064961:0000002400000000
#0649b0:00130000
#0669b0:23
#064961:00000000000000000014000000000000
#064921:00000000000000000000002400000000
#066920:00135353
#066940:0000005300530053
#067920:53535323
#067940:0053005300530000
#0669a1:00000000000000000014002400000000
#0679a1:00140024000000000000000000000000
#0679a1:00000000000000000014002400000000
#068920:00135353
#068940:0000005300530053
#069920:53535323
#069940:0053005300530000
#0689a1:00000000000000000014002400000000
#0699a1:00140024000000000000000000000000
#0709b0:00135353
#070990:0000005300530053
#0719b0:53535323
#071990:0053005300530000
#070921:00000000000000000014002400000000
#071921:00140024000000000000000000000000
#071921:00000000000000000014002400000000
#0729b0:00135353
#072990:0000005300530023
#072921:00000000000000000014002400000000
#0759a0:0014
#075920:00000024
