This file was generated by Ched 2.7.0.0.
#TITLE ""
#ARTIST ""
#DESIGNER ""
#DIFFICULTY 0
#PLAYLEVEL
#SONGID ""
#WAVE ""
#WAVEOFFSET 0
#JACKET ""
#REQUEST "ticks_per_beat 480"
#00002: 4
#BPM01: 150
#00008: 01
#TIL00: ""
#VOLUME: ""
#HISPEED 00
#MEASUREHS 00
#00219:0000000000000013
#0021b:1313000013000000
#00217:00000013
#00212:13
#00218:00130000
#00215:0000001300000000
#00114:00130000
#00117:0000001300000000
#00115:00000013
#00118:0000000000000013
#00112:1313
#00316:13130000
#00314:0000001300000000
#00317:0013
#00712:1300130000000013
#00715:0013000000000000
#00718:0000001300001300
#0071b:13131300
#01118:1300001300000000
#0111b:00130000
#01112:00000013
#01115:0000000013000013
#01518:00001313
#01515:1300001300000013
#0151b:0000000000130000
#01512:00131300
#01615:0013000000002300
#01618:00130023
#0161b:0000001313000000
#01612:1313
#01715:00260013
#01718:0000000000000013
#0201b:23000013
#02018:0023000000000013
#02015:00232400
#02012:0000002300000000
#0201a:0024
#0221b:0013
#02218:0000130000130000
#02215:0013001300001300
#02212:1300000013000013
#02415:23000013
#02418:1300000000000013
#02518:0000130000130013
#02515:0013001300001300
#02512:1313
#0251b:1313
#02510:41
#0261b:1313
#02612:1300001300001300
#02617:0000000000000013
#02615:0013000000000000
#02618:00130000
#02716:0000001300000000
#02712:13000013
#02715:0000000000000013
#0271b:00131300
#02718:0000000000130000
#02815:0000000000000013
#02818:00000014000000140000001400000014000000000000000000000000000000000000000000000000000000000000000013000000000000000000000000000000
#02819:2414141414141414000000001400000014000000000000000000000000000000
#0281a:00140000001400000014000000140000000000000000000000000000000000000000000000000000000000000000000000000000000000000000000000000000
#02813:0000000014000000241414141414141400000000000000000000000000000000
#02814:00000000000000000000000000000000001400000014000000140000001400000000000000000000000000000000000000000000000000000000000000000000
#02812:00000000000000000000000000000000000000140000001400000014000000140000000000000000000000000000000000000000000000000000000000000000
#03315:00001353
#0331b:1353
#03318:00000053005300000000000013000000
#03310:41
#0331a:00530000000000530000000000005300
#03319:00005300000053000000000000530053
#03317:00530000
#03314:00000000000000000053005300000000
#03313:0000000000530000
#04416:0000001400000000
#04418:00000013
#04415:0000000000000013
#04412:14
#04512:13130000
#04519:0000000000000013
#04514:0000001300000000
#04517:00000013
#0461b:13
#04618:0013000000140000
#04615:00131300
#04612:0000001300000000
#0461a:0014
#04616:00000014
#04614:0000000000000014
#04712:14000024
#0471a:24
#04719:0024
#04713:00240000
#03418:53001353
#03412:1353
#03415:00000053005300000000000013000000
#03413:00530000000000530000000000005300
#03414:00005300000053000000000000530053
#03416:00530000
#03419:00000000000000000053005300000000
#0341a:0000000000530000
#0351b:1353
#03512:00230023
#03515:5323
#0351a:00530000000000530053000000000053
#03519:0053005300530053
#03518:00000053005300000000005300530000
#03517:00530053
#05715:00000013
#05718:0000120000000013
#0571b:23
#05716:00220000
#06115:0000000000000013
#06118:00000000000000000000000000000000001400000014000000140000001400000000000000000000000000000000000013000000000000000000000000000000
#06119:0000000014000000241414141414141400000000000000000000000000000000
#06113:2414141414141414000000001400000014000000000000000000000000000000
#06112:00140000001400000014000000140000000000000000000000000000000000000000000000000000000000000000000000000000000000000000000000000000
#06114:00000014000000140000001400000014000000000000000000000000000000000000000000000000000000000000000000000000000000000000000000000000
#0611a:00000000000000000000000000000000000000140000001400000014000000140000000000000000000000000000000000000000000000000000000000000000
#06617:00130000
#06619:0000001300000000
#06614:0000000000000013
#0661b:0013
#06612:00130013
#06616:0023
#06717:00130013
#06719:0000000000000013
#0671b:13
#06714:0013001300000000
#06716:2323
#06712:00230000
#06815:0000001300001300
#0681b:2313
#06818:00130013
#06812:1323
#07219:0000000000000014
#07212:14241414
#07216:0014001400000000
#0721a:24142414
#07213:0000000000000014
#0491a:141414141400
#04919:001400140014001400140014001400140014000000000000
#04918:001400140014001400000000
#04912:141414141400
#04913:001400140014001400140014001400140014000000000000
#04914:001400140014001400000000
#04910:41
#02315:00000000000000000013001300000000
#02312:0000241400000000
#0231a:2414000000000000
#02318:0000000023232300
#04312:13
#04312:13
#04316:0013
#04318:00130000
#0431b:00000013
#02112:13130000
#02115:0000001300000000
#0211b:0013
#04016:0000001400000000
#0401a:14
#04015:00000013
#04018:0000000000000013
#03912:00000013
#03916:0013000000000000
#03917:0013
#0391b:13
#03915:003300000000
#03914:000000000033000000000000000000000000000000000000
#0481a:2414
#04818:00000014
#04814:00000014
#04812:0024
#0581b:13130013
#05817:0013
#05819:0000001300000000
#05816:00130013
#05812:13
#05814:0000000000000013
#0581f:21
#05810:0041
#05912:1313
#0591b:0013001300001300
#05915:0013001300000000
#05916:0000000000000013
#05918:00130000
#06012:00131300
#06017:0000001300000000
#0601b:13000013
#06018:0000000000000013
#06015:0000000000130000
#07014:0000001300000000
#07012:1313
#07019:0000000000000013
#0701b:00130013
#07017:2323
#0321b:1313
#03218:0000130000130000
#03212:1313
#03215:0000130000130000
#05415:00130000
#05413:00000013
#05414:0013
#05412:13
#06915:0013
#0691b:0000001300001300
#06914:0000000000000013
#06912:1300130000130000
#06918:0013000000000000
#05518:00130000
#0551a:00000013
#05519:0013
#05618:00120013
#05615:00130000
#0561b:13
#05612:0013
#05616:00000012
#00016:0000000000000013
#00013:00000013
#00618:0000001300000013
#00612:1313000013000000
#00615:00130013
#0061b:13
#01819:00000013
#01816:0000000000000013
#00916:0000131300000000
#00914:0000000000001313
#00912:13
#01018:0013000000000000
#01012:0000001300001300
#01015:0000130000000013
#0101b:13
#02915:0000130000130013
#02918:0013001300001300
#0291b:1313
#02912:1313
#03012:1313
#03018:0013000000000000
#03015:00130000
#0301b:1300001300002300
#03016:0000000000000013
#03612:1353
#0361b:53230023
#03618:0023
#03613:00530000000000530053000000000053
#03614:0053005300530053
#03615:00000053005300000000005300530000
#03616:00530053
#03717:13
#0371b:00130000
#03712:5313
#03716:00000013
#05215:13
#05212:00130000
#05218:0013
#0521b:00000013
#05315:13
#05318:13
#06212:13130013
#06216:0013
#06214:0000001300000000
#06217:00130013
#0621b:13
#06219:0000000000000013
#06415:0000000000000013
#06414:0013000000000000
#06419:0000001300000000
#06412:1313
#0641b:23130000
#06418:00000013
#06417:0023
#06416:00230000
#06518:000000000000000000000000000000000000000000000000000000000000000000000000000000000000000000000000000000000000000000000000000000000000000000000000000000000000000000000000000000000000000000000000130000000000000000000000000000000000000000000000000000000000000000000000000000000000000000000000000000000000000000000000000000000000000000000000000000000000000000000000000000000000000000000000000000000000000000000000000000000000000000000000000000000000000013000000000000000000000000000000140000000000000000000000000000001500000000000000000000000000000014000000000000000000000000000000130000000000000000000000000000001400000000000000000000000000000015000000000000000000000000000000140000000000000000000000000000001300000000000000000000140000000000000000000000000000000000000000
#0651b:2313
#06515:000000130000001300130013
#06513:000000001515
#06512:2313
#06514:000000000000000000000000000000000000000000000000000000000000000000000000000000000000000000000000000000000000000000000000000000000000000000000000000000000000000000000000000000000000000000000000000000000000000000000000000000000000000000000000000000000000000000000000000000000000000000000000000000000000000000000000000000000000000000000000000000000000000000000000000000000000000000000000000000000000000000000000000000000000000000000000000000000000000000000000000000000000000000000000140000000000000000000000000000000000000000000000000000000000000014000000000000000000000000000000000000000000000000000000000000001400000000000000000000000000000000000000000000000000000000000000140000000000000000000000000000000000000000000000000000140000000000000000000000000000000000000000
#06317:0000000000000013
#0631b:1313
#06312:0013001300002300
#06318:0013001300000000
#06315:00130000
#07116:00130013
#07114:0000000000000013
#07112:13
#07119:0013001300000000
#07117:2323
#0711b:00230000
#07314:14
#07312:00130000
#07315:0013
#07318:1413
#0731b:00130000
#05015:13
#05012:0013
#05018:13
#0501b:0013
#0501f:11
#05118:13
#0511b:0013
#05112:00131300
#01317:0000131300000000
#01319:0000000000001313
#0131b:13
#01310:41
#01415:0013000000000000
#0141b:0000001300001300
#01418:0000130000000013
#01412:13
#01215:0000131300001313
#01212:0013
#01218:1313000013130000
#0121b:00000013
#00519:00130000
#00516:0000001300000000
#00518:00000013
#00515:0000000000000013
#0051b:1313
#00417:0000000000000013
#0041a:00000013
#0381b:13
#03817:00130000
#03816:0013
#03812:00000013
#04116:13
#04112:00130013
#0411b:1313
#04117:00000013
#04118:00130000
#04110:41
#04212:13
#04216:00130000
#04217:0013
#0421b:00130013
#04215:00000013
#03118:0000000000000013
#03119:0013000000000000
#03114:0000001300000000
#0311b:1313
#03112:23130000
#03115:00000013
#03116:0023
#03117:00230000
#01915:0026
#07412:53000053
#07418:0053
#07415:0053
#0741b:53000053
#07518:52000052
#07516:52000052
#07512:0052
#0751c:0052
#0761c:52
#07612:52
#07452:53000053
#07458:0053
#07455:0053
#0745b:63000053
#07556:52000052
#07558:52000052
#0755c:0052
#07552:0052
#04958:002400240024002400000000
#04959:005400540054005400540054005400540054000000000000
#0495a:242424242400
#04952:242424242400
#04954:002400240024002400000000
#04953:005400640064006400640064006400640064000000000000
#04352:63
#04356:0063
#04358:00630000
#0435b:00000063
#04056:0000002400000000
#0405a:64
#03952:00000053
#03956:0053000000000000
#03957:0063
#04452:54
#04456:0000002400000000
#04854:00000024
#04858:00000024
#04852:0064
#0485a:0064
#0325b:53005313
#03258:0000530000230000
#03252:63006313
#03255:0000630000230000
#0265b:5353
#02655:0053000000000000
#02658:00530000
#02652:0000005300000000
#02752:53000063
#02755:0000000000000023
#0275b:0053
#02758:0000000000230000
#05952:63135300
#0595b:0000002300000000
#05958:00631300
#05955:0023000000000000
#05957:13
#0585b:13000023
#05857:0053
#05856:00230000
#05852:5313
#0605b:63000053
#06058:0000000000000023
#06052:0063
#06055:0000000000230000
#02452:0016
#02458:6316
#02455:53
#06955:0053
#06952:6300630000230000
#0695b:0000005300000000
#06958:0053000000000000
#0665b:0053
#06658:16
#06652:16
#0685b:0053
#06858:00000053
#06852:63
#02552:6313
#02555:0023000000000000
#0255b:1353
#02558:0000000000230000
#03052:6363
#03058:0063000000000000
#03055:00630000
#0305b:0000006300000000
#0295b:5313
#02958:0023000000000000
#02952:1363
#02955:0000000000230000
#03757:53
#0375b:00230000
#03752:0053
#03756:00000023
#05252:00230000
#05255:63
#05258:1353
#0525b:00000023
#05355:63
#05358:53
#05758:00620000
#0575b:23
#05756:00520000
#05752:13
#0565b:2313
#05658:00520000
#05652:1323
#05656:00000062
#06252:13000023
#06256:0063
#06257:00230000
#0625b:6313
#06558:000000000000000000000000000000000000000000000000000000000000000000000000000000000000000000000000000000000000000000000000000000000000000000000000000000000000000000000000000000000000000000000000530000000000000000000000000000000000000000000000000000000000000000000000000000000000000000000000000000000000000000000000000000000000000000000000000000000000000000000000000000000000000000000000000000000000000000000000000000000000000000000000000000000000000023000000000000000000000000000000640000000000000000000000000000002500000000000000000000000000000064000000000000000000000000000000230000000000000000000000000000006400000000000000000000000000000025000000000000000000000000000000640000000000000000000000000000002300000000000000000000640000000000000000000000000000000000000000
#0655b:5353
#06555:000000630000002300230023
#06553:000000002525
#06552:6363
#06554:000000000000000000000000000000000000000000000000000000000000000000000000000000000000000000000000000000000000000000000000000000000000000000000000000000000000000000000000000000000000000000000000000000000000000000000000000000000000000000000000000000000000000000000000000000000000000000000000000000000000000000000000000000000000000000000000000000000000000000000000000000000000000000000000000000000000000000000000000000000000000000000000000000000000000000000000000000000000000000000000540000000000000000000000000000000000000000000000000000000000000054000000000000000000000000000000000000000000000000000000000000005400000000000000000000000000000000000000000000000000000000000000540000000000000000000000000000000000000000000000000000540000000000000000000000000000000000000000
#06452:0053
#0675b:63
#06757:00230000
#06756:0063
#07052:6363
#07152:53
#07156:00230000
#07157:0053
#07252:1414
#0725a:00140000
#07354:54
#07352:00530000
#07355:0053
#07358:6463
#0735b:00630000
#05055:63
#05052:0023
#05058:13
#05158:53
#0515b:0023
#05155:13
#02859:6464646464646464000000000000000014000000000000000000000000000000
#0285a:00240000002400000024000000240000000000000000000000000000000000000000000000000000000000000000000000000000000000000000000000000000
#02858:00000024000000240000002400000024000000000000000000000000000000000000000000000000000000000000000000000000000000000000000000000000
#02853:0000000000000000646464646464646400000000000000000000000000000000
#02854:00000000000000000000000000000000002400000024000000240000002400000000000000000000000000000000000000000000000000000000000000000000
#02852:00000000000000000000000000000000000000240000002400000024000000240000000000000000000000000000000000000000000000000000000000000000
#06153:5454545454545454000000000000000014000000000000000000000000000000
#06152:00240000002400000024000000240000000000000000000000000000000000000000000000000000000000000000000000000000000000000000000000000000
#06154:00000024000000240000002400000024000000000000000000000000000000000000000000000000000000000000000000000000000000000000000000000000
#06159:0000000000000000545454545454545400000000000000000000000000000000
#06158:00000000000000000000000000000000002400000024000000240000002400000000000000000000000000000000000000000000000000000000000000000000
#0615a:00000000000000000000000000000000000000240000002400000024000000240000000000000000000000000000000000000000000000000000000000000000
#0635b:53136300
#06352:0000002300000000
#06355:00531300
#06358:0023000000000000
#06356:13
#05452:13
#0555b:13
#0385b:63
#03857:00230000
#03856:0063
#03852:00000023
#04156:63
#04152:00230000
#0415b:0063
#04157:00000023
#04252:53
#04256:00230000
#04257:0053
#0425b:00000023
#0315b:0063
#001390:13230000
#0013a0:00001323
#002320:00001323
#0033b0:13230000
#003320:00001323
#0033b1:00000013
#0043b1:33332300
#004320:1333003323000000
#005340:13230000
#005330:00001323
#0063b0:00001323
#007350:00001323
#0083b0:13230000
#008351:00130023
#008380:00001323
#0093b0:13230000
#009390:00001323
#010380:00001323
#011350:13230000
#011380:00001323
#013320:13230000
#013340:00001323
#014350:00001323
#0153b0:13230000
#016350:00000013
#016330:00000000000000000000000000530053
#017350:23
#016381:00000013
#0163a1:00000000000000000000000000530053
#017381:23
#017351:000000000000165600000055250000000000000000000000
#017361:00000000000000000000000000000000000000000000000000000000000000000000000000000000000000000000000000000000000000000000000000000000000000000000000000000000000000000000000000000000000000000000000000000000000000000000000000000000000000000000000000000000000000000000000000000000000000000000000000000000000000000000000000000000000000000000000000000000000000000000000000000000000000540000000000000000000000000000000000000000000000000000000000000000000000000000000000000000000000000000000000000000000000000000000000000000000000000000000000000000000000000000000000000000000000000000000000000000005400000000000000000000000000000000000000000000000000000000000000000000000000000000000000000000000000000000000000000000000000000000000000000000000000000000000000000000000000000000000000000000000000000000000000000000000000000000000000000000000000000000000000000000000000000000000000000000000000000000000000000000000000000000000000000000000000000000000000000000000000000000000000000000000000000000000000000000000000000000000000000000000000000000000000000000000000000000000000000000000000000000000000000000000000000000000000000000000000000000000000000000000000000000000000000000000000000000000000000000000000000000000000000000000000000000000000000000000000000000000000000000000000000000000000000000
#018321:1323000000000000
#0183b0:0013230000000000
#018341:0000132300000000
#018390:0000001323000000
#018361:00001323
#0193a1:13230000
#019330:13230000
#019350:0000000000000000000000000000000016560000000000562600000000000000
#019360:000000000000000000000000000000000000000000000000000000000000000000000000000000000000000000000000000000000000000000000000000000000000000000000000000000000000000000000000000000000000000000000000000000000000000000000000000000000000000000000000000000000000000000000000000000000000000000000000000000000000000000000000000000000000000000000000000000000000000000000000000000000000000000000000000000000000000000000000000000000000000000000000000000000000000000000000000000000000000000000000000000000000000000000000000000000000000000000000000000000000000000000000000000000000000000000000000000000000000000000000000000000000000000000000000000000000000000000000000000000000000000000000000000000000000000000000000000000000000000000000000000000000000000000000000000000000000000000000000000000000000000000000000000000000000000000000000000000000000000000000000000000000000000000000000000000000000000000000000000000000000000000000000000000000000000000000000000000000000000000000000000000000000000000000000000000000000000000000000000000000000000000000000000000000000000000000000000000000000000000000000000000000000000000000000000000000000000000000000000000000000000000000000000000000000000000000000000000000000000000000000000000000000000000000000000000000000000000000000000000000000000000000000000000000000000000000000000000000000000000000000000000000000000000000000000000000000000000000000000000000000000000000000000000000000000000000000000000000000000000000000000000000000000000000000000000000000000000000000000000000000000000000000000000000000000000000000000000000000000000000000000000000000000000000000000000000000000000000000000000000000000000000000000000000000000000000000000000000000000000000000000000000000000000000000000000000000000000000000000000000000000000000000000000000000000000000000000000000000000000000000000000000000000000000000000000000000000000000000000000000000000000000000000000000000000000000000000000000000000000000000000000000000000000000000000000000000000000000000000000000000000000000000000000000000000000000000000000000000000000000005400000000000000000000000000000000000000000000000000000000000000000000000000000000000000000000000000000000000000000000000000000000000000000000000000000000000000000000000000000000000000000000000000000000000000000000000000000000000000000000000000000000000000000000000000000000000000000000000000000000000000000000000000000000000000000000000000000000000000000000000000000000000000000000000000000000000000000000000000000000000000000000000000000000000000000000000000000000000000000000000000000000000000000000000000000000000000000000000000000000000000000000000000000000000000000000000000000000000000000000000000000000000000000000000000000000000000000000000000000000000000000000000000000000000000000000000000000000000000000054000000000000000000000000000000000000000000000000000000000000000000000000000000000000000000000000000000000000000000000000000000000000000000000000000000000000000000000000000000000000000000000000000000000000000000000000000000000000000000000000000000000000000000000000000000000000000000000000000000000000000000000000000000000000000000000000000000000000000000000000000000000000000000000000000000000000000000000000000000000000000000000000000000000000000000000000000000000000000000000000000000000000000000000000000000000000000000000000000000000000000000000000000000000000000000000000000000000000000000000000000000000000000000000000000000000000000000000000000000000000000000000000000000000000000000000000000000000000000000000000000000000000000000000000000000000000000000000000000000000000000000000000000000000000000000000000000000000000000000000000000000000000000000000000000000000000000000000000000000000000000000000000000000000000000000000000000000000000000000000000000000000000000000000000000000000000000000000000000000000000000000000000000000000000000000000000000000000000000000000000
#020350:00001424
#020320:000000000000005454000000
#021380:13
#0213b0:0053230000000000
#021350:0013
#021320:0000000000532300
#021381:00000013
#0213b1:0000000000000053
#0223b1:23
#023381:00000013
#024381:3326
#024350:13
#024320:0026
#025320:13230000
#025350:0053000000000000
#0253b0:00001323
#025380:0000000000530000
#0263b0:13
#026380:0023000000000000
#026351:0013000000000000
#026321:00230000
#026380:00130000
#0263b0:0000002300000000
#026321:0000001300000000
#026351:0023
#0263b0:0013
#026370:00000023
#027320:13
#027360:00230000
#0273b0:00001323
#027380:0000000000530000
#027321:00000013
#027351:0000000000000053
#028321:23
#028390:1454545454545454240000000000000000000000000000000000000000000000
#0283a0:00540000005400000054000000540000000000000000000000000000000000000000000000000000000000000000000000000000000000000000000000000000
#028380:00000054000000540000005400000054000000000000000000000000000000000000000000000000000000000000000000000000000000000000000000000000
#028331:0000000000000000145454545454545424000000000000000000000000000000
#028341:00000000000000000000000000000000005400000054000000540000005400000000000000000000000000000000000000000000000000000000000000000000
#028321:00000000000000000000000000000000000000540000005400000054000000540000000000000000000000000000000000000000000000000000000000000000
#0293b1:13230000
#029381:0053000000000000
#029321:00001323
#029351:0000000000530000
#030321:13
#030351:0023000000000000
#030380:0013000000000000
#0303b0:00230000
#030351:00130000
#030321:0000002300000000
#0303b0:0000001300000000
#030380:0023
#030321:0013
#030361:00000023
#0313b1:0013
#031381:00000023
#0323b1:13003323
#032381:0000330000530000
#032320:13003323
#032350:0000330000530000
#037370:1323
#0373b0:00530000
#037321:0013
#037361:00000053
#038321:23
#0383b0:1323
#038370:00530000
#038361:0013
#038321:00000053
#039361:23
#039361:0013000000000000
#039351:003300000000
#039341:000000000033000000000000000000000000000000000000
#039321:00332300
#039370:0013
#0393b0:00000023
#039321:00000013
#040361:23
#0403a0:14000024
#040360:0000005400000000
#041360:1323
#041320:00530000
#0413b1:0013
#041371:00000053
#0423b1:23
#042320:1323
#042360:00530000
#042371:0013
#0423b1:00000053
#043371:23
#043320:13
#043350:00230000
#043381:00130000
#0433b1:0023
#043360:0013
#043320:00000023
#0433b1:00000013
#044371:23
#044320:14000024
#044360:0000005400000000
#0453b0:1323
#045370:00330000
#045390:0000003300000000
#045361:0013
#045321:00000033
#045341:0000000000000033
#046361:23
#0473a1:1454545454545454240000000000000000000000000000000000000000000000
#047391:00540054005400540054005400540054000000000000000000000000000000000000000000000000000000000000000000000000000000000000000000000000
#047330:0000000000000000145454545454545424000000000000000000000000000000
#047340:00000000000000000000000000000000005400540054005400540054005400540000000000000000000000000000000000000000000000000000000000000000
#047391:0000000000000000000000000000000014545454545454542400000000000000
#047381:00000000000000000000000000000000000000000000000000000000000000000054005400540054005400540054005400000000000000000000000000000000
#047320:0000000000000000000000000000000000000000000000001454545454545454
#047330:00000000000000000000000000000000000000000000000000000000000000000000000000000000000000000000000000540054005400540054005400540054
#048320:24
#0483a1:1454545454545454545454545454545434000000000000000000000000000000
#048391:00540054005400540054005400540054005400540054005400540054005400540000000000000000000000000000000000000000000000000000000000000000
#048381:00000054
#0493a1:545454545400
#049391:005400540054005400540054005400540054000000000000
#049381:005400540054005400240000
#048320:0014
#048340:00000054
#049320:545454545400
#049330:005400540054005400540054005400540054000000000000
#049340:005400540054005400240000
#050350:13
#050320:0053
#051350:23
#051381:13
#0513b1:0053
#052381:23
#052350:1323
#052320:00530000
#052381:0013
#0523b1:00000053
#053381:53
#0533b1:0023
#053350:13
#053320:0023
#054380:13
#0553b0:23
#055351:13
#056321:23
#0563b0:1323
#056380:00520000
#056321:0013
#056361:00000052
#057321:23
#0573b0:13
#057380:00520000
#0573a0:0024
#057361:00120000
#057321:0024
#058321:1323
#058361:00530000
#058370:0013
#0583b0:00000053
#059370:23
#059321:13230000
#059351:0053000000000000
#059380:00132300
#0593b0:0000005300000000
#059321:0013
#059361:00000023
#0603b1:13
#060371:00230000
#060321:00001323
#060351:0000000000530000
#0603b0:00000013
#060380:0000000000000053
#0613b0:23
#061331:1454545454545454240000000000000000000000000000000000000000000000
#061321:00540000005400000054000000540000000000000000000000000000000000000000000000000000000000000000000000000000000000000000000000000000
#061341:00000054000000540000005400000054000000000000000000000000000000000000000000000000000000000000000000000000000000000000000000000000
#061390:0000000000000000145454545454545424000000000000000000000000000000
#061380:00000000000000000000000000000000005400000054000000540000005400000000000000000000000000000000000000000000000000000000000000000000
#0613a0:00000000000000000000000000000000000000540000005400000054000000540000000000000000000000000000000000000000000000000000000000000000
#0623b0:1323
#062370:00530000
#062361:0013
#062321:00000053
#063361:23
#0633b0:13230000
#063380:0053000000000000
#063351:00132300
#063321:0000005300000000
#0633b0:0013
#063370:00000023
#064320:0013
#064350:00000023
#0653b0:1333
#065380:000000000000000000000000000000000000000000000000000000000000000000000000000000000000000000000000000000000000000000000000000000000000000000000000000000000000000000000000000000000000000000000000330000000000000000000000000000000000000000000000000000000000000000000000000000000000000000000000000000000000000000000000000000000000000000000000000000000000000000000000000000000000000000000000000000000000000000000000000000000000000000000000000000000000000053000000000000000000000000000000540000000000000000000000000000005500000000000000000000000000000054000000000000000000000000000000530000000000000000000000000000005400000000000000000000000000000055000000000000000000000000000000540000000000000000000000000000005300000000000000000000540000000000000000000000000000000000000000
#066380:26
#065321:1333
#065351:000000330000005300530053
#065341:000000000000000000000000000000000000000000000000000000000000000000000000000000000000000000000000000000000000000000000000000000000000000000000000000000000000000000000000000000000000000000000000000000000000000000000000000000000000000000000000000000000000000000000000000000000000000000000000000000000000000000000000000000000000000000000000000000000000000000000000000000000000000000000000000000000000000000000000000000000000000000000000000000000000000000000000000000000000000000000000540000000000000000000000000000000000000000000000000000000000000054000000000000000000000000000000000000000000000000000000000000005400000000000000000000000000000000000000000000000000000000000000540000000000000000000000000000000000000000000000000000540000000000000000000000000000000000000000
#065331:000000005555
#066321:26
#0663b1:0013
#066371:00000023
#0673b1:1323
#067371:00530000
#067360:0013
#067320:00000023
#068320:13
#068350:005300230000000000000000
#0683b0:000000130053
#068380:000000000000005300330000
#0693b0:23
#069321:13
#069351:0023000000000000
#069380:0013000000000000
#0693b0:00230000
#069321:00130000
#069351:0000002300000000
#0693b0:0000001300000000
#069380:0023
#069351:0013
#069321:0000000000530000
#069361:00000023
#070321:13
#070361:00230000
#070321:0013
#070361:00000023
#071321:1323
#071361:00530000
#071370:0013
#0713b0:00000023
#073340:14
#073320:00330000
#073350:0033
#074320:23
#073381:1433
#0733b1:00330000
#0743b1:23
#0339b0:1323
#033970:00530000
#033951:00001323
#033931:0000000000530000
#033980:00000013
#0339a0:0000000000000053
#034980:23
#034921:1323
#034961:00530000
#034980:00001323
#0349a0:0000000000530000
#034951:00000013
#034931:0000000000000053
#035951:23
#0359b0:1353
#035970:00530053
#0369b0:23
#036921:1353
#036961:00530053
#037921:23
#0749b1:13000053
#074981:0053
#075981:52000052
#0759c1:0052
#0769c1:520000000000000000000000000000000000000000000000000000000000000000000000000000000000000000000000000000000000000000000000000000000000000000000000000000000000000000000000000000000000000000000000000000000000000000000000000000000000000052525200220000000000000000000000000000000000000000000000000000000000000000000000000000000000000000000000000000000000000000000000000000000000000000000000000000000000000000000000000000000000000000000000000000000000000000000000000000000000000000000000
#074920:13000053
#074950:0053
#075960:52000052
#075920:0052
#076920:520000000000000000000000000000000000000000000000000000000000000000000000000000000000000000000000000000000000000000000000000000000000000000000000000000000000000000000000000000000000000000000000000000000000000000000000000000000000000000525252220000000000000000000000000000000000000000000000000000000000000000000000000000000000000000000000000000000000000000000000000000000000000000000000000000000000000000000000000000000000000000000000000000000000000000000000000000000000000000000000
