This file was generated by Ched 2.7.0.0.
#TITLE ""
#ARTIST ""
#DESIGNER ""
#DIFFICULTY 0
#PLAYLEVEL
#SONGID ""
#WAVE ""
#WAVEOFFSET 0
#JACKET ""
#REQUEST "ticks_per_beat 480"
#00002: 4
#BPM01: 150
#00008: 01
#TIL00: ""
#VOLUME: ""
#HISPEED 00
#MEASUREHS 00
#00218:0000130000000013
#0021b:1313
#00215:0000001300001300
#00212:0013000000000000
#00112:00130000
#00115:0000001300001300
#00118:0000000013000013
#0011b:13
#00315:0000001300000000
#00312:1313
#0031b:1313
#00318:00130013
#00718:0000130000000013
#00712:0013000000001300
#00715:0000001300000000
#0071b:1313
#0151b:13130013
#01515:0000001300000013
#01512:0000000000130000
#01518:0013
#01612:0013000000000000
#01615:00130000
#01618:1300001300000000
#0161b:0013
#01613:00000024
#01715:00000013
#01718:0000260000000013
#02218:0000130000130000
#02215:0013000000001300
#02212:0000001300000013
#0221b:1313
#02718:0000001300000000
#02715:13
#02712:0013
#04415:0000000000000013
#04416:0000001400000000
#0441a:14
#04515:0000001300000013
#0451b:13
#04518:0013
#0461b:1313
#04615:0013000000001300
#04618:0000130000130000
#04612:0000001300000013
#0351b:1353
#03512:5313
#0351a:00530000000000530000000000000000
#03519:0053005300000000
#03518:00000053005300000000000000000000
#03513:00000000000000000053000000000053
#03514:0000000000530053
#03515:00000000000000000000005300530000
#03517:00630000
#03516:00000063
#02618:0000130000000013
#0261b:13
#02612:00000013
#02619:0033003300000000
#04016:0000001400000000
#04012:14
#04018:0000000000000013
#00018:0000000000000013
#00015:00000013
#01815:0000130000000013
#01812:1313
#0181b:0013000000000000
#01818:0000001300001300
#02118:0000001300000000
#00915:0000130000000013
#00918:0000001300001300
#00912:0013
#0091b:13
#01015:0013000000001300
#01012:0000001300000000
#01018:0000130000000013
#0101b:1313
#02313:0000001400000000
#02312:0014000000000000
#02319:00240000
#0231a:24
#02318:0024
#02018:0000230000000013
#02015:0023000000001300
#0201b:2323
#02012:0000002300000000
#03016:0000000000000014
#03012:13
#03015:00130000
#0301a:00000024
#03014:0033003300000000
#03712:5313
#0371b:13
#03915:00000014
#03912:0014
#03917:00140000
#0391a:14
#01415:0000130000000013
#01418:0013000000001300
#0141b:0000001300000000
#01412:1313
#00615:0000130000000013
#00612:1313
#00618:0000001300001300
#0061b:0013000000000000
#0051b:00130000
#00518:0000001300001300
#00515:0000000013000013
#00512:13
#00415:0000000000000013
#00418:00000013
#01318:0000130000000013
#01315:0000001300001300
#0131b:0013
#01312:13
#01310:41
#01118:0000001300000000
#0111b:0000000000000013
#01112:13130000
#01115:00001313
#01218:0013001300000000
#0121b:0000000000130013
#01215:00001313
#01212:13130000
#02418:14000013
#02414:14
#02415:0000000000000013
#02515:0000001300000013
#0251b:13
#02518:0013
#02510:41
#0381b:13
#03815:13
#03812:0013
#03818:0013
#0411b:0013
#04112:13
#04110:41
#04317:00000014
#0431a:0014
#04315:00140000
#04312:14
#04212:13
#04218:13
#0421b:0013
#04215:0013
#04916:141414141400
#04915:001600160016001600160016001600160016000000000000
#04914:001800180018001800000000
#04910:41
#0501a:14
#05014:14
#05016:0014
#0501f:11
#05715:00130000
#05718:0000130000000014
#05714:00000014
#05712:24
#0571a:24
#01915:0000001300000013
#02815:00000013
#02818:00000014000000140000001400000014000000000000000000000000000000000000000000000000000000000000000000000000000000001300000000000000
#02819:2414141414141414000000000000000024000000000000000000000000000000
#0281a:00140000001400000014000000140000000000000000000000000000000000000000000000000000000000000000000000000000000000000000000000000000
#02813:0000000000000000241414141414141400000000000000000000000000000000
#02814:00000000000000000000000000000000001400000014000000140000001400000000000000000000000000000000000000000000000000000000000000000000
#02812:00000000000000000000000000000000000000140000001400000014000000140000000000000000000000000000000000000000000000000000000000000000
#02918:0000001300000013
#02912:13
#02915:0013
#03116:0014001400000000
#03115:0000000000000013
#03118:00000013
#03112:2424
#0311a:00240000
#03218:1313
#0321b:00130000
#03212:1313
#03215:00130000
#05414:00140000
#05416:0014
#05418:00000014
#05412:24
#0541a:24
#05518:00140000
#05516:0014
#05514:00000014
#0551a:24
#05512:24
#05614:00140000
#05616:0014
#05618:00000014
#05612:24
#0561a:24
#06613:00140000
#06616:0000001400000000
#06614:00000014
#06617:0000000000000014
#06619:0014
#06713:0000001400000000
#06715:0014000000000000
#06717:00000014
#06712:00000014
#0671a:24
#06718:00240000
#06716:0024
#07116:0000000024000014
#07119:0000001400000000
#07117:0014000000000000
#0711a:00000014
#07112:24
#07114:00240000
#07019:00140000
#07016:0000001400000000
#07018:00000014
#07015:0000000000000014
#07013:0014
#07014:24
#0691a:14000014
#06917:0000140000000014
#06915:14
#06912:00140000
#0721a:0000140000000014
#07212:14000014
#07217:14
#07215:00140000
#07314:0014
#07318:0014
#06815:00140000
#06817:00000014
#0681a:00140000
#06812:00000014
#03612:5313
#0361b:1353
#03619:0053005300000000
#03618:00000053005300000000000000000000
#0361a:00530000000000530000000000000000
#03613:00000000000000000053000000000053
#03614:0000000000530053
#03615:00000000000000000000005300530000
#03617:00630000
#03616:00000063
#0331b:1363
#03310:41
#0331a:00530000000000530053000000000053
#03319:0053005300530053
#03318:00000053005300000000005300530000
#03317:00530053
#03412:1363
#0341b:53
#03413:00530000000000530053000000000053
#03414:0053005300530053
#03415:00000053005300000000005300530000
#03416:00530053
#05118:14
#05112:14
#05116:0014
#0521a:14
#05214:14
#05216:0014
#05318:14
#05312:14
#05316:0014
#06113:2414141414141414000000000000000024000000000000000000000000000000
#06112:00140000001400000014000000140000000000000000000000000000000000000000000000000000000000000000000000000000000000000000000000000000
#06114:00000014000000140000001400000014000000000000000000000000000000000000000000000000000000000000000000000000000000001400000000000000
#06119:0000000000000000241414141414141400000000000000000000000000000000
#06118:00000000000000000000000000000000001400000014000000140000001400000000000000000000000000000000000014000000000000000000000000000000
#0611a:00000000000000000000000000000000000000140000001400000014000000140000000000000000000000000000000000000000000000000000000000000000
#05914:2400000024000014
#0591a:0014000000001400
#05918:0000001400000000
#05912:00240000
#06214:0000140000000014
#06218:0000001400000000
#06212:0014
#0621a:14000014
#06412:00240014
#06416:0014001400000014
#0641a:2424
#06316:0000000000000014
#06312:0014000000002400
#06314:0000001400000000
#06318:2424
#0631a:00240000
#06512:00140014
#06515:2414
#06517:00140014
#0651a:2414
#05818:0000140000000014
#05814:0000001400000000
#0581a:0014
#05812:14000014
#0581f:21
#05810:0041
#06012:0000001400000000
#0601a:14
#06017:0014
#04812:0024
#0481a:24
#04716:00240024
#0471a:24
#04712:0024
#07412:53
#07415:00005353
#0741b:53
#07418:00005353
#07515:53
#07512:00005252
#07518:53
#0751c:00005252
#07612:52
#0761c:52
#04056:0000002400000000
#04052:64
#04852:0064
#02755:53
#02752:0053
#03752:0053
#0375b:63
#03955:00000064
#03952:0064
#03957:00540000
#0395a:54
#02458:64
#02454:54
#0245b:0013
#02452:0013
#0265b:6313
#02658:00630000
#0255b:53
#02558:0063
#0385b:63
#03855:63
#03852:0053
#03858:0053
#04456:0000002400000000
#0445a:54
#0415b:0063
#04152:53
#04357:00000054
#0435a:0054
#04355:00640000
#04352:64
#04252:53
#04258:53
#0425b:0063
#04255:0063
#0455b:53
#04558:0053
#04956:242424242400
#04955:006600560066005600660056006600560066000000000000
#04954:002800280028002800000000
#0505a:14
#05054:14
#05755:00530000
#05752:24
#05758:00630000
#0575a:24
#03052:5313
#03055:00530000
#02952:63
#02955:0053
#03258:6363
#0325b:00630013
#03252:6363
#03255:00630013
#06659:0014
#06655:14
#0665a:14
#07054:14
#07053:0014
#07354:0054
#07358:0064
#07452:53
#0745b:53
#07555:53
#07558:53
#0685a:14540000
#06852:00001464
#06855:14540000
#06857:00001464
#06757:00000064
#06752:00000064
#0695a:5414
#06957:00640000
#06955:5414
#06952:00640000
#05158:14
#05152:14
#0525a:14
#05254:14
#05358:14
#05352:14
#02859:6464646464646464000000000000000000000000000000000000000000000000
#0285a:00240000002400000024000000240000000000000000000000000000000000000000000000000000000000000000000000000000000000000000000000000000
#02858:00000024000000240000002400000024000000000000000000000000000000000000000000000000000000000000000000000000000000000000000000000000
#02853:0000000000000000646464646464646400000000000000000000000000000000
#02854:00000000000000000000000000000000002400000024000000240000002400000000000000000000000000000000000000000000000000000000000000000000
#02852:00000000000000000000000000000000000000240000002400000024000000240000000000000000000000000000000000000000000000000000000000000000
#07257:6414
#0725a:00540000
#07252:6414
#07255:00540000
#06153:5454545454545454000000000000000000000000000000000000000000000000
#06152:00240000002400000024000000240000000000000000000000000000000000000000000000000000000000000000000000000000000000000000000000000000
#06154:00000024000000240000002400000024000000000000000000000000000000000000000000000000000000000000000000000000000000000000000000000000
#06159:0000000000000000545454545454545400000000000000000000000000000000
#06158:00000000000000000000000000000000002400000024000000240000002400000000000000000000000000000000000000000000000000000000000000000000
#0615a:00000000000000000000000000000000000000240000002400000024000000240000000000000000000000000000000000000000000000000000000000000000
#06252:0014
#0625a:14
#06552:00540024
#06555:5454
#06557:00540024
#0655a:5454
#0585a:0014
#05852:14
#0605a:64
#06057:0064
#004350:13332300
#008350:13333323
#016330:00000014
#016320:00000000000000000000000000560056
#017330:24
#017380:000000000000165600000055250000000000000000000000
#017390:00000000000000000000000000000000000000000000000000000000000000000000000000000000000000000000000000000000000000000000000000000000000000000000000000000000000000000000000000000000000000000000000000000000000000000000000000000000000000000000000000000000000000000000000000000000000000000000000000000000000000000000000000000000000000000000000000000000000000000000000000000000000000540000000000000000000000000000000000000000000000000000000000000000000000000000000000000000000000000000000000000000000000000000000000000000000000000000000000000000000000000000000000000000000000000000000000000000005400000000000000000000000000000000000000000000000000000000000000000000000000000000000000000000000000000000000000000000000000000000000000000000000000000000000000000000000000000000000000000000000000000000000000000000000000000000000000000000000000000000000000000000000000000000000000000000000000000000000000000000000000000000000000000000000000000000000000000000000000000000000000000000000000000000000000000000000000000000000000000000000000000000000000000000000000000000000000000000000000000000000000000000000000000000000000000000000000000000000000000000000000000000000000000000000000000000000000000000000000000000000000000000000000000000000000000000000000000000000000000000000000000000000000000000
#0193b0:13230000
#019380:00001323
#021320:13230000
#021350:00001323
#023380:00000000000000001434343424000000
#023341:00000014
#024341:34
#024321:0023
#024380:14
#0243b0:0023
#0253b0:13
#025380:00230000
#025380:0013
#0253b0:00000023
#0263b0:1323
#026390:0033003300000000
#026380:00330000
#027350:13
#027320:00230000
#027320:0013
#027350:00000023
#028390:1454545454545454240000000000000000000000000000000000000000000000
#0283a0:00540000005400000054000000540000000000000000000000000000000000000000000000000000000000000000000000000000000000000000000000000000
#028380:00000054000000540000005400000054000000000000000000000000000000000000000000000000000000000000000000000000000000000000000000000000
#028331:0000000000000000145454545454545424000000000000000000000000000000
#028341:00000000000000000000000000000000005400000054000000540000005400000000000000000000000000000000000000000000000000000000000000000000
#028321:00000000000000000000000000000000000000540000005400000054000000540000000000000000000000000000000000000000000000000000000000000000
#029321:13
#029351:00230000
#029351:0013
#029321:00000023
#030321:1323
#030341:0033003300000000
#030351:00330000
#032381:1333
#0323b1:00330023
#032320:1333
#032350:00330023
#0373b0:13
#037380:00230000
#037320:0013
#037350:00000023
#0383b0:13
#038380:00230000
#038351:13
#038321:00230000
#038321:0013
#038351:00000023
#038380:0013
#0383b0:00000023
#0393a0:1424
#039370:00340000
#039321:0014
#039351:00000034
#040321:34000024
#040361:0000005400000000
#041321:13
#041351:00230000
#0413b1:0013
#041381:00000023
#042321:13
#042351:00230000
#042380:13
#0423b0:00230000
#0423b0:0013
#042380:00000023
#042351:0013
#042321:00000023
#043321:1424
#043351:00340000
#0433a0:0014
#043370:00000034
#0443a0:34000024
#044360:0000005400000000
#0453b0:13
#045380:00230000
#045380:0013
#0453b0:00000023
#0483a0:1454545454545454545454545454545424000000000000000000000000000000
#048390:00540054005400540054005400540054005400540054005400540054005400540000000000000000000000000000000000000000000000000000000000000000
#048321:0014
#049361:545454545400
#049351:005600560056005600560056005600560056000000000000
#049341:005800580058005800280000
#057321:1424
#057351:00330000
#0573a0:1424
#057380:00330000
#0603a0:14
#060370:00240000
#060370:0014
#0603a0:00000024
#061330:1454545454545454240000000000000000000000000000000000000000000000
#061320:00540000005400000054000000540000000000000000000000000000000000000000000000000000000000000000000000000000000000000000000000000000
#061340:00000054000000540000005400000054000000000000000000000000000000000000000000000000000000000000000000000000000000000000000000000000
#061391:0000000000000000145454545454545424000000000000000000000000000000
#061381:00000000000000000000000000000000005400000054000000540000005400000000000000000000000000000000000000000000000000000000000000000000
#0613a1:00000000000000000000000000000000000000540000005400000054000000540000000000000000000000000000000000000000000000000000000000000000
#065351:1434
#065321:00340054
#066351:24
#0653a0:1434
#065370:00340054
#0663a0:24
#067370:00000014
#0673a0:0000000000000034
#0683a0:24
#067321:00000014
#067351:0000000000000034
#068351:24
#068351:00140000
#068321:0000003424000000
#0683a0:00140000
#068370:0000003424000000
#068370:00000014
#0683a0:0000000000000054
#0693a0:3400003424000000
#069370:0034340000000000
#068321:00000014
#068351:0000000000000054
#069351:3400003424000000
#069321:0034340000000000
#072371:1400003424000000
#0723a1:0034340000000000
#072320:1400003424000000
#072350:0034340000000000
#073340:1434
#074320:23
#073381:00143400
#0743b1:23
#0339b0:1353
#033970:00530053
#0349b0:23
#034921:1353
#034961:00530053
#035921:23
#0359b0:1323
#035970:00530000
#035921:0013
#035961:00000053
#036921:23
#0369b0:1323
#036970:00530000
#036921:0013
#036961:00000053
#037921:23
#074921:13
#074951:00005353
#075951:53
#075921:00005252
#076921:000000000000000000000000000000000000000000000000000000000000000000000000000000000000000000000000000000000000000000525252220000000000000000000000000000000000000000000000000000000000000000000000000000000000000000000000000000000000000000000000
#0749b0:13
#074980:00005353
#075980:53
#0759c0:00005252
#0769c0:000000000000000000000000000000000000000000000000000000000000000000000000000000000000000000000000000000000000000000525252220000000000000000000000000000000000000000000000000000000000000000000000000000000000000000000000000000000000000000000000
