This file was generated by Ched 2.7.0.0.
#TITLE ""
#ARTIST ""
#DESIGNER ""
#DIFFICULTY 0
#PLAYLEVEL
#SONGID ""
#WAVE ""
#WAVEOFFSET 0
#JACKET ""
#REQUEST "ticks_per_beat 480"
#00002: 4
#BPM01: 150
#00008: 01
#TIL00: ""
#VOLUME: ""
#HISPEED 00
#MEASUREHS 00
#03112:00000014
#03114:00140000
#03118:0014
#0311a:14
#05215:16
#05315:16
#0011a:1414
#00114:00140014
#00214:00000014
#00318:14
#00312:00140000
#0031a:0014
#00314:00000014
#00912:0014
#0091a:14
#01018:14
#01014:00140000
#01112:14
#0111a:0014
#01218:00140014
#01214:1414
#0131a:0014
#01312:14
#01310:41
#01414:14
#01418:00140000
#0151a:14
#01512:0014
#01618:1414
#01614:00140014
#01712:00000014
#0191a:00000014
#0211a:14
#02112:0014
#0221a:14
#02214:00140000
#02218:0014
#02212:00000014
#02518:00140000
#02514:0014
#0251a:00000014
#02512:24
#02510:41
#0321a:1414
#03218:00140000
#03518:00140000
#0351a:00000014
#03512:24
#03514:0024
#03618:00140000
#0361a:00000014
#03612:24
#03614:0024
#04015:0000001400000000
#04012:14
#04417:0000001400000000
#0441a:14
#04512:14
#0451a:0014
#04614:14
#04618:00140000
#04612:0014
#0461a:00000014
#05115:16
#0231a:14
#02314:00140000
#02318:0014
#02312:00000014
#0181a:14
#01814:00140000
#01818:0014
#0241a:00140000
#02418:14
#02912:14
#02918:00140000
#02914:0014
#0291a:00000014
#03014:00140000
#03012:1414
#0641a:00000014
#06418:00140000
#06414:0014
#06412:14
#06318:00140000
#0631a:1414
#06514:00140000
#06512:2414
#0661a:00140014
#06614:0014
#07212:00140000
#07218:0014
#07214:00000014
#0721a:14
#06812:00140014
#06818:1414
#0701a:00140000
#07014:0014
#07018:00000014
#07012:14
#0731a:1414
#07318:00140000
#07112:14
#07114:00140000
#07113:0034003400000000
#06714:14
#06712:00140000
#06713:0034003400000000
#06918:14
#0691a:00140000
#06919:0034003400000000
#00512:1414
#00518:00140014
#00618:00000014
#00714:14
#0071a:00140000
#00712:0014
#00718:00000014
#02718:00000014
#02712:0014
#02714:14
#0271a:00140000
#02618:00240014
#02614:24
#02612:0024
#0281a:00000014
#02812:00140000
#02814:14
#02813:0034003400000000
#0621a:14
#06214:00140000
#06218:0014
#06212:00000014
#06112:00000014
#0611a:00140000
#06118:14
#06119:0034003400000000
#05814:00140000
#05818:0014
#05812:00000014
#0581a:24
#0581f:21
#05810:0041
#06014:00000014
#0601a:0014
#06018:14
#06012:00140000
#05914:00240014
#05918:24
#0591a:0024
#0501f:11
#02012:24
#02018:00240000
#02014:0024
#05712:26
#03313:00340000
#03314:0034
#03310:41
#03419:00340000
#0341a:0034
#04910:41
#04110:41
#07414:00005454
#07514:54
#07518:00005353
#07618:53
#0325a:6464
#03258:00640014
#04055:0000002400000000
#04052:64
#04457:0000002400000000
#0445a:54
#05055:16
#0245a:00240000
#02458:6414
#02552:14
#03054:00540000
#03052:5454
#06358:00640000
#0635a:6464
#06554:00640000
#06552:6464
#06654:14
#07052:14
#0735a:5454
#07358:00540000
#07152:64
#07154:00240000
#06754:54
#06752:00240000
#06958:64
#0695a:00240000
#05752:56
#02852:00540000
#02854:5414
#0615a:00640000
#06158:6414
#0585a:14
#0023a0:1424
#002390:0034003400000000
#002380:00340000
#004380:1424
#006320:1424
#006330:0034003400000000
#006340:00340000
#008340:1424
#010380:00001424
#014340:00001424
#0173a0:1424
#019320:1424
#024380:1424
#0243a0:00540000
#028340:1424
#028330:0034003400000000
#028320:00340000
#030320:1434
#030340:00340024
#0323a0:1434
#032380:00340024
#033320:14
#033330:00340000
#033340:00003424
#034380:14
#034390:00340000
#0343a0:00003424
#037320:14240000
#037380:00001424
#038340:14240000
#0383a0:00001424
#039340:14340034
#039320:0034
#040320:34000024
#040350:0000005400000000
#0413a0:14240000
#041340:00001424
#042380:14240000
#042320:00001424
#043380:14340034
#0433a0:0034
#0443a0:34000024
#044370:0000005400000000
#047340:14240000
#047380:00001424
#048320:1434
#050350:26
#054380:14343424
#055330:15353525
#056380:16363626
#057320:16
#057350:0026
#061380:1424
#061390:0034003400000000
#0613a0:00340000
#0633a0:1434
#063380:00340024
#065320:1434
#065340:00340000
#066340:24
#067340:14003424
#067330:0034003400000000
#067320:00340000
#069380:14003424
#069390:0034003400000000
#0693a0:00340000
#071320:14003424
#071330:0034003400000000
#071340:00340000
#0733a0:1434
#073380:00340000
#074380:24
#074940:000000000000000000000000000000000000000000000000000000000000000000000000000000000000000000000000000000000000000000000000140000000000000000000000000000000000000000000000000000000000000000000000000000000000000000000000000000000000000000005454
#075940:24
#075980:000000000000000000000000000000000000000000000000000000000000000000000000000000000000000000000000000000000000000000000000130000000000000000000000000000000000000000000000000000000000000000000000000000000000000000000000000000000000000000005353
#076980:23
