This file was generated by Ched 2.7.0.0.
#TITLE ""
#ARTIST ""
#DESIGNER ""
#DIFFICULTY 0
#PLAYLEVEL
#SONGID ""
#WAVE ""
#WAVEOFFSET 0
#JACKET ""
#REQUEST "ticks_per_beat 480"
#00002: 4
#BPM01: 115
#00008: 01
#TIL00: ""
#VOLUME: ""
#HISPEED 00
#MEASUREHS 00
#0021a:14
#00314:14
#00414:14
#00518:14
#00618:14
#00712:14
#00812:14
#00810:41
#01414:14
#01410:41
#01518:14
#01612:14
#02812:14
#0301a:14
#0291a:14
#03114:14
#03214:14
#03318:14
#03418:14
#03918:0014
#03912:24
#04012:14
#04018:0014
#04114:14
#0411a:0014
#04214:14
#0421a:0014
#04312:14
#04318:0014
#04412:14
#04418:0014
#04514:14
#0451a:0014
#04614:14
#0461a:0014
#04718:0014
#04712:24
#04710:41
#04814:14
#0481a:0014
#04912:1414
#0501a:1414
#05112:2616
#05118:00160000
#0011a:14
#0131a:14
#02518:14
#02712:14
#0271f:11
#03518:0016
#03512:26
#0351f:21
#03510:0041
#03718:16
#03712:0016
#05218:1616
#05212:00160000
#05312:1616
#05318:00160000
#05618:14
#02010:41
#02610:41
#0093a0:14
#0103a0:24
#011320:14
#012320:24
#0173a0:14
#0183a0:24
#019340:14
#020340:24
#021380:14
#022380:24
#023320:14
#024320:24
#036320:1626
#038380:1626
#054380:14343424
#055340:14343424
