This file was generated by Ched 2.7.0.0.
#TITLE ""
#ARTIST ""
#DESIGNER ""
#DIFFICULTY 0
#PLAYLEVEL
#SONGID ""
#WAVE ""
#WAVEOFFSET 0
#JACKET ""
#REQUEST "ticks_per_beat 480"
#00002: 4
#BPM01: 115
#00008: 01
#TIL00: ""
#VOLUME: ""
#HISPEED 00
#MEASUREHS 00
#0001b:0000000000000013
#00016:0000000000000013
#0011b:00001300000000130000000000000000
#00115:00000013000000130000000013000000
#00112:23000000001300000013000000000000
#00118:0000130000130013
#00117:23
#00218:00130000000000130000130000000000
#00212:13000000001300000013000000001300
#00215:00001300000000130000001300000000
#0021b:00000013000000000000000013000000
#00412:1300000013000013
#00416:0000001300000000
#00417:1300000013000013
#0041b:0000001300000000
#00812:1300000000000013
#0081b:1300000000000013
#00815:00001213
#00818:00000013
#00819:0012
#00810:41
#01012:1300000000131300
#0101b:00001300130000130000000000001300
#01017:13
#01016:00000033000000130000000000000000
#01015:0000000000000013
#01018:00000000000000000033000000000000
#0121b:1300000000130000
#01216:13
#01212:00000013130000000000130000000000
#01218:00000000000000130000000000000013
#01215:00000000000000130000000000001300
#0131a:24000000000000001400001400001400
#01315:0000000000131300
#01312:2400000013000013
#01712:14000000130000000013000000001313
#0171a:14
#0171b:00000000000013130000000013000000
#01718:00130000
#01715:00000013
#03916:00140014
#03912:2313
#0391b:2313
#04012:1313
#04016:00140014
#0401b:13001313
#04018:00000000000000000000000000333333
#04112:00000013000000000000001300000000
#04115:00000000333333000000000000001300
#04118:00000000000000000000000000000013
#0411b:00000000000000130013000000000000
#04117:00000000000000000000001300000000
#04116:0013
#0431b:1313
#04312:1313
#04316:00140014
#04718:0013001313000000
#04715:00000013001300000013000000000000
#0471b:23000000130000000000001300000000
#04719:0000000000000013
#04712:23000000000000130000001300000000
#04714:0000000000000013
#04710:41
#00318:1313000000000000
#00315:00130000000000000000000000000000
#00312:00000013001300000000000013000000
#0031b:00000000130000130000000000001300
#00316:0013
#00319:00000000000000000013000000000000
#00314:0000000000130000
#00317:00000000000000000000001300000000
#00512:00001300000000130000000000000000
#00518:00000013000000130000000013000000
#0051b:23000000001300000013000000000000
#00515:0000130000130013
#00516:23
#00615:00000000000013000013000000130000
#00618:00000000000000130000000000001300
#0061b:13000000130000000013000000000000
#00612:1313000000000000
#00715:1313000000000000
#00718:00130000000000000000000000000000
#0071b:00000013001300001300000000000000
#00712:00000000130000000000001300000000
#00716:00000000000000130000000000000000
#00714:00000000000000000013000000130000
#00719:0000000000130013
#00717:00000013
#0091b:00000013000000000013000000001300
#00915:00000013000000000013000000001300
#00912:0000001300001300
#00918:0000001300001300
#01112:00000013000000000013000000001300
#01118:00000013000000000013000000001300
#0111b:0000001300001300
#01115:0000001300001300
#01412:00000000000000001400001400001400
#01418:0000000000131300
#0141b:0000000013000013
#01410:41
#0151a:00000000000000001400001400001400
#01515:0000000000131300
#01512:0000000013000013
#01612:00000000000000001400001400001400
#01618:0000000000131300
#0161b:0000000013000013
#0181b:00130000130000000000000000000000
#01812:00130000
#01818:00000000000000130000000013000000
#01815:00000000000000130000001313000000
#01912:14000000000013130000000013000000
#0191a:14
#0191b:00000000130000000013000000001313
#01915:00130000
#01918:00000013
#02212:00000000130000000000001313000000
#02217:00000000000000000000001313000000
#02216:00000000000013130000000000001300
#0221b:00000000130013130000000000001300
#02312:14000000130013130000000000001313
#0231a:14
#0231b:00000000000013130000000013001313
#02318:00130000
#02315:00000013
#02116:00000000000013130000000000000000
#02112:14000000130000000000000013001313
#0211b:00000000130013130000000013000000
#02117:00000000000000000000000000001313
#0211a:14
#02412:00000000130013130000000000001300
#0241b:00000000000013130000001313000000
#02418:00130000
#02416:00000000000000000000001313000000
#02417:0000000000000013
#02516:00000000000000121200000000000012
#0251c:0000000000120000
#02512:00000012
#02518:00000000000000000000000000120000
#0251b:23
#0261a:0012
#02614:00120000
#0261b:0000000000000013
#02616:0000000000000013
#02610:41
#0271b:00001300000000130000000000000000
#02715:00000013000000130000001300001300
#02712:23000000001300000013000000000000
#02718:0000130000131300
#0271f:11
#02717:23
#02816:00000000000000000013000000000000
#02812:13000000130000000000001300000000
#0281b:13000000001300003300000000000000
#02818:00000013000000130000000000000000
#02815:0000001300000000
#02817:00000000000000000000001300000000
#03218:00000000000000000013000000001300
#0321b:00000000000000130000000013000000
#03212:00000000000000000000000000130000
#03215:00000000000000000000001300000000
#02915:1300000000130000
#02912:0013000013000000
#0291b:1300000000130000
#02918:0013000013000000
#02913:00000033000000000000000000000000
#02919:00000033000000000000000000000000
#0291a:00000000000000000000003300000000
#02914:00000000000000000000003300000000
#03016:13000000000000330000000000001300
#0301b:00000000003300330000000000001300
#03017:00130013
#03012:0000001300001300
#03315:13000000001300000000130000000000
#03318:00130000130000000000001300000000
#03312:00001300000000130000000013000000
#0331b:00000000000013000013000000000000
#0341b:00001313
#03412:13000013
#03417:13
#03418:0000000000000013
#03415:00330033330033330000000000001300
#04212:13000013000000001300000000000000
#04216:00000000001300000000130000001300
#0421b:00000000001300000013000000000000
#04217:00000013000000130000000013000000
#04412:13001313
#04416:00140014
#0441b:1313
#04415:00000000000000000000000000333333
#04614:00000053000000530000006300001300
#04619:00000053000000530000006300001300
#04612:5313000053130000
#04617:5313000053130000
#04616:0000531300006300
#0461b:0000531300006300
#0481b:13000000000000130000001300000000
#04812:13000000130000000000001300130000
#04818:00000013001300000013000000001300
#04815:00001300000013001300000000000013
#04912:00000000000013000000001300000000
#04917:00000000000000000000001300000000
#0491b:13000013000000000013000000130000
#04915:0000130013000013
#04918:00000000001300130000000000000013
#05018:00000013000000130000160000001300
#05012:1313000000001800
#05014:0014
#05015:0000130000000013
#0501b:00000000001300000000000000000000
#05118:0013001313000000
#05115:00000013001300000013000000000000
#0511b:23000000130000000000001300000000
#05119:0000000000000013
#05112:23000000000000130000001300000000
#05114:0000000000000013
#0531b:13000013000000000013000000001313
#05312:00000000000013000000001300000000
#05317:00000000000000000000001300000000
#05315:00131300
#05318:00000000001300130000000000000000
#05415:13
#0541a:00001313000000000000000000000000
#05414:00140000
#05419:00000000000013130000000000000000
#05413:0015
#05418:00000000000000000000131300000000
#05412:00000000000000000000000016001313
#05513:00001313000000000000000000000000
#05514:00000000000013130000000000000000
#05515:00000000000000000000131300000000
#05518:23242526
#0361b:1300000000131300
#03612:00001300130000130000000000001300
#03616:13
#03617:00000033000000130000000000000000
#03618:0000000000000013
#03615:00000000000000000033000000000000
#03512:00000013000000000013000000001300
#03518:00000013000000000013000000001300
#0351b:0000001300001300
#03515:0000001300001300
#0351f:21
#03510:0041
#0371b:00000013000000000013000000001300
#03715:00000013000000000013000000000000
#03712:0000001300000000
#03718:0000001300000000
#03716:0000000000000013
#03818:0013001326000000
#03815:00000013000000130000002600000000
#0381b:00130000
#03812:23000000001300000000000000002600
#0451b:00000013000000000000001300001300
#04512:00000000000000130013000000000000
#04516:00000000000000000000001300001300
#04517:0013
#04518:00000000333333000000000000000000
#04519:00000000000000000000000000000053
#04514:00000000000000000000000000000053
#0521b:23000000000000130000001300000000
#05212:23000000130000000000001300130000
#05218:00000013001300000013000000001300
#05215:00001300000013001300000000000013
#02012:00130000130000000000000000000000
#0201b:00130000
#02015:00000000000000130000000013000000
#02018:00000000000000130000001313000000
#02010:41
#03112:00001300000000130000000000000000
#03118:00000013000000130000001300001300
#0311b:23000000001300000013000000000000
#03115:0000130000131300
#03116:23
#00858:00000053
#00852:1300000000000023
#0085b:1300000000000023
#00855:00000063
#01052:53000013
#0105b:00000000130000630000000000006300
#01056:00130000
#01057:00000013
#01055:0000000000000063
#0125b:6300000000630000
#01258:00000000000000630000000013000000
#01255:00000000000000530000000013000000
#01252:0000000000530000
#0135a:00000000000000001400001400001400
#03956:00140014
#04056:00140014
#0405b:00000053
#04152:00000063000000000000001300000000
#04157:00000000000000000000001300000000
#0015b:00000000000000530000000000000000
#00158:0000000000630000
#00155:00000053
#0025b:00000053000000000000000013000000
#00258:00000000000000630000000000000000
#00252:0000000000000013
#00352:00000063
#00452:1363
#00457:1363
#00456:00000000000000000000001300000000
#0045b:00000000000000000000001300000000
#00655:00000000000000000053000000130000
#00658:00000000000000630000000000001300
#0065b:53000000000000000053000000000000
#00652:0063000000000000
#00552:00000000000000630000000000000000
#00555:0000000000530000
#00558:00000063
#0095b:00000053000000000053000000001300
#00955:13000053000000000053000000001300
#00952:0000006300001300
#00958:1300006300001300
#01152:13000063000000000063000000001300
#01158:13000063000000000063000000001300
#0115b:0000005300001300
#01155:0000005300001300
#01452:00000000000000001400001400001400
#0155a:00000000000000001400001400001400
#01652:00000000000000001400001400001400
#01752:14000000630000000013000000000063
#0175b:00000000000000530000000053000000
#01757:00000000000000000013000000000000
#0175a:14
#0185b:00130000530000000013000000000000
#01852:00000000630000000013000000000000
#01858:00000000000000630000000063000000
#01855:00000000000000530000000053000000
#01856:00130000000000000000000000000000
#01952:14000000000000630000000063000000
#0195a:14
#0195b:00000000530000000013000000000053
#01956:00000000000000000013000000000000
#02352:14000000000000630000000000000063
#0235a:14
#02355:00000000000000000013000000000000
#0235b:00000000000000530000000000000053
#02358:00000000000000000013000000000000
#02152:14000000000000000013000000000053
#02156:00000000000000530000000000000000
#0215b:00000000000000630000000000000000
#02157:00000000000000000013000000000063
#0215a:14
#02455:00130000000000000013000000000000
#02458:00130000000000000013000000000000
#02452:00000000000000630000000000000000
#0245b:00000000000000530000000000000000
#0255c:0000000000520000
#02856:00000000000000000013000000000000
#02852:00000000000000000000001300000000
#02858:00000000000000530000000000000000
#02857:00000000000000000000001300000000
#0285b:00000000000000000013000000000000
#0275b:00000000000000530000000000000000
#02758:00000063
#03258:00000000000000000063000000001300
#0325b:00000000000000530000000000000000
#02955:5300430000230000
#02952:0023000063003300
#0295b:5300430000230000
#02958:0023000063003300
#03057:00530000
#0305b:0013
#03052:0000005300000000
#03056:0013
#03352:00001300000000630000000000000000
#0335b:0000001300000000
#03452:53000053
#03458:0000000000000023
#0345b:00000063
#03455:0000000000000023
#04252:00000053000000000000000000000000
#04256:00000000005300000000530000001300
#04257:00000063
#04356:00140014
#04456:00140014
#04452:00000063
#04752:00000000000000000000001300000000
#0475b:00000000000000000000001300000000
#04952:00000000000000000000001300000000
#04957:00000000000000000000001300000000
#05058:0000000000160053
#05052:00000018
#05054:0014
#05055:0000000000000053
#05155:00000000000000000013000000000000
#05152:13000000000000000000001300000000
#0515b:13000000000000000000001300000000
#0535b:13000000000000000013000000000000
#05352:00000000000000000000001300000000
#05357:00000000000000000000001300000000
#05455:33
#05453:0035
#05454:00340000
#05452:00000036
#05558:43444546
#0225b:00130000000000630000000000000000
#02256:00130000000000530000000000000000
#02252:00000000000000000013000000000000
#02257:00000000000000000013000000000000
#0355b:4300005300001300
#03552:33000063000000000063000000001300
#03558:00000063000000000063000000001300
#03555:0000005300001300
#0365b:63000013
#03652:00000000130000530000000000005300
#03658:0000000000000053
#03657:00130000
#03656:00000013
#0375b:13000053000000000053000000000000
#03755:13000053000000000053000000000000
#03752:0000006300000000
#03758:0000006300000000
#03852:0000000000000016
#03855:00000000000000000000001600000000
#03858:0016
#0455b:00000053000000000000001300000000
#04556:00000000000000000000001300000000
#0525b:00000000000000000000001300000000
#05252:00000000000000000000001300000000
#05258:00000000000000000013000000000000
#0485b:00000000000000000000001300000000
#04852:00000000000000000000001300000000
#05657:12
#02052:00130000630000000013000000000000
#0205b:00000000530000000013000000000000
#02055:00000000000000530000000053000000
#02058:00000000000000630000000063000000
#02057:00130000000000000000000000000000
#03152:00000000000000630000000000000000
#03155:00000053
#0013b0:00000000000000130000000000000000
#001380:00000000000000000023000000000000
#001380:0000000000130000
#0013b0:00000023
#001351:00000013
#001321:0000000000000023
#0023b1:00000013000000000000000000000000
#002381:00000000002300000000000000000000
#002381:00000000000000130000000000000000
#0023b1:00000000000000000023000000000000
#003321:00000013
#003361:0000000000000023
#004371:0013
#0043b1:00000000000000000000002300000000
#004320:0013
#004360:00000000000000000000002300000000
#005320:00000000000000130000000000000000
#005350:00000000000000000023000000000000
#005350:0000000000130000
#005320:00000023
#005381:00000013
#0053b1:0000000000000023
#0063b1:13
#006371:0023000000000000
#006320:0013000000000000
#006360:00230000
#006380:00000000000000130000002300000000
#0063b0:00000000000000000033000000000000
#006351:00000000000000000013000000000000
#006321:00000000000000000000002300000000
#008381:00000013
#0083b1:0000000000000053
#009381:23
#008350:00000013
#008320:0000000000000053
#009350:23
#0093b0:00000013000000000000000000000000
#009380:00000000002300000000000000000000
#009351:00000013000000000000000000000000
#009321:00000000002300000000000000000000
#009321:0000001300000000
#009351:0023
#009380:0000001300000000
#0093b0:0023
#0093b0:00000000000000000013000000000000
#009380:00000000000000000000002300000000
#009351:00000000000000000013000000000000
#009321:00000000000000000000002300000000
#010321:13
#010361:00003333230000000000000000000000
#0103b1:00000000000000130000000000000000
#010381:00000000000000000033000000000000
#010371:00000000000000000000333323000000
#0103b1:0000000000000013
#011381:23
#010350:0000000000000013
#011320:23
#011320:00000013000000000000000000000000
#011350:00000000002300000000000000000000
#011381:00000013000000000000000000000000
#0113b1:00000000002300000000000000000000
#0113b1:0000001300000000
#011381:0023
#011350:0000001300000000
#011320:0023
#011320:00000000000000000013000000000000
#011350:00000000000000000000002300000000
#011381:00000000000000000013000000000000
#0113b1:00000000000000000000002300000000
#0123b1:13
#012371:00000033230000000000000000000000
#012351:00000000000000130000000000000000
#012321:00000000000000000023000000000000
#012380:00000000000000130000000000000000
#0123b0:00000000000000000023000000000000
#012320:0000000000130000
#012350:00000023
#0123b1:0000000000130000
#012381:00000023
#013321:1424000000000000
#0133a0:1424000000000000
#013320:0000142400000000
#0133a1:0000142400000000
#0143a1:1424000000000000
#014320:1424000000000000
#0143a0:0000142400000000
#014321:0000142400000000
#015351:1424000000000000
#0153a0:1424000000000000
#015320:0000142400000000
#015371:0000142400000000
#016371:1424000000000000
#016320:1424000000000000
#0163a0:0000142400000000
#016351:0000142400000000
#017321:00130000
#017361:00000000000033230000000000000000
#0173b0:00000000000000130000000000000000
#017370:00000000000000000023000000000000
#0173b0:00000013
#017370:00000000000000000000000000003323
#017321:00000000000000000000000000000013
#018361:00230000000000000000000000000000
#0183b1:00130000
#018381:0000002300000000
#018320:00130000
#018350:0000002300000000
#018380:00000000000000130000000000000000
#0183b0:00000000000000000023000000000000
#018351:00000000000000130000000000000000
#018321:00000000000000000023000000000000
#018381:00000013
#0183b1:0000000000000023
#018350:00000013
#018320:0000000000000023
#0193b0:00130000
#019370:00000000000033230000000000000000
#019321:00000000000000130000000000000000
#019361:00000000000000000023000000000000
#019321:00000013
#019361:00000000000000000000000000003323
#0193b0:00000000000000000000000000000013
#020370:00230000000000000000000000000000
#020320:00130000
#020350:0000002300000000
#0203b1:00130000
#020381:0000002300000000
#020351:00000000000000130000000000000000
#020321:00000000000000000023000000000000
#020380:00000000000000130000000000000000
#0203b0:00000000000000000023000000000000
#020350:00000013
#020320:0000000000000023
#020381:00000013
#0203b1:0000000000000023
#021361:00000000000000130000000000000000
#021321:00000000000000000023000000000000
#0213b0:00000000000000130000000000000000
#021370:00000000000000000023000000000000
#021370:00000000000000000000000000000013
#0223b0:00230000000000000000000000000000
#021321:00000000000000000000000000000013
#022361:00230000000000000000000000000000
#022361:00000000000000130000000000000000
#022321:00000000000000000023000000000000
#0223b0:00000000000000130000000000000000
#022370:00000000000000000023000000000000
#023320:00000000000000130000000000000000
#023350:00000000000000000023000000000000
#0233b1:00000000000000130000000000000000
#023381:00000000000000000023000000000000
#023321:00000000000000000000000000000013
#024351:00230000000000000000000000000000
#0233b0:00000000000000000000000000000013
#024380:00230000000000000000000000000000
#024320:00000000000000130000000000000000
#024350:00000000000000000023000000000000
#0243b1:00000000000000130000000000000000
#024381:00000000000000000023000000000000
#0253c1:0000000000120000
#025381:00000022
#0273b1:00000000000000130000000000000000
#027381:00000000000000000023000000000000
#027381:00000013
#0273b1:0000000000000023
#028381:00000000000000130000000000000000
#0283b1:00000000000000003323000000000000
#029351:13230000
#029321:0033000000000000
#029331:00000033000000000000000000000000
#0293b0:13230000
#029380:0033000000000000
#029390:00000033000000000000000000000000
#029380:00001323
#0293b0:0000000000330000
#0293a0:00000000000000000000003300000000
#029321:00001323
#029351:0000000000330000
#029341:00000000000000000000003300000000
#0303b1:1323000000000000
#030320:0013230000000000
#030371:00130000
#0303b1:00000000003333332300000000000000
#030320:0000001300000000
#030360:00000000000000332300000000000000
#031320:00000000000000130000000000000000
#031350:00000000000000000023000000000000
#031350:00000013
#031320:0000000000000023
#0323b0:1323000000000000
#032351:1323000000000000
#032321:0000132300000000
#032380:0000132300000000
#0323b0:00000000000000130000002300000000
#032380:00000000000000000033000000000000
#033320:00000000000000130000000000000000
#033350:00000000000000000023000000000000
#034320:13
#034350:00330033330033330000000000000000
#034360:0023
#0343b0:00000013
#034380:0000000000000053
#0353b0:23
#034321:00000013
#034351:0000000000000053
#035321:23
#035321:00000013000000000000000000000000
#035351:00000000002300000000000000000000
#035380:00000013000000000000000000000000
#0353b0:00000000002300000000000000000000
#0353b0:0000001300000000
#035380:0023
#035351:0000001300000000
#035321:0023
#035321:00000000000000000013000000000000
#035351:00000000000000000000002300000000
#035380:00000000000000000013000000000000
#0353b0:00000000000000000000002300000000
#0363b0:13
#036370:00003333230000000000000000000000
#036320:00000000000000130000000000000000
#036350:00000000000000000033000000000000
#036360:00000000000000000000333323000000
#036320:0000000000000013
#037350:23
#036381:0000000000000013
#0373b1:23
#0373b1:00000013000000000000000000000000
#037381:00000000002300000000000000000000
#037350:00000013000000000000000000000000
#037320:00000000002300000000000000000000
#037320:0000001300000000
#037350:0023
#037381:0000001300000000
#0373b1:0023
#0373b1:00000000000000000013000000000000
#037381:00000000000000000000002300000000
#037350:00000000000000000013000000000000
#037320:00000000000000000000002300000000
#0403b0:00000013
#040380:00000000000000000000000000333333
#041370:23
#041320:00000013000000000000000000000000
#041350:00000000333333000000000000000000
#041360:00000000000000230000000000000000
#042320:00000013000000230000000000000000
#042360:00000000003300000000000000000000
#042360:0000000000130000
#042320:00000023
#042371:00000013
#0423b1:0000000000000023
#044321:00000013
#044351:00000000000000000000000000333333
#045361:23
#0453b1:00000013000000000000000000000000
#045381:00000000333333000000000000000000
#045371:00000000000000230000000000000000
#050381:0000000000000013
#0513b1:23
#050350:0000000000000013
#051320:23
#055370:00000000000000000000000000001232
#056370:22
#045960:0000000000000013
#046920:23
#0459b1:0000000000000013
#046971:23
#046971:0013000000000000
#0469b1:00230000
#046920:0013000000000000
#046960:00230000
#046960:0000001300000000
#046920:0023
#0469b1:0000001300000000
#046971:0023
#046971:0000000000130000
#0469b1:00000023
#046920:0000000000130000
#046960:00000023
