This file was generated by Ched 2.7.0.0.
#TITLE ""
#ARTIST ""
#DESIGNER ""
#DIFFICULTY 0
#PLAYLEVEL
#SONGID ""
#WAVE ""
#WAVEOFFSET 0
#JACKET ""
#REQUEST "ticks_per_beat 480"
#00002: 4
#BPM01: 115
#00008: 01
#TIL00: ""
#VOLUME: ""
#HISPEED 00
#MEASUREHS 00
#00212:1414
#01412:1414
#0141a:14
#01410:41
#0151a:1414
#01514:14
#01612:1414
#01618:14
#0281a:1414
#02814:00140000
#02912:14
#0291a:0014
#03912:2414
#03918:00140000
#0421a:1414
#04214:00140000
#0561a:14
#0011a:2414
#00112:24
#00318:1414
#0061a:1414
#00512:1414
#0051a:14
#00714:1414
#0131a:2414
#01312:24
#02614:00140000
#02618:0014
#02610:41
#02712:2414
#02718:00140000
#0271f:11
#03212:1414
#03218:00140000
#03318:1414
#03314:00140000
#0311a:1414
#03114:00140000
#03412:14
#0341a:14
#03812:0014
#0381a:0014
#0471a:00140014
#04714:0014
#04712:24
#04710:41
#04812:14
#0481a:00140014
#04814:0014
#04912:14
#0491a:0014
#05012:14
#0501a:0014
#05014:00000014
#05112:00140014
#05118:0014
#0511a:24
#0521a:14
#05212:00140014
#05218:0014
#0531a:14
#05312:0014
#0541a:14
#05414:00140000
#05418:0014
#05412:00000014
#0551a:14
#05514:00140000
#05518:0014
#05512:00000014
#0251a:14
#02512:14
#0401a:1414
#04014:00140000
#04112:1414
#04118:00140000
#0351f:21
#03510:0041
#00810:41
#02010:41
#04952:14
#0495a:0014
#05052:14
#0505a:0014
#0535a:14
#05352:0014
#02952:14
#0295a:0014
#004340:1424
#008380:1424
#009340:14
#009320:0034
#010340:34
#010320:0024
#011380:14
#0113a0:0034
#012380:3424
#017380:14
#0173a0:0024
#018340:14
#018320:0024
#0193a0:14
#019380:0024
#020320:14
#020340:0024
#021380:14
#0213a0:0024
#022340:14
#022320:0024
#0233a0:14
#023380:0024
#024320:14
#024340:0024
#030340:14
#030320:0024
#035340:14
#035320:0034
#036340:34
#036320:0024
#037380:14
#0373a0:0034
#038380:24
#043320:1424
#043340:00340000
#0443a0:1424
#044380:00340000
#045340:1424
#045320:00340000
#046380:1424
#0463a0:00340000
