This file was generated by Ched 2.7.0.0.
#TITLE ""
#ARTIST ""
#DESIGNER ""
#DIFFICULTY 0
#PLAYLEVEL
#SONGID ""
#WAVE ""
#WAVEOFFSET 0
#JACKET ""
#REQUEST "ticks_per_beat 480"
#00002: 4
#BPM01: 138
#00008: 01
#TIL00: ""
#VOLUME: ""
#HISPEED 00
#MEASUREHS 00
#00412:16
#0121a:14
#01518:14
#03118:00000016
#03112:00260000
#03318:00160000
#03312:00000016
#04312:00000014
#0461a:00000014
#0651a:0014
#04212:00140000
#0451a:00140000
#00618:0000000000160000
#02012:14
#03512:00160000
#03518:00000016
#03510:00410000
#04818:00000016
#04812:00260000
#0481f:00210000
#05018:00160000
#05012:00000016
#05212:00160000
#05218:00000016
#0411f:00110000
#00018:0026000000000000
#00012:00000026
#00118:0000002600000000
#0631a:00240000
#06312:00000024
#0641a:00240000
#0691a:0000000000240000
#06912:0000000000240000
#06612:0000000000000024
#06812:0024000000000000
#00518:0000002600000000
#03718:00260000
#03712:00000026
#03818:00260000
#00212:00000026
#05418:00260000
#05412:00000026
#05518:00260000
#01014:0034
#00810:41
#01910:41
#02710:0041
#04910:0041
#05910:00410000
#008320:14
#008340:0000000000000034
#010340:0034000034000000
#011320:24
#013340:14
#014340:0024
#016320:14
#016340:0000000000000034
#018340:0034000000000000
#019320:24
#0213a0:14
#021380:0000000000000034
#022380:0034
#023380:24
#024320:14
#025320:24
#025380:00000014
#026380:00000024
#027340:0014
#028340:0024
#0293a0:00140000
#0303a0:00240000
#032320:00160026
#034380:00160026
#036320:00160026
#038380:00160000
#039380:00260000
#040320:00140000
#041320:00240000
#049320:00160026
#051380:00160026
#053320:00160026
#055380:00160000
#056380:00260000
#057320:00140000
#058320:00240000
#059380:00140000
#060380:00240000
#061340:00140000
#062340:00240000
