This file was generated by Ched 2.7.0.0.
#TITLE ""
#ARTIST ""
#DESIGNER ""
#DIFFICULTY 0
#PLAYLEVEL
#SONGID ""
#WAVE ""
#WAVEOFFSET 0
#JACKET ""
#REQUEST "ticks_per_beat 480"
#00002: 4
#BPM01: 138
#00008: 01
#TIL00: ""
#VOLUME: ""
#HISPEED 00
#MEASUREHS 00
#0251b:1313
#02512:13001313
#02518:00130000
#0261b:00000013
#02612:00000013
#02615:13
#02618:0013
#04012:00140000
#04018:26
#0031b:00130000000000333300000000000000
#00318:00000013000000000000000000000013
#00312:00000000000000000000001300000000
#00315:00000000001300000000000000130000
#0041b:00000000001300000000000000000000
#00418:00000000000000130000000054005400
#0041a:0000000000140000
#00415:00000000000000000013000000000000
#00412:00333300000000000000000000000000
#00419:00000000000000000000005400000054
#00417:00000000000000000000000000540000
#00812:0000000000000013
#0081b:13
#00810:41
#00816:54
#00918:0000000000000013
#00915:00000000000000130000000000000000
#01012:0013000000000000
#01018:0013
#01015:00000000000000000013000000000000
#0101b:00000000000000000000001300000000
#0131b:13000000000000130000000000000000
#01312:1313000000000013
#01318:00000000130000000000000000130000
#01315:00000000001300000000000013000000
#01218:13
#0121b:00003300333300130000000000000000
#01214:53
#01515:1313000000000000
#0151b:00130000
#01518:00000000000000130000000000000000
#01512:00000000001300000000000000000000
#01618:00001300001300000000000000001300
#01615:00130000
#01612:23000000000000130000000000000000
#01715:0000130000000013
#01718:00000000001300000000000013000000
#01712:00000000000000130000000013000000
#0171b:0000000000000013
#01815:00001300000000000013000000000000
#01818:0000000013130000
#01915:00001300001300001300000000130000
#01912:13000000000000000000130000000013
#01918:00130000000013000000001300001300
#0191b:00000013000000000013000000000000
#01910:41
#02018:00130000
#0201b:00000000000000130000000000000000
#02015:00000000001300000000000000000000
#02115:1313000000000013
#02118:00000000130000130000000000000000
#0211b:0000000000000013
#02112:00000000001300000000000000000000
#02418:00130000
#02415:00000013
#0241b:13
#02715:13
#02712:00130013
#0271b:00130000
#02718:0023
#02710:0041
#03115:00000000000013000000001300000000
#03112:00130000000000001300000000001300
#03118:00000000000000130000130000000000
#0311b:00230013
#03218:13
#03215:0013000000001300
#03312:00130013
#03318:00000000000013000000001300000000
#0331b:0000000013000013
#03315:00000000000000130000130000000000
#03412:0000001300000000
#03415:13003323
#03418:0013000000000000
#03518:2300001300001300
#03512:0000230000000013
#03515:00000000000000130000001300000000
#0351b:0013
#03510:00410000
#03615:13
#03618:0013000000001300
#04218:0000130013130000
#04212:00130000
#04215:00000000000000000013000000000000
#04315:0013000013000000
#04312:00130000
#0431b:0000001300000000
#04318:00000013000000000000130000000000
#0441b:00000013000000000000000000000000
#04515:00000053000000000000000000001300
#04512:13
#0451b:00130000
#04518:00000000000000000000000000000013
#04513:00530000000000000000000000000000
#04514:0053000000000000
#04516:00530000
#04612:1300000000130000
#04618:00001300000000000013000000000053
#04615:00131300
#0461b:0000001300001300
#0461a:00000000000000000000000000530000
#04619:0000000000000053
#04712:1313
#0471b:00130000
#04715:00000053000000000033000000000000
#04717:5353
#04713:00530000000000000000000000000000
#04714:0053000000000000
#04716:00530000
#0471a:00000000005300000000000000000000
#04719:0000005300000000
#04718:00000000000000530000000000000000
#05618:0000000000000013
#05715:13
#0571b:0013000000000000
#05717:00000000000000000000000000000013
#05912:1313000000000000
#05916:00000000000000000000000000000013
#05910:00410000
#06115:13
#0611b:13
#06112:00130000
#06118:00130000
#06415:00000000000000000013000000130000
#06418:00000000000000000000001300000000
#0641a:24
#06412:00000000003333000000000000000000
#0641b:00000000000000000000000000000033
#06518:00000013000000130000000000000013
#06515:00000000001300000000000000130000
#0651b:33
#06512:00000000000000000033330000000000
#06615:00130000000000000000005400000000
#0661a:0014000054000000
#06612:0000000014000054
#0661b:0000000000000023
#06618:00000000540054000000000000000033
#06619:00000054000000540000000000000000
#06617:00000000005400000000000000000000
#06613:00000000000000000054000000540000
#06614:0000000000545400
#00512:14000000000054000000001300000000
#00515:00000054000000000000000000130000
#00518:00000000000000333300000000000013
#0051a:54
#00513:00540000005400000000000000000000
#00514:0054540000000000
#0141b:0013
#03015:0000000000001313
#03018:00000000000000000000000000130013
#0001b:0013000000000000
#00015:0013000000000000
#00012:00000013
#00018:00000013
#0011b:0000001300000000
#00115:0000001300000000
#00218:13
#00212:00000000000000000000000000333300
#0061b:00000000001300000000000000000000
#00618:00000000000000130000003333000000
#00615:00333300000000000013000000000000
#00612:00000000000000000000000000000013
#00715:00130000000000540054000000000054
#00718:00000013000000000000000000000000
#00712:00140054
#00713:00000000005400000000005400540000
#00714:0000005400540054
#00716:0054
#02212:0013
#02218:0013
#0281b:1313
#02812:00130013
#0291a:00140000
#02916:00000014
#03712:0016
#03718:00260016
#03812:16
#03818:00160000
#03815:0000000000160000
#04815:00000000000013000000001300000000
#04812:0000000013000013
#04818:00000000000000130000130000000000
#0481b:00230013
#0481f:00210000
#04918:13
#04915:0013000000001300
#04910:0041
#05012:00130013
#05018:00000000000013000000001300000000
#0501b:0000000013000013
#05015:00000000000000130000130000000000
#05112:0000001300000000
#05115:13003323
#05118:0013000000000000
#05218:23000000000013000000001300000000
#0521b:0000000013000013
#05215:00000000000000130000130000000000
#05212:00230013
#05315:13
#05318:0013000000001300
#05415:0016
#05412:00000016
#05418:00260000
#05518:16
#05512:00160000
#05515:00000000000000000000001600000000
#0411f:00110000
#0231b:23
#02318:00230000
#02315:0023
#02312:00000023
#06912:0000000000240000
#0691a:0000000000240000
#06712:00000024000000002300000000000000
#06716:00000000002400000000000000000024
#0671a:00000000000000240000000000240000
#06718:33
#06715:00000000000000000033330000000000
#03912:00260000
#03914:0026
#03916:00000026
#06212:00240000
#06218:0024
#06214:00000024
#0631a:24
#06312:00240000
#06318:0024
#06314:00000024
#06812:00240000000000240000000000000000
#0681b:0023000000000000
#06816:00000000000000000024000000000000
#0681a:00000000000000000000002400000000
#06818:00000033330000000000000000000000
#01112:0000000053000053
#01113:00000000000000000053000000530053
#01114:0000000000535300
#01115:00000000000000000000005300000000
#04052:00640000
#06952:0000000000140000
#0695a:0000000000140000
#00852:0000000000000053
#0085b:53
#01052:0053000000000000
#0105b:00000000000000000000005300000000
#01352:0000000000000053
#01258:53
#0125b:00000000000000530000000000000000
#01558:00000000000000630000000000000000
#0155b:00000013
#01652:00000000000000630000000000000000
#01658:0000000000000063
#01855:0053000000000000
#0205b:00000000000000530000000000000000
#02158:00000000000000630000000000000000
#0215b:0000000000000053
#02155:0000000000000053
#02458:00230000
#0245b:53
#02655:23
#02552:00000063
#03255:0053000000000000
#03252:0013
#03452:0000005300000000
#03455:00000013
#04258:0000000000530000
#04358:0000000000530000
#0445b:00000023000000000000000000000000
#04752:0063
#05757:00000000000000000000000000000023
#0575b:0053000000000000
#05952:0063000000000000
#05956:00000000000000000000000000000023
#06152:00630000
#06158:00630000
#03558:13
#00955:00000000000000530000000000000000
#0145b:0063
#02752:00000063
#04855:13
#00258:53
#01952:00000000000000000000000000000053
#02252:0063
#02258:0063
#0285b:5353
#02852:00630063
#0295a:00540000
#02956:00000024
#03658:0063000000000000
#0365b:0013
#03758:00160016
#03752:0016
#03852:16
#03858:00560000
#03855:0000000000260000
#0455b:00530000
#04955:0053000000000000
#04952:0013
#05152:0000005300000000
#05155:00000013
#05258:13
#05358:0063000000000000
#0535b:0013
#05455:0016
#05452:00000016
#05458:00160000
#05558:16
#05552:00660000
#05555:00000000000000000000002600000000
#06252:00140000
#06258:0014
#06254:00000014
#0635a:14
#06352:00140000
#06358:0014
#06354:00000014
#0645a:14
#002380:13
#0023b0:0023
#002350:00000013
#002320:00000000000000000000000000333323
#003380:0000001300000000
#0033b0:00000000000000333323000000000000
#004350:13
#004320:00333323000000000000000000000000
#0053b0:0000001300000000
#005380:00000000000000333323000000000000
#006320:13
#006350:00333323000000000000000000000000
#0063b0:0000000000130000
#006380:00000000000000000000003333230000
#0083b0:13
#008380:0023
#008320:0000000000000013
#009350:00000000333300330000000000000000
#009320:00000023
#010320:0013000000000000
#010350:0000002300000000
#0103b0:00000000000000000000001300000000
#011380:23
#012380:13000023
#0123b0:00003300333300330000000000000000
#013320:0000000000000013
#014350:00230000
#0143b0:0013
#014380:00000023
#015380:00000000000000130000000000000000
#0153b0:00000023
#016320:00000000000000130000000000000000
#016350:0000000000230000
#016380:0000000000000013
#0173b0:0023000000000000
#018350:0013000000000000
#018320:0000002300000000
#019320:00000000000000000000000000000013
#020350:0023000000000000
#0203b0:00000000000000130000000000000000
#020380:00000023
#021380:00000000000000130000000000000000
#0213b0:00000023
#0213b0:0000000000000013
#022380:00230000
#021351:0000000000000013
#022321:00230000
#022321:0013
#022351:00000023
#022380:0013
#0223b0:00000023
#0243b0:1323
#024380:00530000
#025320:00000013
#026350:53
#026320:00230000
#027320:00000013
#028350:23
#0283b1:13
#028381:00230000
#028320:00130000
#028350:0023
#0283b1:0013
#028381:00000023
#028320:00000013
#029350:0023000000000000
#0293a0:00140000
#029360:00000054
#0303a0:00240000
#032350:0013000000000000
#032320:0000003323000000
#0323b0:0000000000000013
#0323a0:00000000000000000000000000000033
#033390:33
#033380:00330000000000000000000000000000
#033370:0023000000000000
#034320:0000001300000000
#034350:00003323
#036380:0013000000000000
#0363b0:0000003323000000
#036320:0000000000000013
#036330:00000000000000000000000000000033
#037340:33
#037350:00330000000000000000000000000000
#037360:0023000000000000
#038380:00160000
#038350:0000000000560000
#039380:26
#040320:00140000
#041360:00240000
#042380:0000000000130000
#0433b0:23
#043380:0000000000130000
#0443b0:00000053000000000000000000000000
#044380:00000023
#0453b0:00130000
#045380:0000000000230000
#047320:0013
#047350:00000000000000000033000000000000
#048350:23
#049350:0013000000000000
#049320:0000003323000000
#0493b0:0000000000000013
#0493a0:00000000000000000000000000000033
#050390:33
#050380:00330000000000000000000000000000
#050370:0023000000000000
#051320:0000001300000000
#051350:00003323
#053380:0013000000000000
#0533b0:0000003323000000
#053320:0000000000000013
#053330:00000000000000000000000000000033
#054340:33
#054350:00330000000000000000000000000000
#054360:0023000000000000
#055320:00160000
#055350:00000000000000000000005600000000
#056320:0026000000000000
#0573b0:0013000000000000
#057370:00000000000000000000000000000053
#0583b0:00000023
#059320:0013000000000000
#059360:00000000000000000000000000000053
#060320:00000023
#061320:00130000
#062350:23
#061381:00130000
#0623b1:23
#064351:00130000
#064321:00000000003333230000000000000000
#064381:0000000000000013
#0643b1:00000000000000000000000000000033
#0653b1:33230000000000000000000000000000
#065351:0013
#065321:00000000000000000033332300000000
#0663b1:0000000000000013
#066381:00000000000000000000000000000033
#067381:33230000000000000000000000000000
#067321:0013
#067351:00000000000000000033332300000000
#0683b1:0013000000000000
#068381:00000033332300000000000000000000
#0049a0:0000000000140000
#004970:00000000000000000000000000540000
#0059a0:24
#005921:1400002400000000
#005951:00000054000000000000000000000000
#007921:00140054
#007961:0054
#008961:24
#011921:0000000013000053
#011951:00000000000000000000005300000000
#012941:23
#045921:13
#045961:00230000
#0469b1:00000013
#047971:23
#047920:13
#047960:00230000
#0479b1:00130000
#047971:0023
#0669a1:0014000024000000
#066971:00000000005400000000000000000000
#066920:0000000014000024
#066950:00000000000000000000005400000000
