This file was generated by Ched 2.7.0.0.
#TITLE ""
#ARTIST ""
#DESIGNER ""
#DIFFICULTY 0
#PLAYLEVEL
#SONGID ""
#WAVE ""
#WAVEOFFSET 0
#JACKET ""
#REQUEST "ticks_per_beat 480"
#00002: 4
#BPM01: 105
#00008: 01
#TIL00: ""
#VOLUME: ""
#HISPEED 00
#MEASUREHS 00
#00112:13131313
#00117:530000000053530053000053530000000053000053530053
#0031b:13131313
#00316:530000000053530053000053530053000053000053530053
#0041b:13131300
#00415:00000013
#00418:00000013
#00416:000053530053530000530000530000000000000000000000
#00212:13131300
#00217:000053530053530000530000530000000000220000000000
#00518:000000130000000000000013000000000000000013000013
#00515:000000000000130000000000130000000013000000000000
#00512:0000001300000013
#0051b:000000000000001300000000
#00510:41
#0061b:0013001300000013
#00615:000013000000000000000013000000000000000013000013
#00618:000000000000000000000000130000000013000000000000
#00612:000000130000001300000000
#00716:0014001400000000
#00712:00241300
#00718:0000000000001313
#00715:000000000000000000000000000000000000000013000013
#0071a:2424
#0081b:0013000000000000
#0081a:00130000
#00819:0000001300000000
#00818:000000000000000000000000130000000013000000130000
#00812:000000000000000000000000000000000000000000000013
#01316:13
#0131b:1313
#01318:0000001300130000
#01315:00000013
#01312:0026
#01310:41
#01415:0013001300130000
#0141b:00130000
#01412:00131300
#01418:0026
#0151a:00000012
#01515:13
#01514:00000012
#01518:13
#01512:0026
#01715:0000130000000013
#01712:1313
#01718:00130000
#0171a:24
#01815:000013000000000000000000000013000013000000000000
#0181b:000000000000000013000000000000130000130000000000
#01812:001300
#01818:001300000000000000000000
#01915:130000130000000000000013000000000000000000000000
#01918:000013000013000000130000130000000000000000000000
#01912:00130000
#0191a:000000000000003300000000
#0191b:000000000000000000000000000000000033000000000000
#0201b:001300001300000000000000
#02018:000000000013000000000000130000000000000000130000
#02015:000000230000000013000000000000000000000000000000
#02012:230000000000000000000033000000000000130000000000
#01017:13
#01019:0013000000000000
#01015:00130000
#01018:00000013
#0101b:00130000
#01012:000000000000000000000000000000000000000000130013
#0111b:0013000000000000
#0111a:00130000
#01119:0000001300000000
#01118:000000000000000000000000130000000000000000000013
#01115:000000000000000000131300
#0211b:0000001300130000
#02118:000000000013000000000000130000000000130000000013
#02112:0000000000130000
#02115:000000130000000000000013000000000000000000130000
#02114:00240000
#02110:41
#0221b:00130000
#02212:13130000
#02216:00000014
#02214:0000000000000014
#0221a:0014
#02218:0023000000140000
#02215:0023000000000000
#0241a:000000130000000000000000000000000000000033000000
#02413:000000000000000034000000000000140000000000000000
#02414:000000000034000000000000000000000000140000000000
#02419:000000000000130000000000000000000033000000000000
#02418:000000000000000000130000000033000000000000000000
#0241b:130000000000000000000000000000000000000000000033
#02415:000034000000000000000000000000000000000000140000
#02412:000000000000000000000034000000000000000000000000
#02612:0000131313000000
#02618:0000000000001313
#02615:000000000013
#02614:33
#02619:33
#02715:000000000013000000000000000053000053000053000053
#02718:000000000013000000000000000000000000000000000000
#02712:00241300
#0271a:00240024
#02812:00241300
#0281b:13
#0281a:00000024
#02815:000000000000000000000000000053000053530000530000
#02818:000053000053000053000053000000000000000000000000
#03116:140000130000140000001300
#0311a:00140000
#03112:1313
#0311b:0000000000000013
#03110:41
#03218:00140000
#03217:0000001400000000
#03214:00130000
#03213:0000001300000000
#03212:0013
#03216:2314
#0321a:24
#03219:0024000000000000
#03215:0023000000000000
#03315:13
#0331b:00130013
#03318:1313
#03312:00130013
#0331a:000000130000000000130000000000000000000033000000
#03313:0000000000130013
#0331f:11
#03415:13001313
#03418:0000130000000013
#0341b:0013001300000000
#03412:0013001300000000
#02316:1400001414000014
#02318:0014000000000000
#0231a:00140000
#02314:0000000000140000
#02312:00000014
#03516:1414
#03512:0000140000000013
#0351b:1313
#03517:000000130000000000001300
#0361b:0013
#03616:0014
#03614:00140000
#03615:0000001400000000
#03619:00130000
#0361a:0000001300000000
#03612:24
#03613:0024000000000000
#03617:23
#03618:0023000000000000
#03918:0013000000000013
#03915:0013000000000000
#0391a:24
#03912:2423
#0391b:0023
#0391f:21
#03910:0041
#04716:14131400
#0471a:00140000
#04712:1313
#04718:000000000013
#04715:0000000000000013
#04816:2424141414000000
#04812:0000131313000000
#0481b:2323000000000000
#04810:41
#05015:00130013
#05018:1300000013000013
#05012:0013001300000000
#0501b:0013001300000000
#05116:2414
#05115:000000000013
#05118:0000000000000013
#0511b:0013
#05117:0012000000000000
#05216:2424141414000000
#0521b:0000131313000000
#05212:2323000000000000
#05318:0013000000130000
#05315:0000001300000000
#0531b:23000013
#05416:120000520000520052000000000000000000000000000000
#05418:000000000000120000525200
#02918:13
#02915:5313
#0291a:00000024
#02912:000000000000240000000000000000530053000053000053
#0291b:000000000000530000530053530000000000000000000000
#01215:0013000000000000
#01214:00130000
#01213:0000001300000000
#01212:0013
#03012:001400000000000000141400
#03015:000000000000000000000014000000000000000000000000
#03014:001400
#03013:000000000014000000000000000000000000000000000000
#03016:140000000000000000000000000000003434000000140000
#03019:000000000000000000140000003400000000000000000000
#03018:000000140000003400000000
#03017:0014000000340000
#0371a:0012000000000012
#03718:00120012
#03716:0000001200120000
#03714:0012
#04018:000013000000000000000000000013000013000000000000
#04012:000000000000000013000000000000130000230000000000
#0401b:001300
#04015:001300000000000000000000
#04118:130000130000000000000013000000000000000000000000
#04115:000013000013000000130000130000000000000000000000
#0411b:00130000
#04113:000000000000003300000000
#04112:000000000000000000000000000000000033000000000000
#04212:001300001300000000000000
#04215:000000000013000000000000130000000000000000130000
#04218:000000230000000013000000000000000000000000000000
#0421b:230000000000000000000033000000000000130000000000
#04312:0000001300130000
#04315:000000000013000000000000130000000000130000000013
#0431b:0000000000130000
#04318:000000130000240000000013000000000000000000130000
#04412:00131400
#0441b:13130000
#04416:00000014
#04418:0023000000000014
#04414:0000000000140000
#04415:0023000000000000
#04516:1400001414000014
#04514:0014000000000000
#04512:00140000
#04518:0000000000140000
#0451a:00000014
#04918:13
#04912:00130013
#04915:1313
#0491b:00130013
#04913:000000130000000000130000000000000000000033000000
#0491a:0000000000130013
#05516:12
#04613:000000130000000000000000000000000000000033000000
#04619:000000000000000034000000000000140000000000000000
#04618:000000000034000000000000000000000000140000000000
#04614:000000000000130000000000000000000033000000000000
#04615:000000000000000000130000000033000000000000000000
#04612:130000000000000000000000000000000000000000000033
#04617:000034000000000000000000000000000000000000140000
#0461a:000000000000000000000034000000000000000000000000
#02512:23
#02514:00333333
#02519:00333333
#0161a:0022
#01618:00220000
#01616:22
#00915:26
#03815:23
#03814:00230000
#03813:0023
#03812:00000023
#03818:23
#03819:00230000
#0381a:0023
#0381b:00000023
#00752:0053
#01356:53
#00455:00000053
#00458:00000053
#00552:13
#0055b:13
#00555:000000000000000000000000000000000053000000000000
#00558:000000000000000000000000000000000000000000000013
#00658:000000000000000000000000000000000063000000000000
#01855:005300000000000000000000
#0185b:00000013
#01858:006300000000000000000000
#02058:0013
#02052:0013
#02055:005300
#01055:00230000
#0105b:00230000
#01052:000000000000000000000000000000000000000000000053
#01158:000000000000000000000000130000000000000000000063
#01155:0013
#01555:53
#01558:63
#01752:5353
#01755:00530000
#01758:00530000
#0175a:14
#0175b:0013
#01958:0053
#0225b:00230000
#02252:00230000
#02255:0053000000000000
#02258:0053000000000000
#02755:000000000023000000000000000000000000000000000000
#02758:000000000023000000000000000000000000000000000000
#02752:00346300
#0275a:00440000
#02955:1363
#02958:53
#0295b:0013
#0315a:000000000000440000000000000000000014000000000000
#03156:440000000000000000000000540000000013000000000000
#03152:0053
#03256:000000000000000000000000540000000013000000000000
#0325a:000000000000000000000000000000000014000000000000
#03252:0053
#03355:53
#03358:0063
#03352:00230000
#0335b:00000023
#03455:5313
#03458:00631300
#0345b:0000002300000000
#03452:0023000000000000
#0355b:0063
#03556:1464
#03552:000000000000140000000000000000000014000000000000
#03557:000000000000000000000000000000000013000000000000
#0365b:0063
#03656:0064
#03657:000000000000000000000000000000000013000000000000
#03652:000000000000000000000000000000000014000000000000
#0395a:54
#03958:0023000000000000
#0395b:00435300
#03955:0023000000000000
#03952:64330000
#04756:440000000000230000000000540000000013000000000000
#0475a:000000000000440000000000000000000014000000000000
#04752:5353
#04852:0053
#04856:000000000000000000000000540000000013000000000000
#0485a:000000000000000000000000000000000014000000000000
#05156:54146400
#05152:000000000000000000000000000000000014000000000000
#0515b:0063
#05157:000000220000000000000000000000000013000000000000
#0525b:0063
#05256:0064
#05257:000000000000000000000000000000000013000000000000
#05252:000000000000000000000000000000000014000000000000
#02852:0063
#0285b:53
#01252:0013
#0125b:0013
#02154:00340000
#0235a:00140000
#02352:00000014
#02356:00140014
#02652:0013
#0265b:0013
#04058:006300000000000000000000
#04055:005300000000000000000000
#04052:00000013
#04155:0063
#04258:006300
#04255:0013
#0425b:0013
#04452:00230000
#0445b:00230000
#04458:0063000000000000
#04455:0063000000000000
#04552:00140000
#0455a:00000014
#04556:00140014
#04358:00440000
#04958:63
#04955:0053
#0495b:00230000
#04952:00000023
#05058:6313
#05055:00531300
#0505b:0023000000000000
#05052:0000002300000000
#05556:62
#00955:46
#03855:33
#03854:00330000
#03853:0033
#03852:00000033
#03858:43
#03859:00430000
#0385a:0043
#0385b:00000043
#004380:00000013
#0053b0:23
#004351:00000013
#005321:23
#005351:000000000000000000000000000000000013000000000000
#005321:000000000023
#006381:000000000000000000000000000000000013000000000000
#0063b1:000000000023
#007321:0013
#007351:00000023
#008321:0013000000000000
#008351:0023
#008351:0000000000001323
#009351:00132300
#009380:00001323
#009351:00000013
#010321:23
#010351:00130000
#010321:0023
#0103b0:00130000
#010380:0023
#010320:000000000000000000000000000000000000000000000013
#011350:0023
#011380:000000000000000000000000000000000000000000000013
#0123b0:0023
#013360:13
#013320:000053000000000000230000000000000000000000000000
#013380:0000000000000013
#014380:0023000000000000
#014380:00000013
#015380:33
#0153b0:0000002300000000
#015351:13
#015321:0000002300000000
#017321:1333
#017351:00330023
#017380:00130000
#0173b0:0023
#017380:000000000000000000000000000000000000130000330033
#018380:003300000000000000000000
#0183b0:00230000
#017351:000000000000000000000000000000000000000000000013
#018351:003300000000000000000000
#018321:00230000
#018381:000000000000000000000013000023000000000000000000
#019381:0013
#0193a1:000000000000003300000000
#0193b1:000000000000000000000000000000000033330000230000
#019350:0000000000001323
#020350:001300
#020320:000000000000000000000033230000000000000000000000
#020380:000000000000000000000000000000000000000000000013
#021380:0023000000000000
#022350:0013002300000000
#022320:00330000
#022381:0013002300000000
#0223b1:00330000
#023321:14
#023361:00240000
#0233a1:0014
#023361:00000024
#024361:14
#024351:003400000000000000000000
#024341:000000000034000000000000000000000000000000000000
#024331:003400
#024321:000000000000000000000034240000000000000000000000
#024370:0013
#024380:000000000000003300000000
#024390:000000000000000000000000000000000033000000000000
#0243a0:000000000033
#0243b0:000000000000000000000000000000000000000000000033
#0253b0:330000000053000000000000005300000053000000000000
#025390:00333333
#025380:000000000000005300000053000000000000005300000033
#026390:33
#0263b0:005300000000000000000000230000000000000000000000
#025321:130000000053000000000000005300000053000000000000
#025341:00333333
#025351:000000000000005300000053000000000000005300000033
#026341:33
#026321:005300230000000000000000000000000000000000000000
#026350:000000000000000000000000000000000000000000000013
#027350:000000000053000000000000000000000000000000000000
#027320:00240000
#027381:130000000053000000000000000000000000000000000000
#0273a1:00240000
#0303a1:0014
#030391:000000000000000000000000003400000000000000000000
#030381:000000000000003400000000
#030371:0000000000340000
#030361:000000000000000000000000000000003434240000000000
#031361:0014
#0313a1:000000000000000000000000000000000024000000000000
#031320:0013
#031360:000000000000000000000000000000000023000000000000
#032320:0013
#032360:000000000000000000000000000000000023000000000000
#032361:0014
#0323a1:000000000000000000000000000000000024000000000000
#033351:1323
#033321:00530000
#033380:0013
#0333b0:00000033
#0333a0:000000000033
#034380:23
#034351:13230000
#034321:0053000000000000
#034380:00132300
#0343b0:0000005300000000
#035360:0014
#035320:000000000000000000000000000000000024000000000000
#0353b1:0013
#035371:000000000000000000000000000000000023000000000000
#0363b1:0013
#036371:000000000000000000000000000000000023000000000000
#036360:0014
#036320:000000000000000000000000000000000024000000000000
#0393a0:14
#039380:0053000000000000
#0393b0:00230000
#039321:14230000
#039351:0053000000000000
#0393b1:0013
#039381:00000023
#039350:000000000000000000000000000000000000130000330033
#040350:003300000000000000000000
#040320:00230000
#039381:000000000000000000000000000000000000000000000013
#040381:003300000000000000000000
#0403b1:00230000
#040351:000000000000000000000013000023000000000000000000
#041351:0013
#041331:000000000000003300000000
#041321:000000000000000000000000000000000033330000230000
#041380:0000000000001323
#042380:001300
#0423b0:000000000000000000000033230000000000000000000000
#042350:000000000000000000000000000000000000000000000013
#043350:0023000000000000
#044380:0013002300000000
#0443b0:00330000
#044351:0013002300000000
#044321:00330000
#0453a1:14
#045361:00240000
#045321:0014
#045361:00000024
#046361:14
#046371:003400000000000000000000
#046381:000000000034000000000000000000000000000000000000
#046391:003400
#0463a1:000000000000000000000034240000000000000000000000
#046360:0013
#046350:000000000000003300000000
#046340:000000000000000000000000000000000033000000000000
#046330:000000000033
#046320:000000000000000000000000000000000000000000000033
#047320:3333
#047360:000000000000530000000000000000000023000000000000
#047361:0014
#0473a1:000000000000000000000000000000000024000000000000
#048321:0013
#048361:000000000000000000000000000000000023000000000000
#048360:0014
#0483a0:000000000000000000000000000000000024000000000000
#049380:1323
#0493b0:00530000
#049351:0013
#049321:00000033
#049331:000000000033
#050351:23
#050380:13230000
#0503b0:0053000000000000
#050351:00132300
#050321:0000005300000000
#051361:14240000
#051371:0052000000000000
#0513b0:1333
#051370:000000000000000000000000000000000023000000000000
#051361:0014
#051321:000000000000000000000000000000000024000000000000
#0523b1:0013
#052371:000000000000000000000000000000000023000000000000
#052360:0014
#052320:000000000000000000000000000000000024000000000000
#053320:13230000
#053350:0033000000000000
#0533b1:00132300
#053381:0000003300000000
#053320:00001323
#053350:0000000000330000
#0533b0:000000000013
#0543b0:23
#001970:13
#002970:0023
#003960:13
#004960:0023
#027920:0013
#027950:000000000000000000000000000053000000000000000023
#0289b0:13
#028980:000053000000000000000023000000000000000000000000
#028920:0013
#028950:000000000000005300000000
#029950:23
#029981:13
#0299b1:0053530023000000
#029950:0013
#029920:000000000000000000000000000000530000000000000023
#054960:122200
#054980:000000120022
#055960:12
#055920:00000021
