This file was generated by Ched 2.7.0.0.
#TITLE ""
#ARTIST ""
#DESIGNER ""
#DIFFICULTY 0
#PLAYLEVEL
#SONGID ""
#WAVE ""
#WAVEOFFSET 0
#JACKET ""
#REQUEST "ticks_per_beat 480"
#00002: 4
#BPM01: 105
#00008: 01
#TIL00: ""
#VOLUME: ""
#HISPEED 00
#MEASUREHS 00
#00112:14141414
#00515:0013001300000000
#00518:0000130000000013
#00512:000000000000000000000033330033000000000000000000
#00510:41
#00618:0013001300000000
#00615:0000130000000013
#00612:13
#0061b:000000000000000000000033330033000000000000000000
#00716:0014001400000000
#00715:00000013
#0071a:2424
#00712:000000000000240000000000000000000000000000530053
#00713:000000000053
#0081b:0013000000000000
#0081a:00130000
#00819:0000001300000000
#00815:000000000000000000000000130000000013000000000000
#00818:000000000000000000000000130000000000000000130033
#00812:0013000000000000
#00813:00130000
#00814:0000001300000000
#01316:14
#01312:0026
#01310:41
#00418:00000016
#00412:1414141414000000
#0041a:14
#02215:00000013
#02212:0000000013000013
#0221b:0013
#02218:0000000000130000
#0221a:0024000000000000
#02217:00240000
#02214:0000002400000000
#02418:0013001300001400
#02412:0014
#02415:0000130000140014
#0241b:13
#0241a:0014
#02612:000000130000130000130000130000000000130053530053
#0261b:000000130000130000130000130000000000130053530053
#0311a:14
#03117:0014
#03112:00140000
#03115:000000000013
#03118:0000000000000013
#03110:41
#03215:00131300
#0321b:0000001300000000
#03212:23
#03218:0023000000000000
#03418:1400140000000013
#0341a:0014000000000000
#03415:00000013
#03416:0000001400000000
#03918:0014000000000000
#03914:0014000000000000
#0391a:24
#03912:2423
#0391b:0023
#0391f:21
#03910:0041
#05415:130000535300000000000000
#05418:000000000000130000535300
#05515:13
#0021a:1414141414000000
#00212:14000026
#0031a:14141414
#02115:0000000000140014
#0211a:0014
#02116:001400000000
#02112:00000014
#02114:00280000
#02110:41
#02715:0073000013000000
#02712:53630013
#02718:0073000000002600
#0271b:53630000
#02818:13000026
#0281b:00130000
#02815:0013
#02812:00260013
#0301b:1313
#03012:00130013
#03015:000013000000000000130000000013000000000000130000
#03018:000000130000000013000000000000130000000013000000
#03315:0014000000140000
#03312:00141400
#0331a:0000001400000000
#0331f:11
#03318:24
#03512:14
#0351a:00140000
#03518:000000000013
#03515:0000000014000013
#03618:00131300
#03612:0000001300000000
#0361b:23
#03615:0023000000000000
#03714:1800001800000000
#03715:000000000000000016000000000000000000000000360000
#03716:00000014
#03818:00160016
#03812:0016
#04712:14
#04715:0000000014000013
#0471a:00140000
#04718:000000000013
#04817:00141400
#04812:0000001400000000
#0481a:24
#04815:0024000000000000
#04810:41
#05018:00000013
#05015:0000000000000013
#05014:14140000
#05012:0014000000000000
#05016:0000001400000000
#05215:00141400
#0521a:0000001400000000
#05212:24
#05217:0024000000000000
#05117:0014
#05115:000000000013
#05118:0000000000000013
#0511a:00240000
#05112:00240000
#05316:0014000000140000
#05312:00141400
#05318:0000001400000000
#0531a:240000000000000000145400
#00918:16
#01012:16
#01116:00130000
#01115:0013
#01114:00000013
#0121a:00130000
#01219:0013
#01218:00000013
#01416:14
#01418:0026
#01516:14
#01518:00000013
#01512:0026
#01712:0013
#0171b:0013
#01718:23
#01715:23
#01819:1313
#0181b:00130013
#01814:1313
#01812:00130013
#01813:0000000000130000
#0181a:0000000000130000
#02016:000000000000000034000034140000000000000000000000
#02012:2600140000140000
#02018:0026000000000000
#0231b:13
#02312:0013
#02318:0000000000130000
#02315:0013000000000000
#02918:13000026
#02915:0013
#02912:00260000
#0461b:0013000000000000
#04612:2300000000140000
#04615:0000131300000000
#04618:000000000000000013000000000000000000140000140000
#04614:000000000014
#0461a:0024
#0411b:13
#04115:0013000000001300
#04112:0013
#04118:0000130000130000
#04512:13
#04518:0013000000001300
#0451b:0013
#04515:0000130000130000
#01912:13
#0191b:0013
#01915:0000000000130000
#01918:0013000000000000
#04418:0000002400001300
#0441b:0000000013000013
#04412:0024000013000000
#04415:0000240000130000
#04317:0000000000140014
#04312:0014
#0431a:00000014
#04316:001400000000
#04314:00280000
#04019:1323
#0401b:00130023
#04014:1323
#04012:00130023
#04013:0000000000230000
#0401a:0000000000230000
#04917:0014000000140000
#0491a:00141400
#04912:0000001400000000
#04914:24
#04216:000000000000000034000034140000000000000000000000
#0421a:0000140000140000
#04218:26
#04212:0026000000000000
#02512:24
#01619:0023
#01616:00230000
#01613:23
#01356:64
#00458:00000056
#0055b:13
#00555:0000006300000000
#00552:000000000000000000000000000000000013000000000000
#0315a:140000000000000000000000000000000014000000000000
#03157:0064
#03152:00140000
#03252:000000000000000000000000000000000013000000000000
#03255:0063
#03458:64640000
#0345a:0024000044000000
#03456:0000002400000000
#0395a:54440000
#03958:0024000000000000
#03954:0024000000000000
#03952:64346300
#0395b:0053
#02652:0013
#0265b:0013
#05555:63
#00658:0000005300000000
#0065b:000000000000000000000000000000000013000000000000
#00858:0000000000000023
#02155:0000000000540054
#02154:00180000
#02156:002400000000
#02152:00000054
#02755:0023000000000000
#02752:63330000
#0275b:53430000
#02758:0023000000000000
#03552:140000000000000000000000000000000014000000000000
#0355a:00140000
#03555:0054
#03658:0053
#0365b:000000000000000000000000000000000013000000000000
#03755:002600
#03754:5800005800000000
#03756:00000024
#03854:18
#03858:00160016
#03852:0016
#04752:140000000000000000000000000000000014000000000000
#04755:0054
#0475a:00140000
#04857:0054
#0485a:000000000000000000000000000000000014000000000000
#05157:0064
#0515a:000000000000140000000000000000000014000000000000
#05152:00140000
#05255:0054
#05252:000000000000000000000000000000000014000000000000
#00958:56
#01052:66
#01456:54
#01556:64
#0175b:00136300
#01752:00136300
#01755:53
#01758:53
#02056:0054
#02052:0000540000240000
#02958:63
#02955:0053
#04158:00630000
#04155:00000053
#04555:00530000
#04558:00000063
#04357:0000000000640064
#0435a:00000064
#04356:002400000000
#04354:00180000
#05054:54540000
#05052:0024000034000000
#05056:0000002400000000
#01852:00000013
#0185b:00000013
#04052:00000013
#0405b:00000013
#04256:0064
#0425a:0000640000240000
#004380:00000016
#0053b0:23
#005350:0000001300000000
#005320:000000000000000000000033330033000023000000000000
#006380:0000001300000000
#0063b0:000000000000000000000033330033000023000000000000
#008380:000000000000000000000000000000000000130000330033
#009380:36
#0103c0:22
#010321:16
#011321:22
#0113a0:14
#0123a0:24
#012321:14
#013321:24
#013360:14
#0143a0:24
#014361:14
#015321:24
#015360:14
#0153a0:0024
#017380:13
#0173b0:00230000
#017351:13
#017321:00230000
#017321:0013
#017351:00000023
#0173b0:0013
#017380:00000023
#019350:0000132300000000
#019380:0000000000001323
#020320:0000140000540000
#020360:000000000000000034000034340000000000540000340034
#021360:005400000000
#021340:00280000
#021350:0000000000140034
#021320:00000034
#022320:24
#023380:0000132300000000
#023350:0000000000001323
#025320:140000000000000000000054000000000000000000000000005400000000000000000054000000000000000000000000
#025330:00343434
#025340:000000000000000000000000005400000000000000000054000000000000000000000000005400000000000000000000
#026340:24
#0253a1:140000000000000000000054000000000000000000000000005400000000000000000054000000000000000000000000
#025391:00343434
#025381:000000000000000000000000005400000000000000000054000000000000000000000000005400000000000000000000
#026381:24
#029381:13
#0293b1:0023
#029350:0013
#030320:23
#031370:0014
#0313a0:000000000000000000000000000000000024000000000000
#032350:0013
#032320:000000000000000000000000000000000023000000000000
#033380:000000000000000000143400
#034380:34340000
#0343a0:0034000024000000
#034360:0000003400000000
#035350:0014
#035320:000000000000000000000000000000000024000000000000
#036380:0013
#0363b0:000000000000000000000000000000000023000000000000
#037340:1800003800000000
#037350:000000000000000056000000000000000000000000360000
#037360:00000034
#038340:28
#0393a0:14240000
#039380:0054000000000000
#039321:14240000
#039341:0054000000000000
#039321:0013
#039351:00000023
#0393b0:0013
#039380:00000023
#041380:00130000
#0413b0:0000002300000000
#041350:00000013
#041320:0000000000000023
#0423a0:0000140000540000
#042360:000000000000000034000034340000000000540000340034
#043360:005400000000
#043340:00280000
#043370:0000000000140034
#0433a0:00000034
#0443a0:24
#045350:00130000
#045320:0000002300000000
#045380:00000013
#0453b0:0000000000000023
#047350:0014
#047320:000000000000000000000000000000000024000000000000
#048370:0014
#0483a0:000000000000000000000000000000000024000000000000
#049340:000000000000000000143400
#050340:34340000
#050320:0034000024000000
#050360:0000003400000000
#0513a0:14240000
#051321:14240000
#051371:0014
#0513a1:000000000000000000000000000000000024000000000000
#052351:0014
#052321:000000000000000000000000000000000024000000000000
#007950:00000013
#007920:000000000000000000000000000000000000000000530023
#026920:00000013
#027920:530000000000000000000000000000000000000000000000000000000000000000000000000000000000000000000000000000000000000000000000000000000000000000000000000000000000000000000000000000000000000000000000000000000000000000000000000000000000000000535353230000000000000000000000000000000000000000000000000000000000000000000000000000000000000000000000000000000000000000000000000000000000000000000000000000000000000000000000000000000000000000000000000000000000000000000000000000000000000000000000000000000000000000000000000000000000000000000000000000000000000000000000000000000000000000000000000000000000000000000000000000000000000000000000000000000000000000000000000000000000000000000000000000000000000000000000000000000000000000000000000000000000000000000000000000000000000000000000000000000000000000000000000000000000000000000000000000000000000000000000000000000000000000000000000000000000000000000000000000000000000000000000000000000000000000000000000000000000000000000000
#027950:0053000000000000
#0269b1:00000013
#0279b1:530000000000000000000000000000000000000000000000000000000000000000000000000000000000000000000000000000000000000000000000000000000000000000000000000000000000000000000000000000000000000000000000000000000000000000000000000000000000000000535353230000000000000000000000000000000000000000000000000000000000000000000000000000000000000000000000000000000000000000000000000000000000000000000000000000000000000000000000000000000000000000000000000000000000000000000000000000000000000000000000000000000000000000000000000000000000000000000000000000000000000000000000000000000000000000000000000000000000000000000000000000000000000000000000000000000000000000000000000000000000000000000000000000000000000000000000000000000000000000000000000000000000000000000000000000000000000000000000000000000000000000000000000000000000000000000000000000000000000000000000000000000000000000000000000000000000000000000000000000000000000000000000000000000000000000000000000000000000000000000000
#027981:0053000000000000
#0539a1:000000000000000000000000000000000000000000000000000000000000000000000000000000000000000000000000000000000000000000000000000000000000000000000000000000000000000000000000000000000000000000000000000000000000000000000000000000000000000000000000000000000000000000000000000000000000000000000000000000000000000000000000000000000000000000000000000000000000000000000000000000000000000000000000000000000000000000000000000000000000000000000000000000000000000000000000000000000000000000000000000000000000000000000000000000000000000000000000000000000000000000000000000000000000000000000000000000000000000000000000000000000000000000000000000000000000000000000000000000000000000000000000000000000000000000000000000000000000000000000000140000000000000000000000000000000000000000000000000000000000000000000000000000542400000000000000000000000000000000000000000000000000000000000000000000000000000000000000000000000000000000000000000000000000000000000000000000000000000000000000
#054951:130000000000000000000000000000000000000000000000000000000000000000000000000000000000000000000000000000000000000000000000000000000000000000000000000000000000000000000000000000000000000000000000000000000000000000000000000000000000000000000000000000000000000000000000000000000000000000000000000000000000000000000000005353532300000000000000000000000000000000000000000000000000000000000000000000000000000000000000000000000000000000000000000000000000000000000000000000000000000000000000000000000000000000000000000000000000000000000000000000000000000000000000000000000000000000000000000000000000000000000000000000000000000000000000000000000000000000000000000000000000000000000000000000000000000000000000000000000000000000000000000000000000000000000000000000000000000000000000000000000000000000000000000000000000000000000000000000000000000000000000000000000000000000000000000000000000000000000000000000000000000000000000000000000000000000000000000000000000000000000000
#054981:000000000000000000000000000000000000000000000000000000000000000000000000000000000000000000000000000000000000000000000000000000000000000000000000000000000000000000000000000000000000000000000000000000000000000000000000000000000000000000000000000000000000000000000000000000000000000000000000000000000000000000000000000000000000000000000000000000000000000000000000000000000000000000000000000000000000000000000000000000000000000000000000000000000000000000000000000000000000000000000000130000000000000000000000000000000000000000000000000000000000000000000000000000000000000000000000000000000000000000000000000000000000000000000000000000000000000000000000000000000000000000000000000000000000000000000000000000000000000000000000000000000000000000000000000000000000000000000000000000000000000000000000005353532300000000000000000000000000000000000000000000000000000000000000000000000000000000000000000000000000000000000000000000000000000000000000000000000000000000000000
#055951:13
#055921:00000022
