This file was generated by Ched 2.7.0.0.
#TITLE ""
#ARTIST ""
#DESIGNER ""
#DIFFICULTY 0
#PLAYLEVEL
#SONGID ""
#WAVE ""
#WAVEOFFSET 0
#JACKET ""
#REQUEST "ticks_per_beat 480"
#00002: 4
#BPM01: 105
#00008: 01
#TIL00: "55'1439:10000.0, 55'1440:1.0"
#VOLUME: ""
#HISPEED 00
#MEASUREHS 00
#0011a:1414
#00514:0014
#00510:41
#01312:14
#01310:41
#02412:0014
#0241a:00140000
#02418:00000014
#02414:14
#02612:14141400
#0261a:24242400
#0541a:14
#05412:0014
#00612:0014
#00618:14
#0021a:14141400
#00312:1414
#00412:14141400
#02712:00000014
#02718:16000024
#02715:00260000
#0281a:00140000
#02812:00000014
#02814:00240000
#02818:00000024
#03114:00140000
#03118:0014
#03110:41
#03712:16
#03713:0000001400000000
#03818:00160016
#03812:0016
#04718:2414
#04712:00140000
#0481a:00140000
#04814:1414
#04810:41
#00912:14
#02018:2414
#0201a:00000014
#02014:00240000
#02112:0014
#02118:00240014
#02110:41
#0221a:00140000
#02214:1414
#02218:00000014
#01812:14
#0181a:00140000
#01814:00001414
#01818:0000000000140000
#03514:0014
#03512:24
#0351a:00240000
#00812:14
#00818:0014
#0101a:14
#01112:14
#01115:0000341434000000
#0121a:14
#01217:0000341434000000
#0141a:14
#01512:14
#0151a:00000014
#01714:00140000
#01718:00000014
#01712:24
#0291a:00140000
#02912:00000014
#02914:00240000
#02918:00000024
#0301a:1414
#03018:00140014
#03212:14
#03218:00140000
#03214:0014
#0331a:14
#03316:00140014
#03312:0014
#0331f:11
#03618:0014
#0361a:24
#03612:00240000
#03912:26000014
#03918:0026
#0391f:21
#03910:0041
#0491a:14
#04916:00140014
#04912:0014
#05112:16
#0511a:0014
#05115:00260000
#05212:0014
#0521a:00140000
#05214:14
#0531a:14
#05316:00140014
#05312:0014
#0341a:14
#03418:00140000
#0461a:0014
#04612:00140000
#04614:00000014
#04618:14
#04214:2414
#04212:00000014
#04218:00240000
#0431a:0014
#04314:00240014
#04412:00140000
#04418:1414
#04414:00000014
#0401a:14
#04012:00140000
#04018:00001414
#04014:0000000000140000
#0501a:14
#05018:00140000
#0551a:14
#00718:2424
#00714:00240000
#0251a:2424
#0161a:0024
#01616:00240000
#01612:24
#01352:64
#01355:0014
#0055a:14
#02652:0014
#0265a:0014
#03752:56
#03753:0000005400000000
#03852:1616
#03858:00160016
#04758:1464
#04854:0064
#00952:64
#01752:5414
#01754:00540000
#02058:0054
#0205a:00000024
#02158:00140000
#03554:0064
#0105a:54
#01152:64
#01155:0000002400000000
#0125a:54
#01257:0000002400000000
#0145a:54
#01457:0014
#01552:64
#01555:0014
#02755:00160000
#02758:56
#02954:00140000
#0295a:00140000
#02958:00000014
#02952:00000014
#0315a:14
#03158:0064
#0305a:6464
#03058:00640064
#03254:0054
#0345a:6414
#03458:00640000
#03658:0054
#03952:00160000
#0505a:6414
#05058:00640000
#05152:66
#05155:00160000
#0515a:0064
#05252:0064
#00658:14
#04254:0064
#04252:00000024
#04354:00140000
#0555a:14
#0043a0:00000014
#0053a0:24
#009320:14
#009350:00000024
#0103a0:14
#010370:00000024
#011320:14000024
#011350:0000345434000000
#0123a0:14000024
#012370:0000345434000000
#013320:14
#013350:0024
#0143a0:14
#014370:0024
#015320:14
#015350:0024
#017320:1424
#017340:00340000
#0193a0:14240000
#019320:00001424
#020380:0014
#0203a0:00000054
#021380:34240000
#023320:14240000
#0233a0:00001424
#0253a0:14
#025380:00240000
#025321:14
#025341:00240000
#0253a1:00001424
#025320:00001424
#027380:16
#027350:00260000
#0303a0:1434
#030380:00340034
#0313a0:24
#031380:0014
#0313a0:00000024
#032340:0014
#032320:00000024
#0343a0:1424
#034380:00340000
#035340:0014
#035320:00000024
#036380:0014
#0363a0:00000024
#037320:16
#037330:0000003400000000
#038320:26
#039320:16260000
#041320:14
#041340:00240000
#041380:0014
#0413a0:00000024
#042340:0014
#042320:00000054
#043340:34240000
#0453a0:14
#045380:00240000
#045340:0014
#045320:00000024
#047380:0014
#0473a0:00000024
#048340:0014
#048320:00000024
#0503a0:1424
#050380:00340000
#051320:16
#051350:00260000
#0513a0:0014
#051380:00000024
#052320:0014
#052340:00000024
#0559d0:000000000000000000000000000000000000000000000000000000000000000000000000000000000000000000000000000000000000000000000000000000000000000000000000000000000000000000000000000000000000000000000000000000000000000000000000000000000000000000000000000000000000000000000000000000000000000000000000000000000000000000000000000000000000000000000000000000000000000000000000000000000000000000000000000000000000000000000000000000000000000000000000000000000000000000000000000000000000000000000000000000000000000000000000000000000000000000000000000000000000000000000000000000000000000000000000000000000000000000000000000000000000000000000000000000000000000000000000000000000000000000000000000000000000000000000000000000000000000000000000000000000000000000000000000000000000000000000000000000000000000000000000000000000000000000000000000000000000000000000000000000000000000000000000000000000000000000000000000000000000000000000000000000000000000000000000000000000000000000000000000000000000000000000000000000000000000000000000000000000000000000000000000000000000000000000000000000000000000000000000000000000000000000000000000000000000000000000000000000000000000000000000000000000000000000000000000000000000000000000000000000000000000000000000000000000000000000000000000000000000000000000000000000000000000000000000000000000000000000000000000000000000000000000000000000000000000000000000000000000000000000000000000000000000000000000000000000000000000000000000000000000000000000000000000000000000000000000000000000000000000000000000000000000000000000000000000000000000000000000000000000000000000000000000000000000000000000000000000000000000000000000000000000000000000000000000000000000000000000000000000000000000000000000000000000000000000000000000000000000000000000000000000000000000000000000000000000000000000000000000000000000000000000000000000000000000000000000000000000000000000000000000000000000000000000000000000000000000000000000000000000000000000000000000000000000000000000000000000000000000000000000000000000000000000000000000000000000000000000000000000000000000000000000000000000000000000000000000000000000000000000000000000000000000000000000000000000000000000000000000000000000000000000000000000000000000000000000000000000000000000000000000000000000000000000000000000000000000000000000000000000000000000000000000000000000000000000000000000000000000000000000000000000000000000000000000000000000000000000000000000000000000000000000000000000000000000000000000000000000000000000000000000000000000000000000000000000000000000000000000000000000000000000000000000000000000000000000000000000000000000000000000000000000000000000000000000000000000000000000000000000000000000000000000000000000000000000000000000000000000000000000000000000000000000000000000000000000000000000000000000000000000000000000000000000000000000000000000000000000000000000000000000000000000000000000000000000000000000000000000112100000000000000000000000000000000000000000000000000000000000000000000000000000000000000000000000000000000000000000000000000000000000000000000000000000000000000000000000000000000000000000000000000000000000000000000000000000000000000000000000000000000000000000000000000000000000000000000000000000000000000000000000000000000000000000000000000000000000000000000000000000000000000000000000000000000000000000000000000000000000000000000000000000000000000000000000000000000000000000000000000000000000000000000000000000000000000000000000000000000000000000000000000000000000000000000000000000000000000000000000000000000000000000000000000000000000000000000000000000000000000000000000000000000000000000000000000000000000000000000000000000000000000000000000000000000000000000000000000000000000000000000000000000000000000000000000000000000000000000000000000000000000000000000000000000000000000000000000000000000000000000000000000000000000000000000000000000000000000000000
