This file was generated by Ched 2.7.0.0.
#TITLE ""
#ARTIST ""
#DESIGNER ""
#DIFFICULTY 0
#PLAYLEVEL
#SONGID ""
#WAVE ""
#WAVEOFFSET 0
#JACKET ""
#REQUEST "ticks_per_beat 480"
#00002: 4
#BPM01: 140
#00008: 01
#TIL00: ""
#VOLUME: ""
#HISPEED 00
#MEASUREHS 00
#0011b:230013000000130013000013
#00112:000000130000001300130000
#00115:001300000013000000000000
#00118:001300
#00212:131300130000
#0021b:000000130000000013000000
#00215:000000001300000000130000
#00218:001300000013000000000000
#0031b:131300130013
#00315:001300000013001300000013
#00312:00130013
#00318:001313
#00418:131300130000
#00415:00130000
#00412:001300000013000000130000
#0041b:000000001300000000130000
#00518:230000130013000000140014
#00515:231300
#00514:000000000014
#00512:001300231400
#00618:000000150015000000130000
#00613:001500
#00615:00000013
#00612:251500270000
#01218:130000130000000013130000
#01215:001300130000
#0121b:000000000013000000000000
#01212:001300
#01818:130013
#01815:13130013
#0181b:000000130000000000000000130000000000000000001300
#01812:0000001300000000
#02315:000000130000000000001300130000000000000000000000
#02312:1300000000130000
#02318:000000130000000000001300130000000000000000000000
#0231b:1300000000130000
#0241b:13
#02416:001300000000
#02419:00150000
#02412:130000000000000013000013
#02414:000000000013000000000000
#02417:0017
#02415:00000019
#02518:000000000013000000131300
#0251b:001300000000
#02515:000000131300000000000013
#02512:2c0000261300
#02715:001300000013001300000000
#0271b:230013000000130000130000
#02712:23130013
#02718:000000001300000013000013
#02710:41
#02912:130013000000130000130013
#0291b:001300000013000000130000
#02918:000000130000001300000000
#02915:001313
#0341b:130023
#03416:13
#03415:000000000000000000230023
#03418:000000000023
#03412:000023230000
#03417:000000000023000000000000
#03912:130000000000130000000013
#03919:001300000013
#03916:000000131300000000000000
#0391b:130000000013000013000000
#03914:00000013
#0391f:11
#04012:0013
#04017:13
#04016:000000001300000000000000000000130000000000000000
#0401b:00130013
#04014:001300
#04019:000000000013000000000000
#0451b:1313
#04512:000000130013130000000000
#04517:000000000013000000000000000000000000000000000000
#04718:231300000000000013000013
#04712:000013000000000000130000
#0471b:000000231300230000000000
#04715:000000000013001300000000
#0471f:21
#06718:230000131300000000000013
#06715:230000000013000000131300
#06712:001300230000
#0671b:000013
#0671a:0024
#06815:000000000013000000130000
#06818:000000131300260000130000
#06812:251300230000
#0681b:23
#00812:000000000000000000000013
#00813:000000150015000000000000
#00818:001500
#00819:251500000000
#00817:0027
#00918:130013000000130000000013
#00915:001300000013000000000000
#00912:000000130000001300130000
#0091b:001313
#00910:41
#0101b:00005313
#01018:00130000
#01012:00531300
#01015:13000053
#01014:005300000000000053000000
#01013:000053000000005300000000
#01019:005300
#0101a:000000000053000000000000
#01115:130013000000130000000013
#0111b:001300000013000000130000
#01118:000000130000001300000000
#01112:001313
#01315:130013000000130000000013
#01318:001300000013000000000000
#0131b:000000130000001300130000
#01312:001313
#01518:130013000000130000000013
#01512:001300000013000000130000
#01515:000000130000001300000000
#0151b:001313
#01615:130000130013000000000000
#0161b:001300130000
#01612:00000014
#01618:001300
#01715:001300000000000000000000
#01718:000013000000000000000013
#0171b:23000013
#01712:00130013
#0171a:0014
#01710:41
#01918:00130000
#01915:000000000013130000000000
#0191b:130000000000000013130000
#01912:000000000000000000000013
#02012:1313
#02016:00130000
#0201b:000013130000000000000000
#02017:000000000013130000000000
#02215:130013
#02218:13130013
#02212:000000130000000000000000130000000000000000001300
#0221b:0000001300000000
#0261b:001300230000
#02615:000000000000130000001300000000130000000000000000
#02618:260000000000000013000000000000130000000000000000
#02612:0023
#0281b:001300000013000000130000
#02812:130013000000130000130000
#02818:000000130000001300000000
#02815:001313
#03012:000000000013000000000000
#0301b:001300130000
#03018:001300001300000000000000
#03015:23230000
#03118:001300000013000013000000
#03112:230013000000130000130000
#0311b:23130000
#03115:000000001300001300000013
#03318:130000000000001300000000
#03312:001300000000000013000000
#0331b:000013000013000000130000
#03315:00131300
#03212:001300000013000000000000
#0321b:230013000000130000130000
#03215:000000130000000013000000
#03218:000000001300001300000000
#03512:23000014
#0351a:000000000000000000000014
#03515:00130000
#03518:00130000
#0351b:23
#03510:41
#0361a:14140000
#03615:14
#03616:00000013
#03617:000000000000140000000013
#03612:000000000014140000000000
#0361b:00000013
#03717:13
#03712:00130025
#03718:000000000013000000000000
#03715:0013
#03719:00000025
#03815:230000000013
#03818:230000000000000000000013
#0411b:13000013
#04114:001300000000
#04117:000000000000130013000000130000000000000000130000
#04112:130000000013000000000000
#04116:000013
#0421b:0013
#04216:13
#04217:000000001300000000000000000000130000000000000000
#04212:00130013
#04219:001300
#04214:000000000013000000000000
#04318:241400261600
#04313:000000250015000000000000
#04312:00000026
#04416:1313
#04417:00130000
#04418:000000000013
#04415:000000000000000000000013
#0441a:2424
#04412:00240024
#04616:13
#0461b:13
#04617:001300000000
#04612:000000130000002400240024
#04619:001300
#04614:000000000013000000000000
#0461a:000000242424
#04812:231300000000230000000000
#04818:000000001300000000000000000013000000000000130000
#04815:000000231300000013000000
#0481b:000000000013000000130000
#04810:41
#04916:231300000000000000000000
#0491b:000013000000000000230000
#04914:000000231300000000000000
#04919:000000000013000000000000
#04918:000000000000001300000013
#04915:000013
#04912:00002323
#05415:001300001300130000000000
#05418:230000000013000000000000
#0541b:001300000000
#05412:000000230000003333240000
#0541a:00000024
#06512:130000001300130000130000
#06518:001300000013000013001300
#06515:000013000000001300000013
#0651b:00130000
#06612:13130013
#0661b:130000003333230000130000
#06617:003333130000000000000000
#06616:000000003333230000000000
#06915:000000131300000000000013
#06918:000000000013000000131300
#0691b:001300230000
#06912:240000261300
#0691a:24
#07015:000000131300000000000000
#07018:260000000013000000000000
#0701b:001300000000
#07012:232c
#00715:000000130013000000000000
#00718:000013000014
#00714:000000000000000000140014
#0071b:231300230000
#0071a:000014
#00712:23
#01412:00005313
#01415:00130000
#0141b:00531300
#01418:13000053
#01419:005300000000000053000000
#0141a:000053000000005300000000
#01414:005300
#01413:000000000053000000000000
#02118:001300000000000000000000
#02115:000013000000000000000013
#02112:23001413
#0211b:00130013
#05012:1313
#0501b:00130023
#05015:00530023
#05013:005300000000000000000000
#05014:005300000000
#0501a:005300
#05019:000000000053000000000000
#05018:0053
#05115:231300000000000013000013
#0511b:000013000000000000130000
#05112:000000231300230000000000
#05118:000000000013001300000000
#0521b:231300000000230000000000
#05215:000000001300000000000000000013000000000000130000
#05218:000000231300000013000000
#05212:000000000013000000130000
#05317:231300000000000000000000
#05312:000013000013000000130000
#0531b:00130000
#05318:000000231300
#05315:000000000000001300000000
#05516:001414000000001400000000
#05512:000000001414000014000000
#0551a:240000240000240000240014
#05616:001414000000001400000000
#0561a:000000001414000014000000
#05612:24242424
#05712:001400000014000014000000
#05716:000014000000001400000000
#0571a:24242424
#05816:001414001400000000000000
#0581a:000000000014140000000000
#05812:24242424
#05916:001414000000001400000000
#0591a:000000001414000014000000
#05912:240000240000240000240014
#05910:41
#06016:001414000000001400000000
#06012:000000001414000014000000
#0601a:24242424
#0611a:001400000014000014000000
#06116:000014000000001400000000
#06112:24242424
#0621a:140000002424240000000000
#06216:24
#06312:23
#0631b:23
#02552:4c16
#06252:0014
#06256:64
#00452:00000053
#0045b:00000063
#00655:00000063
#00652:1517
#00658:00000053
#01258:53
#01255:0063
#0345b:63
#03452:0013
#03855:53
#03858:53
#03952:5353
#04052:00005333
#04057:53
#04056:0000000000230000
#0405b:00000043
#0455b:5353
#04552:0063
#04557:000000000023000000000000000000000000000000000000
#06352:63
#0635b:63
#06855:00000063
#06858:00000053
#06952:1416
#0695a:14
#00752:13
#0075b:1313
#00555:13
#00558:13
#00552:0013
#00152:00000053
#00252:0053
#00255:00000063
#01655:63
#01652:00000014
#0165b:0063
#01658:00000013
#01752:00630053
#01755:0014
#0175a:0014
#01855:00630053
#01858:53
#0185b:0023000000000000
#01852:0000002300000000
#01958:00630000
#01955:0053
#0195b:00000053
#02052:5353
#02056:00630013
#0205b:00000013
#02057:0053
#02258:00530063
#02255:63
#02252:0023000000000000
#0225b:0000002300000000
#02352:5300330000230000
#02355:0023000063001300
#02358:0023000053001300
#0235b:6300430000230000
#0245b:43
#02459:00450000
#02457:0047
#02455:00000049
#02658:1600000000230000
#02655:0000000000230000
#02652:00005333
#0265b:00005343
#02752:00000053
#0285b:00000063
#0295b:00000063
#0305b:0053
#03057:00000013
#0355b:5343
#03552:63003354
#03558:00230000
#03555:00230000
#03656:00000063
#0365a:00640000
#03757:53
#03755:0013
#03752:00000035
#03759:00000045
#0415b:63000063
#04157:0000000053000023
#0425b:00006343
#04256:63
#04252:00000033
#04257:0000000000230000
#04358:1416
#04353:00150000
#04352:00000016
#0445a:1414
#04456:1313
#04457:00130000
#04452:00140014
#04656:53
#04752:00000053
#0485b:00000063
#04858:0000000000000023
#05455:0053
#05452:00000014
#0545a:00000014
#0665b:53001363
#06657:00530000
#06652:00630053
#06656:0013
#06758:13
#06755:13
#07058:16
#07052:001c
#00859:15
#00857:0017
#0215b:00530063
#02152:0014
#02157:0014
#0335b:00000013
#0515b:00000063
#05252:00000053
#05255:0000000000000023
#0535b:00530000
#05352:00000053
#0575a:00000014
#05852:00000014
#0585a:0054
#05952:00000014
#0605a:00000014
#06152:00000014
#05055:00000013
#0505b:00000013
#05052:0053
#05652:00000014
#0555a:00000014
#03152:00000013
#0325b:00000013
#001320:00000013
#001350:000000000000000000000023
#002320:0013
#002350:000023
#002350:00000013
#003320:23
#004320:00000013
#005350:23
#0043b1:00000013
#005381:23
#006351:00000013
#007321:23
#006380:00000013
#0073b0:23
#012380:13
#0123b0:002300000000
#012350:0013
#012320:000000000000000033230000
#016350:13
#016320:002300000000
#0163b0:0013
#016380:00000023
#017320:00130000
#017350:000000000034240000000000
#017320:00000013
#017350:000000000000000000000023
#018380:13230000
#0183b0:0053000000000000
#018351:00132300
#018321:0000005300000000
#018351:00000013
#018321:000000000000000000000033
#019321:23
#019381:00130000
#0193b1:000000000023000000000000
#019351:0013
#019321:000023
#0193b1:00000013
#019371:000000000000000000000023
#020321:130000000033330000000000
#020361:000033330000000000230000
#020370:0013
#0203b0:00000023
#0213b0:00130000
#021370:000000000034240000000000
#0213b0:00000013
#021380:000000000000000000000023
#022350:13230000
#022320:0053000000000000
#022381:00132300
#0223b1:0000005300000000
#022381:00000013
#0223b1:000000000000000000000023
#023321:13230000
#023351:0053000000000000
#0233b0:13230000
#023380:0053000000000000
#023350:00001323
#023320:0000000000530000
#023381:00001323
#0233b1:0000000000530000
#026321:00001323
#026351:0000000000530000
#0263b0:00001323
#026380:0000000000530000
#027320:00000013
#027350:000000000000000000000023
#0283b0:00000013
#029370:23
#0293b0:00000013
#029370:000000000000000000000023
#0303b0:0013
#030370:00000023
#0343b0:13
#034370:002300
#0353b0:1323
#035380:00530000
#035321:1323
#035351:00530000
#035321:00000014
#035351:000000000000000000000024
#0363a1:00140000
#036371:000000000024000000000000
#036361:00000013
#036321:000000000000000000000023
#037371:13
#0373b1:00230000
#038351:13
#038321:00000023
#038380:13
#0383b0:00000023
#039320:13
#039360:002300000000
#039320:0013
#039360:000023
#040370:13
#0403b0:002300000000
#040320:00001323
#040360:0000000000530000
#0413b0:13
#041370:002300000000
#041370:0013
#0413b0:000023
#0413b0:00000013
#041370:0000000000000053
#0423b0:23
#042361:13
#042321:002300000000
#0423b1:00001323
#042371:0000000000530000
#0453b1:130000000023000000000000
#045371:000000000053000000000000000000000000000000000000
#0453b1:0013
#045381:00000023
#045320:0013
#045350:00000023
#046360:13
#046320:002300000000
#047320:00000013
#047350:000000000000000000000023
#0483b0:00000013
#048380:0000000000000053
#0493b0:23
#050320:0013
#050350:00000023
#0513b0:00000013
#051380:000000000000000000000023
#052320:00000013
#052350:0000000000000053
#053320:23
#0533b0:00130000
#053380:000000000023000000000000
#053320:00000013
#054350:23
#054350:0013
#054320:000000000000003333240000
#0583a0:0014
#058360:00000024
#062360:14
#062320:000000003434240000000000
#063320:13
#064320:0026
#0633b1:13
#064381:0026
#0663b1:130000003333230000000000
#066371:003333330000000000000000
#066320:00130000
#066360:000000003333230000000000
#0663b0:00000013
#067380:23
#066321:00000013
#067351:23
#068351:00000013
#069321:24
#068380:00000013
#0693a0:24
#010950:13
#010920:00230000
#010981:00130000
#0109b1:0023
#010920:0013
#010950:00000023
#014980:13
#0149b0:00230000
#014951:00130000
#014921:0023
#0149b0:0013
#014980:00000023
#050920:13
#050950:00230000
#0509b1:00130000
#050981:0023
