This file was generated by Ched 2.7.0.0.
#TITLE ""
#ARTIST ""
#DESIGNER ""
#DIFFICULTY 0
#PLAYLEVEL
#SONGID ""
#WAVE ""
#WAVEOFFSET 0
#JACKET ""
#REQUEST "ticks_per_beat 480"
#00002: 4
#BPM01: 140
#00008: 01
#TIL00: ""
#VOLUME: ""
#HISPEED 00
#MEASUREHS 00
#0011b:231300000000
#00115:000000130013000000000000
#00118:000000131300
#00112:00000013
#0021b:131300000000
#00212:000000130013000000000000
#00218:000000131300
#00215:00000013
#00318:131300000000
#00315:000000130013000000000000
#0031b:000000131300
#00312:000000000000000000130013
#00418:131300000000
#00415:000000130013000000000000
#0041b:0013
#00412:00000013
#00518:000000130013000000000000
#00515:230013000013
#0051b:000000000000000000130013
#00512:0023
#00618:000000130013000000000000
#00615:001300
#0061b:00000013
#00612:2323
#00715:000000130013000000000000
#00718:230013000013
#00712:000000000000000000130013
#0071b:0023
#00815:000000130013000000000000
#00818:001300
#0081b:2323
#01218:0013
#01212:0013
#0121b:13
#01318:000000003333000000130013
#01315:000013
#0131b:003333000000000000000000
#01415:000000003333000000130013
#01418:000013
#01412:003333000000000000000000
#01518:003333000000003333000013
#0151b:000000003333000000000000
#01612:13
#01615:00130000
#01715:130013000000000000130000
#01718:001300130000000000000013
#01710:41
#01812:13
#01815:00130013
#01818:000000000000000013000013
#01912:000000130013000000000000
#01918:000000130000130013000000
#01915:130000000000000000130013
#0201b:130000000033130000000000
#02018:000033130000000000000000
#02112:13
#02115:003333130000000000000013
#02118:00000013
#0221b:13
#02218:00130013
#02215:000000000000000013000013
#0231b:13
#02312:000000000013000000000000
#02318:0013
#02415:1313
#02418:001300001300
#02412:00130013
#0241b:000000000013000000000013
#02515:000000000013000000000000
#02518:000000000000000000000013
#0251a:0024
#02512:24
#02718:000013000013000000000000
#02715:000000130000003333000000
#02712:2313
#02710:41
#02815:000013000013000000000000
#02818:000000130000003333000000
#0281b:1313
#02918:000013000013000000000000
#02912:000000130000003333000000
#02915:1313
#03018:130000003333000000000000
#0301b:003333130000000000000000
#03012:130000003333000000000000
#03015:003333130000000000000000
#03115:001300000000
#03118:000000130000003333000000
#03112:000000000013000000000000
#0311b:2313
#03218:001300000000
#03215:000000130000003333000000
#0321b:000000000013000000000000
#03212:2313
#03315:001300000000
#0331b:000000130000003333000000
#03312:000000000013000000000000
#03318:1313
#03415:130000000000000000230023
#0341b:13
#03418:000000232323
#03412:0023
#03512:00000013
#03518:000000000000000000000013
#0351b:23
#03510:41
#03612:13
#0361b:00131300
#03615:000000000013000000130000
#03618:000000000000000000000013
#03712:130000000033000000230000
#03715:00130000
#0371b:00000023
#03912:131300130000
#03918:000000130013000000000000
#03915:001300
#0391f:11
#0401b:131300130000
#04015:000000130013000000000000
#04018:001300
#04112:131300130000
#04118:000000130013000000000000
#04115:001300
#0411b:00000013
#04215:131300130000
#0421b:00130000
#04212:001300
#04218:000000000013000000000000
#04315:1313
#04312:00130023
#0431b:1313
#04318:00130023
#04418:1313
#0441b:00130023
#04412:1313
#04415:00130023
#04512:13
#04515:00130000
#0451b:13
#04518:00130000
#04612:00130000
#0461b:00130000
#04615:23
#04618:23
#04712:231300130000
#04718:000000230013000000000000
#0471f:21
#04715:000000000000003333000000
#0481b:231300130000
#04815:000000230013000000000000
#04818:000000000000003333000000
#04810:41
#04912:230013000000003333000000
#04918:000000230013000000000000
#04915:0013
#05018:130000003333000000000000
#0501b:003333130000000000000000
#05012:130000003333000000000000
#05015:003333130000000000000000
#0511b:231300130000
#05115:000000230013000000000000
#05118:000000000000003333000000
#05212:231300130000
#05218:000000230013000000000000
#05215:000000000000003333000000
#0531b:230013000000003333000000
#05315:000000230013000000000000
#05318:0013
#05415:130000003333000000000000
#05412:003333130000000000230000
#0541b:130000003333000000000000
#05418:003333130000000000230000
#0551b:231300130000
#05518:000000001300003333000000
#05512:000000230013000000000000
#05515:001300000000000000000000
#05612:231300130000
#05615:000000001300003333000000
#0561b:000000230013000000000000
#05618:001300000000000000000000
#05718:231300130000
#0571b:000000001300003333000000
#05712:000000230013000000000000
#05715:001300000000000000000000
#05812:130000003333000000000000
#05815:003333130000000000000000
#0581b:130000003333000000000000
#05818:003333130000000000000000
#05912:231300130000
#05915:000000001300003333000000
#0591b:000000230013000000000000
#05918:001300000000000000000000
#05910:41
#0601b:231300130000
#06018:000000001300003333000000
#06012:000000230013000000000000
#06015:001300000000000000000000
#06115:231300130000
#06112:000000001300003333000000
#0611b:000000230013000000000000
#06118:001300000000000000000000
#0651b:131300131300
#06515:001300000000001300000000
#06512:000000130013000000130013
#06518:000013000013
#0661b:130000003333230000000000
#06618:003333130000000000000000
#06612:00000013
#06718:000000130013000000000000
#06715:230013000013
#0671b:000000000000000000130013
#06712:0023
#06818:000000130013000000000000
#06815:001300
#0681b:00000013
#06812:2323
#06915:000000130013000000000000
#06918:230013000013
#06912:000000000000000000130013
#0691b:0023
#07015:000000130013000000000000
#07018:001300
#0701b:2323
#00912:130000000000003333000000
#00915:00130000
#00918:000013000013000000000000
#0091b:000000000000000000000013
#00910:41
#01015:13130000
#01018:001300000000
#0101b:000000000013000000000000
#01012:000000000000003333000000
#01118:13131313
#01112:001300001300
#01115:000000000013000000000013
#06312:23
#0631b:23
#06214:24
#06218:24
#02612:24
#02615:0023
#02618:0023
#03812:23
#0381b:23
#02552:14
#0255a:0014
#0625a:0014
#06252:0014
#06254:64
#06258:64
#00452:00000053
#0065b:00000063
#0125b:63
#01258:0063
#01252:0063
#01652:6313
#01655:00630000
#01852:6313
#01855:00630000
#0205b:5353
#02058:00530013
#02152:6313
#02155:00630000
#0225b:5313
#02258:00530000
#0235b:53
#02358:0063
#02652:14000013
#02655:0053
#02658:0063
#0265b:00000013
#02752:0053
#02755:00000013
#0285b:0063
#02858:00000013
#02955:0063
#02952:00000013
#03058:6313
#0305b:00630000
#03052:6313
#03055:00630000
#0315b:0063
#03158:00000013
#03252:0053
#03255:00000013
#03358:0053
#0335b:00000013
#03455:63
#0345b:63
#03452:0013
#03458:0013
#03752:5313
#03755:00630000
#03852:53
#0385b:63
#03952:0053
#03955:00000013
#0405b:0063
#04058:00000013
#04152:0013
#0415b:00000013
#04255:0063
#04252:00000013
#04355:5353
#04352:00530013
#0435b:5353
#04358:00530013
#04458:6363
#0445b:00630013
#04452:6363
#04455:00630013
#04552:6313
#04555:00230000
#0455b:5313
#04558:00230000
#04652:00230000
#04655:5313
#0465b:00230000
#04658:6313
#04752:0053
#04755:00000013
#0485b:0063
#04858:00000013
#04955:0063
#04952:00000013
#05058:6313
#0505b:00630000
#05052:6313
#05055:00630000
#0515b:0063
#05158:00000013
#05252:0053
#05255:00000013
#05358:0053
#0535b:00000013
#05455:5313
#05452:00530013
#0545b:5313
#05458:00530013
#0555b:0063
#05558:00000013
#05652:0053
#05655:00000013
#05758:0053
#0575b:00000013
#05852:6313
#05855:00630000
#0585b:5313
#05858:00530000
#05952:0053
#05955:00000013
#0605b:0063
#06058:00000013
#06155:0063
#06152:00000013
#06352:63
#0635b:63
#0665b:5313
#06658:00530000
#06652:00000053
#0685b:00000063
#06958:13
#0695b:0013
#06755:13
#0705b:1313
#00758:13
#00555:13
#0355b:53
#03558:0013
#01758:00530000
#0175b:0013
#004320:00000013
#005350:23
#0063b0:00000013
#007380:23
#009320:000000000000133333000000
#009350:00000023
#010350:0013
#010320:000000000000003333230000
#0123b0:13
#012380:00230000
#012320:0013
#012350:00000023
#012381:0013
#0123b1:00000023
#013381:130000003333230000000000
#0133b1:003333330000000000000000
#014351:130000003333230000000000
#014321:003333330000000000000000
#0153b1:130000003333330000000000
#015381:003333330000003333230000
#016321:1323
#016351:00330000
#017381:00130000
#0173b1:000000000033230000000000
#018321:1323
#018351:00330000
#0203b1:130000000033330000000000
#020381:000033330000000000230000
#021321:130000000033230000000000
#021351:003333330000000000000000
#0223b1:1323
#022381:00330000
#0233b1:13
#023381:00230000
#023381:0013
#0233b1:00000023
#026351:0013
#026321:00000023
#026380:0013
#0263b0:00000023
#027320:0013
#027350:000000000000003333230000
#0283b0:0013
#028380:000000000000003333230000
#029350:0013
#029320:000000000000003333230000
#030380:130000003333230000000000
#0303b0:003333330000000000000000
#030321:130000003333230000000000
#030351:003333330000000000000000
#0313b1:0013
#031381:000000000000003333230000
#032321:0013
#032351:000000000000003333230000
#033381:0013
#0333b1:000000000000003333230000
#034351:13
#034321:00332300
#0343b0:13
#034380:00332300
#0353b0:13
#035380:0023
#037320:130000000033230000000000
#037350:00330000
#038320:13
#038350:00000023
#0383b1:13
#038381:00000023
#039321:0013
#039351:00000023
#0403b1:0013
#040381:00000023
#042351:0013
#042321:00000023
#043351:1333
#043321:00330023
#0433b0:1333
#043380:00330023
#044380:1333
#0443b0:00330023
#044321:1333
#044351:00330023
#045321:1323
#045351:00530000
#0453b0:1323
#045380:00530000
#046350:1323
#046320:00530000
#046381:1323
#0463b1:00530000
#047321:0013
#047351:000000000000003333230000
#0483b1:0013
#048381:000000000000003333230000
#049351:0013
#049321:000000000000003333230000
#050381:130000003333230000000000
#0503b1:003333330000000000000000
#050320:130000003333230000000000
#050350:003333330000000000000000
#0513b0:0013
#051380:000000000000003333230000
#052320:0013
#052350:000000000000003333230000
#053380:0013
#0533b0:000000000000003333230000
#054350:130000003333230000000000
#054320:003333330000000000000000
#0543b1:130000003333230000000000
#054381:003333330000000000000000
#0553b1:0013
#055381:000000000000003333230000
#056321:0013
#056351:000000000000003333230000
#057381:0013
#0573b1:000000000000003333230000
#058321:130000003333230000000000
#058351:003333330000000000000000
#0583b0:130000003333230000000000
#058380:003333330000000000000000
#059320:0013
#059350:000000000000003333230000
#0603b0:0013
#060380:000000000000003333230000
#061350:0013
#061320:000000000000003333230000
#062380:14
#0623a0:000000003434240000000000
#062341:14
#062321:000000003434240000000000
#063321:13
#064351:0023
#0633b0:13
#064380:0023
#0663b0:130000003333230000000000
#066380:003333330000000000000000
#066320:00000013
#067350:23
#0683b0:00000013
#069380:23
