This file was generated by Ched 2.7.0.0.
#TITLE ""
#ARTIST ""
#DESIGNER ""
#DIFFICULTY 0
#PLAYLEVEL
#SONGID ""
#WAVE ""
#WAVEOFFSET 0
#JACKET ""
#REQUEST "ticks_per_beat 480"
#00002: 4
#BPM01: 140
#00008: 01
#TIL00: ""
#VOLUME: ""
#HISPEED 00
#MEASUREHS 00
#0011a:2414
#00918:14
#00914:0014
#00910:41
#01118:14
#01112:0014
#00212:1414
#00318:1414
#00414:1414
#0101a:14
#01014:0014
#01312:14
#01318:0014
#01512:14
#0151a:0014
#01414:14
#01418:0014
#01718:1414
#01714:00140000
#01710:41
#01918:1414
#01914:00140014
#02714:00140000
#02718:24
#02710:41
#02812:14
#02818:00140000
#0291a:14
#02914:00140000
#03118:00140000
#03114:14
#0321a:14
#03214:00140000
#03312:14
#03318:00140000
#0361a:14
#03612:0014
#03718:14
#03714:00140000
#0371a:0014
#03712:00000014
#03914:14
#03918:00140000
#03912:0014
#0391f:11
#04018:14
#04014:00140000
#0401a:0014
#04114:14
#04118:00140000
#04112:0014
#0411a:00000014
#04214:14
#0431a:14
#04314:00140000
#04318:0014
#04312:00000014
#0441a:14
#04414:00140000
#04418:0014
#04412:00000014
#0551a:14
#05514:00140000
#05612:14
#05618:00140000
#0571a:14
#05714:00140000
#05918:00140000
#05914:14
#05910:41
#0601a:14
#06014:00140000
#06112:14
#06118:00140000
#06512:14
#06518:00140000
#06514:0014
#0651a:00000014
#01812:14
#02018:14
#02114:1414
#02118:00140000
#0221a:14
#02314:14
#02418:14
#03012:14
#0341a:14
#03818:14
#04718:00140000
#04714:24
#0471f:21
#0481a:14
#04814:00140000
#04810:41
#04912:14
#04918:00140000
#05114:00140000
#05118:14
#05212:14
#05218:00140000
#0531a:14
#05314:00140000
#0501a:14
#05412:14
#05818:14
#05812:14
#0251a:0024
#02512:24
#0631a:24
#06312:24
#00518:24
#00514:0024
#00618:24
#00614:0024
#0071a:24
#00712:0024
#0081a:24
#00812:0024
#02614:24
#0351a:24
#03512:24
#03510:41
#06214:24
#0621a:24
#06718:2424
#06814:2424
#06918:24
#06914:0024
#07018:24
#07014:0024
#0461a:24
#04614:24
#0075a:14
#00752:0014
#0085a:14
#00852:0014
#02552:14
#0255a:0014
#02652:00000014
#02654:54
#03054:0014
#03052:54
#04254:64
#0585a:0014
#05858:54
#05852:54
#05854:0014
#06252:0014
#06254:54
#0625a:54
#06258:0014
#06652:0014
#06958:14
#06954:0014
#07058:14
#07054:0014
#01852:54
#02058:64
#0225a:64
#02354:54
#02458:64
#0345a:64
#03458:0014
#03858:54
#0505a:64
#05058:0014
#05452:54
#05454:0014
#0123a0:14
#012380:0024
#016340:14
#016320:0024
#018320:14
#018340:0024
#020380:14
#0203a0:0024
#0223a0:14
#022380:0024
#023340:14
#023320:0024
#024380:14
#0243a0:0024
#026340:14
#026320:00003424
#027380:00001424
#028320:00001424
#0293a0:00001424
#030320:14
#030340:0024
#031340:00001424
#0323a0:00001424
#033320:00001424
#0343a0:14
#034380:0024
#035320:14
#035340:0024
#0353a1:14
#035381:0024
#038381:14
#0383a1:00000024
#042341:14
#042321:0024
#045381:14
#0453a1:0024
#0463a1:14
#046381:0024
#046340:14
#046320:0024
#047340:00001424
#0483a0:00001424
#049320:00001424
#0503a0:14
#050380:0024
#051380:00001424
#052320:00001424
#0533a0:00001424
#054320:14
#054340:0024
#055380:0014
#0553a0:00000024
#056340:0014
#056320:00000024
#057380:0014
#0573a0:00000024
#058380:14
#0583a0:0024
#058321:14
#058341:0024
#059321:0014
#059341:00000024
#0603a1:0014
#060381:00000024
#061321:0014
#061341:00000024
#062341:14
#062321:0024
#0623a0:14
#062380:0024
#0633a0:14
#064380:0024
#063321:14
#064341:0024
#066341:14
#066321:0024
