This file was generated by Ched 2.7.0.0.
#TITLE ""
#ARTIST ""
#DESIGNER ""
#DIFFICULTY 0
#PLAYLEVEL
#SONGID ""
#WAVE ""
#WAVEOFFSET 0
#JACKET ""
#REQUEST "ticks_per_beat 480"
#00002: 4
#BPM01: 140
#00008: 01
#TIL00: ""
#VOLUME: ""
#HISPEED 00
#MEASUREHS 00
#0101b:13000000130000000000001300000000
#01018:00001300000013000013000000001300
#01015:00000013000000001300000013000000
#01012:00000000001300000000130000000000
#0121b:1300000000130000
#01218:00000013
#01215:0000000000000013
#01212:00000013000013000000000000000000
#01217:00000013000000000000000000000000
#01210:41
#01312:1313
#01315:0000000000130000
#01318:00000013
#0131b:1300000013000013
#01314:00130000
#01319:00130000
#01515:0000001300000013
#01518:0000130000130000
#0151b:1313
#01512:13001313
#01715:0000001300001300
#0171b:1313
#01718:0000130000130013
#01712:1313
#02115:0013001300001300
#02118:00001300000000130000000000130000
#02112:00000000130000000013000000001300
#0211b:00000000130000000000001300000000
#02615:13
#02617:0000131300000000
#02612:0000001300000000
#0261b:13
#02712:0000131300000013
#0271b:00001313
#02718:0000130000130000
#02715:00001313
#02710:41
#02818:1300000000000013
#02812:0000000000130000
#02815:13000013
#0281b:00000013
#0281f:11
#0291b:1300000000000013
#02916:1300001300000000
#02917:00000013000000000000130000000000
#02912:00000013000000000000130000001300
#02915:00000013
#03417:0000130000000013
#03419:0000001300000000
#03416:0013
#03418:0000000000130000
#03415:00000013
#03412:0000130000000013
#0341b:0013
#03515:00000013
#03518:0000002600000013
#03512:0014152600000000
#03519:00150000
#0361b:13000000000000000000000000000013
#03615:0000001300001300
#03612:2313
#03618:00000000000000000000130000130000
#03617:00000013000000000000000000000000
#03616:00000000000000000000000000000013
#0361f:21
#0391b:1300001300000000
#03917:0000000000130000
#03912:0000000000130000
#04112:1313001300000013
#0411b:0000000013130000
#04117:3300001300000000
#04116:0033
#04212:1300130013000024
#04217:0013000000000000
#04216:0000001300000000
#0421b:13131300
#04215:0000000000130000
#04218:00000000000000000000001300000000
#0421a:0000000000000024
#0441a:0000000000000014
#04412:0013000000000053
#04414:0000005300130000
#04418:24
#04413:00530053
#04514:0000005300001400
#04518:0000000000000014
#04512:0013000000130000
#04513:00530000
#04612:14
#0461b:0013000000000053
#04619:0000005300130000
#0461a:00530053
#04715:14
#0471b:0013000000000053
#04719:0000005300130000
#0471a:00530053
#0491b:1300000000230000
#04917:00130000
#04912:0000130000230000
#04915:13000023
#04918:0000000000000023
#05018:00000013
#05015:0000000000000013
#0501b:23
#05012:23
#00418:00000013000000000000000013000000
#0041b:00000000000000000013000000000000
#00412:00000013
#00410:41
#00515:00000013000000000000000013000000
#00512:00000000000000000013000000000000
#0051b:00000013
#00618:00000013000000000000000013000000
#0061b:00000000000000000013000000000000
#00612:00000013
#00715:00000013000000000023000023000000
#0071b:0000000000230000
#00718:0000000000000023
#00915:13000013000000000000000000000000
#00917:00000000000000130000000000000000
#00919:00000013
#00916:00000000000000000000130000130000
#0091b:0013000000000000
#00918:00130000
#00912:00000000001300000000000000000000
#0111b:1313
#01115:00001300000000130000130000000000
#01118:00000013000013000000001300000000
#01112:13130013
#0161b:00000013000000000000130000000000
#01618:00000013
#01615:0000000000000013
#01616:00000013000000000000000000000000
#01612:0000001300000000
#01617:13
#0181b:13130000
#01812:0013000013000000
#01815:1300000000000023
#01816:00130000
#01817:0013
#02012:00130000000000130000000000001300
#0201b:13000000000000130000000013000000
#02018:00001300001300000000130000000000
#02015:00000013000000000000001300000000
#02010:41
#02218:13001300000000130000130000000000
#02215:00130013000000000013001300000000
#0221b:0000130000001313
#02212:00000000000013000000000000130000
#02312:0013000000000000
#02317:0013000000000000
#0231b:0013
#02316:0013
#02314:0000330000330000
#02319:0000330000330000
#0241a:14
#02412:0013000014000000
#02417:00000013000000001300000000001300
#02416:13000000000013000000001300000000
#0241b:0000000000130000
#0251a:14
#02512:0013000000000000
#02517:00000013000000000000000000000000
#02516:1300001300000000
#0251b:0000000000130000
#02515:00000013
#02518:0000000000000013
#0311b:13000013
#03119:0000000000000013
#03116:00000013
#03112:13
#03115:00000013000000000000000000000000
#03118:00000013000000000000000000000000
#03212:24001400000000240000000013000000
#03218:00130000
#03214:0000000000000013
#03217:13
#03215:00000000001300000000000000000000
#0321a:00000000000000240000000000000000
#0331a:24001400000000240000240000001400
#03316:13
#03315:00130000
#03318:00000000001300000000000000000000
#03312:00000000000000240000000000002400
#03314:00000024
#03717:0013000000001300
#03715:0000001300000000
#03712:00130013
#0371b:00131300
#03719:0000000000000013
#03718:0000001300000000
#03710:41
#03812:13000000000000000000001300000000
#03818:0013001300130013
#03815:00000013000000001300000000000000
#0381b:1313
#04018:00130000
#0401b:0000000000000013
#04015:0000001300000013
#04815:0000000000130000
#04812:0000000000000013
#04814:0013000000000000
#04819:0000001300000000
#04810:41
#05217:00000013000000000013000000000000
#05212:00000013
#05216:1300001300000000
#0521b:2300001300001300
#05215:0000000000000013
#0531b:00000013
#05316:00000013000000000013000000000000
#05312:0000001300001300
#05317:1300001300000000
#05416:00000013
#0541b:00000013000000000013000000000000
#05412:1300001300000000
#05417:0000001300000000
#05419:00000013
#05915:00001300000000130013000000000000
#05918:00000013000013000000130000000000
#05912:13130024
#0591b:1313
#05916:0000000000000024
#05512:00000013000000000000000023000000
#0551b:1300001300002300
#05516:0000001300000000
#05514:00000000000000000023000000000000
#05517:0000000000230000
#05518:0000000000000023
#0081b:1313000000001300
#00812:2300001313000000
#00818:00000000005300000000000000001300
#0081a:00000053000000000000000000000000
#00819:00530000
#00817:0000005300000000
#00813:00000000000000000053000000000000
#00814:0000000000530000
#00815:00000000000000000000005300000000
#00816:00000053
#0001c:12
#00112:12
#01916:0013
#0191b:0023000013000000
#01912:23230000
#01918:23
#01917:00230000
#0301b:0013000000130000
#03014:00130000
#03018:00000013
#03015:0000000000000013
#03012:0000001300000000
#03017:0000001300000000
#05718:13000013000000000000000000000000
#05716:00000000000000130000000000000000
#05714:00000013
#05717:00000000000000000000130000130000
#05712:0013000000000000
#05715:00130000
#0571b:00000000001300000000000000000000
#05812:13000000130000000000001300000000
#05815:00001300000013000013000000001300
#05818:00000013000000001300000013000000
#0581b:00000000001300000000130000000000
#05612:1313000000001300
#0561b:2300001313000000
#05615:00000000005300000000000000001300
#05613:00000053000000000000000000000000
#05614:00530000
#05616:0000005300000000
#0561a:00000000000000000053000000000000
#05619:0000000000530000
#05618:00000000000000000000005300000000
#05617:00000053
#01412:1300000000130000
#01415:00000013
#01418:0000000000000013
#0141b:00000013000013000000000000000000
#01416:00000013000000000000000000000000
#00218:23
#0601a:24
#0431a:0024000000000000
#04318:00000024
#04314:0000000000000024
#04316:2400002400000000
#04312:00242400
#0511a:24000024
#05112:24000024
#00316:24000024000024000024000000000000
#00315:0000000000002323
#00318:00000000000000000000000000230023
#06217:00520000
#00258:53
#02655:53
#02657:0000005300000000
#02652:0000005300000000
#02858:63
#0295b:53
#02957:00000053000000000000000000000000
#02952:0000000000000063
#03457:0000000000000063
#0365b:53
#03657:00000023000000000000000000000000
#03656:00000000000000000000000000000063
#03652:13
#0395b:0000006300000000
#03957:0000000000630000
#03952:0000000000630000
#0445a:0000000000000024
#04458:54
#04652:54
#04755:24
#0495b:5300001300000000
#04957:00530000
#04952:00630000
#04956:0000001300000000
#0515a:14000014
#05152:14000014
#0605a:64
#00352:00000014000000000000000000000000
#0035a:00000000000000000014000000000000
#00356:54000014000054000014000000000000
#00452:00000053
#0055b:00000063
#00652:00000053
#00957:00000000000000530000000000000000
#00956:00000000000000000000000000630000
#01252:0000005300000000
#0125b:53
#01257:00000053000000000000000000000000
#0155b:0053
#01552:00000063
#01558:0000000000230000
#01555:0000000000000023
#01652:0000005300000000
#01657:53
#0165b:00000053000000000000000000000000
#02052:00000000000000530000000000001300
#0205b:00000053
#02058:0000000000000013
#0215b:00530000
#02158:0053000000000000
#02152:00000000000000000053000000000000
#02258:00000000000000530000000000000000
#02352:0053000000001300
#02357:0053000000001300
#02356:0000001363000000
#0235b:0000001363000000
#02457:00000063000000000000000000001300
#02456:00000000000013000000006300000000
#02452:0000000000000013
#0245b:0000001300000000
#02557:00000063000000000000000000000000
#02556:0000005300000000
#03552:0000001600000000
#03558:0000001600000000
#03755:0000002300000000
#03752:00533300
#0375b:0043
#03855:00000053000000000000000000000000
#03852:00000000000000000000006300000000
#0405b:0000000000130053
#04052:0000000000130000
#04055:0000005300000000
#04152:0013006300000000
#04157:0013000000000000
#04156:0000000000130000
#0415b:0000000000130000
#0425b:0053
#04352:0054
#0435a:0014000000000000
#04356:0000001400000000
#05052:53
#0505b:53
#05055:0013
#05058:0013
#05252:00000053
#05256:6300006300000000
#05255:0000000000000023
#0535b:00000063
#05357:5300005300000000
#05456:00000063
#05452:5300005300000000
#0555b:6300006300000000
#0005c:52
#00152:62
#01856:00630000
#0185b:00630000
#01857:0023
#01852:0023
#01956:0023
#0195b:0023
#01952:00630013
#01957:00630013
#03152:6300001300000000
#03155:00000063000000000000000000000000
#03158:00000053000000000000000000000000
#0315b:0000001300000000
#03052:0000006300000000
#0325a:00000000000000540000000000000000
#03252:00000000000000340000000000000000
#03352:00000000000000640000000000000000
#0335a:00000000000000440000000000000000
#05756:00000000000000630000000000000000
#05757:00000000000000000000000000530000
#00852:13
#01452:63
#01456:00000063000000000000000000000000
#0145b:0000006300000000
#0565b:13
#0003c0:12
#001380:22
#001321:12
#002361:22
#002380:13
#0033b0:23
#003361:14
#003321:00000024000000000000000000000000
#003361:0000001400000000
#0033a1:00000000000000000024000000000000
#004321:13000023000000000000000000000000
#004351:00000000000013000023000000000000
#004321:00000013
#005361:23
#0053b0:13000023000000000000000000000000
#005380:00000000000013000023000000000000
#0053b0:00000013
#006370:23
#006321:13000023000000000000000000000000
#006351:00000000000013000023000000000000
#006321:00000013
#007361:23
#0073b0:13000023000000000000000000000000
#007380:00000000000013000023000000000000
#009370:00000000000000130000000000000000
#0093b0:0000000000230000
#009360:00000000000000000000000000130000
#010320:23
#011350:0000000000000013
#012350:23
#0123b1:1300002300000000
#012371:00000033000000000000000000000000
#012320:0000001300000000
#012360:0000000000230000
#014320:1300002300000000
#014360:00000033000000000000000000000000
#0143b1:0000001300000000
#014371:0000000000230000
#0153b1:00001323
#015381:0000000000330000
#015320:00000013
#015350:0000000000000033
#016320:23
#016371:1300002300000000
#0163b1:00000033000000000000000000000000
#016320:0000001300000000
#016360:0000000000230000
#018360:00130023
#018320:0053
#0183b1:00130023
#018371:0053
#019371:00130023
#0193b1:0053
#019320:00130023
#019360:0053
#020320:00000000000000130000000000000000
#020350:0000000000230000
#0203b0:00000013
#020380:0000000000000023
#021380:0013002300000000
#0213b0:00330000
#021320:00000000000000000013000000000000
#021350:00000000000000000000002300000000
#022380:00000000000000130000000000000000
#0223b0:00000000000000000023000000000000
#023320:0013000000000000
#023340:00330000
#023360:0000002300000000
#023371:0013000000000000
#023391:00330000
#0233b1:0000002300000000
#0233b1:0013
#023391:0000000000330000
#023371:00000023
#023360:0013
#023340:0000000000330000
#023320:00000023
#024370:00000013000000000000000000000000
#0243b0:0000002300000000
#024360:00000000000000000000001300000000
#024320:0000000000000023
#025370:00000013000000000000000000000000
#0253b0:0000002300000000
#025361:0000001300000000
#025321:0000000000230000
#026351:13
#026321:0000333300000000
#027361:23
#026370:0000001300000000
#0273b0:23
#028380:13
#0283b0:0000000000230000
#0293b0:1300002300000000
#029370:00000033000000000000000000000000
#029320:0000000000000013
#030360:0023000000000000
#030320:0000001300000000
#030360:0000000000230000
#031320:1300002300000000
#031350:00000033000000000000000000000000
#031381:00000013000000000000000000000000
#0313b1:0000002300000000
#0323a1:00000000000000140000000000000000
#032361:00000024
#033321:00000000000000140000000000000000
#033361:0000000000240000
#034371:0000000000000013
#0353a1:0024000000000000
#0363b1:1300002300000000
#036371:00000053000000000000000000000000
#036361:00000000000000000000000000000013
#037321:0023000000000000
#037321:00132300
#037351:0000005300000000
#038351:00000013000000000000000000000000
#038321:0000002300000000
#038321:00000000000000000000001300000000
#038351:0000000000000023
#039321:1323000000000000
#039380:0013230000000000
#039351:0000132300000000
#0393b0:0000001300000000
#039370:0000000000330000
#0403b0:23
#039321:0000000000130000
#040361:23
#040321:0013230000000000
#040351:0000001300000000
#040321:0000000033230000
#0403b0:0000000013230000
#0403b0:0000000000000013
#041370:3323000000000000
#041320:0000001300000000
#041360:0000000033230000
#0423b0:0013
#042380:0000000000230000
#043320:0014
#043340:00000024
#044380:14
#0443a0:0000000000000054
#045380:00000024
#046320:14
#047350:54
#048320:24
#048371:13
#0483b1:0033230000000000
#048360:00130000
#048320:0000003323000000
#0483b1:0000000013230000
#048381:0000000000001323
#0493b1:1300002300000000
#049371:00330000
#049320:00130000
#049360:0000002300000000
#0503b0:13
#050380:0023
#050321:13
#050351:0023
#052361:13
#052321:00000023000000000000000000000000
#052361:0000001300000000
#052321:00000000000000000023000000000000
#052321:00000013
#052351:0000000000000053
#053321:23
#053370:13
#0533b0:00000023000000000000000000000000
#053370:0000001300000000
#0533b0:00000000000000000023000000000000
#0533b0:00000013
#054370:23
#054321:13
#054361:00000023000000000000000000000000
#054321:0000001300000000
#054361:00000000000000000023000000000000
#054361:00000013
#055321:23
#0553b0:13
#055370:00000023000000000000000000000000
#0553b0:0000001300000000
#055370:00000000000000000023000000000000
#057360:00000000000000130000000000000000
#057320:0000000000230000
#057370:00000000000000000000000000130000
#0583b0:23
#0603a0:14
#062370:00220000
#0089b0:0013000000000000
#008970:0000002300000000
#008920:0013
#008960:00000023
#044920:0013000000000000
#044940:0000002300000000
#044940:0000000000130000
#044920:0000000000000023
#045920:0013000000000000
#045940:0000002300000000
#0469b0:0013000000000000
#046990:0000002300000000
#046990:0000000000130000
#0469b0:0000000000000023
#0479b0:0013000000000000
#047990:0000002300000000
#047990:0000000000130000
#0479b0:0000000000000023
#056920:0013000000000000
#056960:0000002300000000
#0569b0:0013
#056970:00000023
