This file was generated by Ched 2.7.0.0.
#TITLE ""
#ARTIST ""
#DESIGNER ""
#DIFFICULTY 0
#PLAYLEVEL
#SONGID ""
#WAVE ""
#WAVEOFFSET 0
#JACKET ""
#REQUEST "ticks_per_beat 480"
#00002: 4
#BPM01: 140
#00008: 01
#TIL00: ""
#VOLUME: ""
#HISPEED 00
#MEASUREHS 00
#0521b:00001313
#05218:00130000
#05212:23130000
#05215:0000000000130000
#00418:0000130000130000
#00415:00001313
#00410:41
#0051b:13
#00515:0000130000130000
#00518:00001313
#00618:0000130000130000
#00612:13
#00615:00001313
#0071b:13
#00712:00130000
#00718:00002323
#00715:0000000000230023
#00812:00130000
#0081b:23001313
#00815:0000000000130000
#00912:13001313
#0091b:00130000
#00918:0000000000130000
#0101b:13001313
#01012:00130000
#01015:0000000000130000
#01112:13
#0111b:00130000
#01115:00002323
#01118:0000000000230023
#01212:13
#0121b:0000000000130000
#01215:00000033000000000000000013000000
#01218:0000000000000013
#01210:41
#01312:1300000000000013
#01318:0013
#01315:0000000000130000
#0131b:00000013
#02018:00000013
#02012:1300000000000013
#02015:00333333003300330000000000000000
#02010:41
#02115:0000000000000013
#0211b:0013000000000000
#02118:00000000330033330033003300000000
#02218:13001313
#02212:0000000000130000
#02215:0000001300000013
#0221b:00333333000000000000000000000000
#0231b:0013000000130000
#02312:00131300
#02318:0000001300000000
#02315:00000013
#02415:13000000000000000000003300003300
#02412:00000033000033001300000000000000
#0241b:13000000000000000000003300003300
#02418:00000033000033001300000000000000
#02515:13000013
#0251b:1300000000130000
#02518:00003333000000000000000000001300
#02512:00003333000000000000000000000000
#02612:13
#02615:0000331300000000
#02718:00130013
#02715:0000001300000013
#0271b:0013
#02712:0000000000130000
#02710:41
#02818:13000013
#02815:0000000000130013
#0281f:11
#0291b:13
#02912:0000000000130000
#02918:00000033000000000000000013000000
#02915:0000000000000013
#0301b:0013000000000000
#03015:0000130000130000
#03018:0000001300001300
#03012:0000000000000013
#0311b:13
#03115:00000013
#03118:00000033000000000000000000001300
#03215:1300000000000013
#03218:00000013
#03212:00003300333300230000000000000000
#03318:13000023
#0331b:00003300333300230000000000000000
#03312:0000000000230000
#03315:0000000000000023
#03418:00130000
#03415:0000001300000013
#0341b:00001313
#03412:0000000000130000
#03518:00000013
#03515:0000000000000013
#03512:0000002300000000
#03615:00000000000013000000000000130000
#03618:00001313
#03612:0000000000130000
#0361b:23000000000000000000000000000013
#0361f:21
#03715:0000130000000013
#0371b:0000001300000000
#03712:0013
#03718:00000013
#03710:41
#03818:13
#03815:0013
#0381b:0033000000000000
#03812:0000000000330000
#03918:13
#03912:0013000000000000
#0391b:00130000
#03915:0000001300000000
#04018:0013001300000000
#04015:00131300
#0401b:0000000000130013
#04115:1300000000000013
#0411b:0013000000000000
#04118:0000001300130000
#04112:0013
#0421b:1313
#04215:0013000000000023
#04218:00130000
#04212:0000001300000000
#04412:00000014
#04414:24
#04518:00000014
#04514:0000000000000014
#0461a:14
#04618:0000000000000014
#04812:13000013
#04818:0013000000130000
#04815:00131300
#0481b:0000001300000013
#04810:41
#04915:13000023
#04918:0000000000230000
#0491b:0000000000000023
#05018:00000013
#05015:0000000000000013
#05012:23
#05712:13130000
#05718:00130000
#05715:00001313
#0571b:0000000000130000
#0591b:1313
#05915:1300000000000023
#05918:00130023
#05912:0000130000130000
#00018:13
#00115:13
#01615:13000013
#0161b:0000000000130000
#01618:0000000000000013
#01612:00000033000000000000000000000000
#0141b:13
#01412:0000000000130000
#01418:00000033000000000000000013000000
#01415:0000000000000013
#0151b:1300000000000013
#01515:0013
#01518:0000000000130000
#01512:00000013
#01712:13000013
#01715:0013
#01718:0000000000130000
#0171b:0000001300000013
#01815:13
#01818:0013000000000023
#01812:00130000
#05415:13130000
#05412:00001313
#0541b:00130000
#05418:0000000000130000
#05312:00001313
#05315:00130000
#0531b:13130000
#05318:0000000000130000
#05618:13130000
#0561b:00001313
#05612:00130000
#05615:0000000000130000
#0551b:1313
#05518:00130013
#05515:1300000000130013
#05512:00130000
#0581b:13130000
#05815:00130000
#05818:00001313
#05812:0000000000130000
#06012:24
#0601a:24
#00315:23
#0431b:23
#04312:0023000000000000
#04318:0000230000000024
#04315:0000002300000000
#0431a:0024
#04314:00000024
#0511b:23
#05114:00000023
#05119:00000023
#00218:23
#01915:23
#01912:0023000000000000
#01918:00230000
#04718:34
#06218:00520000
#06216:00520000
#03252:00000000000000130000000000000000
#03255:53
#01252:53
#02052:53
#02258:53
#02255:0000000000000013
#02355:00000013
#02455:53
#02452:0053
#0245b:53
#02458:0053
#02555:53
#0255b:53
#02652:63
#02655:0000006300000000
#02858:63
#0295b:53
#0315b:53
#03158:0000001300000000
#03358:63
#0335b:00000000000000130000000000000000
#03455:0000000000000053
#03552:0000001300000000
#0365b:53000000000000000000000000000063
#03858:53
#03855:0063
#03955:0000006300000000
#03952:0000000000130000
#0425b:0053
#04452:00000024
#04454:64
#0465a:64
#04658:0000000000000024
#04955:53
#04952:0000001300000000
#0435a:0014
#0515b:13
#05154:00000013
#05159:00000013
#06052:54
#0605a:64
#00058:53
#00155:53
#00258:53
#00355:53
#00452:13
#01655:63
#0215b:0053000000000000
#05052:63
#05055:0013
#03752:0013
#0085b:13
#01958:00530000
#0195b:00000013
#0145b:63
#01852:00630000
#000380:13
#0013b0:23
#001351:13
#002321:23
#002380:13
#0033b0:23
#003351:13
#004321:23
#012321:13
#012351:00000033000023000000000000000000
#0143b1:13
#014381:00000033000023000000000000000000
#016351:13
#016321:00000033000023000000000000000000
#018321:00130000
#018351:00000023
#019381:00130000
#0193b1:00000023
#020321:13
#020351:00333333003300330000230000000000
#0213b1:0013000000000000
#021381:00000000330033330033003323000000
#022381:13
#0223b1:00333333230000000000000000000000
#024351:13000000000000000000003300003300
#024321:00000033000033003300000000000000
#025351:33
#025321:00003333000023000000000000000000
#0243b0:13000000000000000000003300003300
#024380:00000033000033003300000000000000
#0253b0:33
#025380:00003333000023000000000000000000
#026320:13
#026350:0000333300000000
#027320:23
#028380:13
#0283b0:0023
#0293b0:13
#029380:00000033000023000000000000000000
#0313b0:13
#031380:00000033000023000000000000000000
#032350:13
#032320:00003300333300230000000000000000
#033380:13
#0333b0:00003300333300230000000000000000
#034350:0000000000000013
#035320:0033332300000000
#0363b0:13
#036380:00230000
#0363b0:00000000000000000000000000000013
#037380:0023000000000000
#038380:13
#0383b0:00003333000023000000000000000000
#038350:0013
#038320:00000000000000000000333300002300
#039350:0000001300000000
#039320:0000000000230000
#0423b0:0013
#042380:00000000000000000000332300000000
#044340:14
#044320:00000054
#045340:0024
#0463a0:14
#046380:0000000000000034
#047380:34
#0473a0:00000024
#049350:13
#049320:0000332300000000
#050320:13
#050350:0023
#060320:14
#062360:00220000
#0603a1:14
#062381:00220000
