This file was generated by Ched 2.7.0.0.
#TITLE ""
#ARTIST ""
#DESIGNER ""
#DIFFICULTY 0
#PLAYLEVEL
#SONGID ""
#WAVE ""
#WAVEOFFSET 0
#JACKET ""
#REQUEST "ticks_per_beat 480"
#00002: 4
#BPM01: 145
#00008: 01
#TIL00: ""
#VOLUME: ""
#HISPEED 00
#MEASUREHS 00
#0531f:11
#03616:13000013
#03617:0013
#03613:00000000000000000000000000000053
#03614:0000000000000053
#03615:00000000000000000000000000530000
#0361a:00000000000000000000005300000000
#0361b:00000053
#03619:0000000000530000
#03618:00000000000000000053000000000000
#0051b:0013
#00518:0000000000130000
#00515:00000013
#00512:1300000000000013
#00517:13
#00516:00130000
#00510:41
#00712:0013
#00715:0000000000130000
#00718:00000013
#0071b:1300000000000013
#00716:13
#00717:00130000
#09117:1300001313000000
#09112:0013001300000013
#0911b:00230023
#08218:0000001300000000
#08214:0013000000000000
#08212:13
#08216:00130000
#08219:0000000000130000
#08215:0000000000000013
#0821b:0013
#08217:00000013
#08115:00131300
#08118:0013000000000013
#08112:2300001300131300
#0811b:13130000
#08016:00000000000000000000000000000000000000000000000000000000000000000000000000000014000000000000000000000000000000000000000000000000
#08017:00000000000000000000000000000000000000000000000000000000000000002200000000120000000000000000000000000000000000000000000000000000
#08012:0000000013131300
#08015:1313130000000000
#08019:0000001300000013
#0131a:0000001400000000
#01314:00140000
#01312:14
#01318:0014000000000000
#01412:14
#01418:0000000014000013
#01415:00000013
#01414:0014
#01419:00140000
#01413:00140000
#0111b:1300130000130013
#01117:0000001300001300
#01116:1300000000130000
#01112:0013000013000013
#09217:1300001313130000
#09216:00000013
#09212:0013130013130000
#09215:00000000000000000000000000000013
#09218:0000000000000013
#0921b:00230023
#09014:0000001300000000
#09016:1313000013000000
#09019:000000000000000000130000000000000053000000000000
#0901b:1313000013130000
#09012:0000230000002313
#09017:00130000
#09018:00000053
#0901a:000053
#0891b:00001313
#08916:1300001300130013
#08912:00230023
#08816:1300001313000013
#0881b:0013130000000000
#08812:00230023
#0871b:0013001300000013
#08716:6300001313000000
#08712:00230023
#03312:1313000000000013
#03317:0013000000001300
#03316:0013
#0331b:0013
#03412:0013
#03417:0000003313000000
#03416:00000000000000000000000000000013
#0341b:0000000000000013
#03413:0000001300000000
#03414:00130000
#03415:0013000000000000
#03419:00330000
#0311b:0013000013000013
#03116:0000000013000013
#03118:13
#03112:0000001300000000
#03117:00000013
#00916:0000001800000000
#00918:0000000000130000
#00912:0018000000000000
#0091b:13
#00915:2213
#00919:00220000
#02012:001600000000000000000000000000000000000000000000000000000000000000000000000000000000000000000000000000000000000000000000000000000000000000000000000000000000000000000000000000000000000000000000000000000000000000000000000000000000000000000000000000000000000000000000000000000000000000000000000000000000000000000000000000000000000000000000000000000000000000000000000000000000000000000000000000000000000000000000000000000000000000000000000000000000000000000000000000000000000000000000000000000000000000000000000000000000000000000000000000000000000000000000000000000000000000000000000000000000000000000000000000000000000000000000000000000000000000000000000000000000000000000000000000000000000000000000000000000000000000000000000000000000000000000000000000000000000000000000000000000000000000000000000000000000000000000000000000000000000000000000000000000000000000000000000000000000000000000000000000000000000000000000000000000000000000000000000000000000000000000000000000000000000000000000000000000000000000000000000000000000000000000000000000000000000000000000000000000000000000000000000000000000000000000000000000000000000000000000000000000000000000000000000000000000000000000000000000000000000000000000000000000000000000000000000000000000000000000000000000000000000000000000000000000000000000000000000000000000000000000000000000000000000000000000000000000000000000000000000000000000000000000000000000000000000000000000000000000000000000000000000000000000000000000000000000000000000000000000000000000000000000000000000000000000000000000000000000000000000000000000000000000000000000000000000000000000000000000000000000000000000000000000000000000000000000000000000000000000000000000000000000000000000000000000000000000000000000000000000000000000000000000000000000000000000000000000000000000000000000000000000000000000000000000000000000000000000000000000000000000000000000000000000000000000000000000000000000000000000000000000000000000000000000000000000000000000000000000000000000000000000000000000000000000000000000000000000000000000000000000000000000000000000000000000000000000000000000000000000000000000000000000000000000000000000000000000000000000000000000000000000000000000000000000000000000000000000000000000000000000000000000000000000000000000000000000000000000000000000000000000000000000000000000000000000000000000000000000000000000000000000000000000000000000000000000000000000000000000000000000000000000000000000000000000000000000000000000000000000000000000000000000000000000000000000000000000000000000000000000000000000000000000000000000000000000000000000000000000000000000000000000000000000000000000000000000000000000000000000000000000000000000000000000000000000000000000000000000000000000000000000000000000000000000000000000000000000000000000000000000000000000000000000000000000000000000000000000000000000000000000000000000000000000000000000000000000000000000000000000000000000000000000000000000000000000000000000000000000000000000000000000000000000000000000000000000000000000000000000000000000000000000000000000000000000000000000000000000000000000000000000000000000000000000000000000000000000000000000000000000000000000000000000000000000000000000000000000000000000000000000000000000000000000000000000000000000000000000000000000000000000000000000000000000000000000000000000000000000000000000000000000000000000000000000000000000000000000000000000000000000000000000000000000000000000000000000000000000000000000000000000000000000000000000000000000000000000000000000000000000000000000000000000000000000000000000000000000000000000000000000000000000000000000000000000000000000000000000000000000000000000000000000000000000000000000000000000000000000000000000000000000000000000000000000000000000000000000000000000000000000000000000000000000000000000000000000000000000000000000000000000000000000000000000000000000000000000000000000000000000000
#02018:001600000000000000000000000000000000000000000000000000000000000000000000000000000000000000000000000000000000000000000000000000000000000000000000000000000000000000000000000000000000000000000000000000000000000000000000000000000000000000000000000000000000000000000000000000000000000000000000000000000000000000000000000000000000000000000000000000000000000000000000000000000000000000000000000000000000000000000000000000000000000000000000000000000000000000000000000000000000000000000000000000000000000000000000000000000000000000000000000000000000000000000000000000000000000000000000000000000000000000000000000000000000000000000000000000000000000000000000000000000000000000000000000000000000000000000000000000000000000000000000000000000000000000000000000000000000000000000000000000000000000000000000000000000000000000000000000000000000000000000000000000000000000000000000000000000000000000000000000000000000000000000000000000000000000000000000000000000000000000000000000000000000000000000000000000000000000000000000000000000000000000000000000000000000000000000000000000000000000000000000000000000000000000000000000000000000000000000000000000000000000000000000000000000000000000000000000000000000000000000000000000000000000000000000000000000000000000000000000000000000000000000000000000000000000000000000000000000000000000000000000000000000000000000000000000000000000000000000000000000000000000000000000000000000000000000000000000000000000000000000000000000000000000000000000000000000000000000000000000000000000000000000000000000000000000000000000000000000000000000000000000000000000000000000000000000000000000000000000000000000000000000000000000000000000000000000000000000000000000000000000000000000000000000000000000000000000000000000000000000000000000000000000000000000000000000000000000000000000000000000000000000000000000000000000000000000000000000000000000000000000000000000000000000000000000000000000000000000000000000000000000000000000000000000000000000000000000000000000000000000000000000000000000000000000000000000000000000000000000000000000000000000000000000000000000000000000000000000000000000000000000000000000000000000000000000000000000000000000000000000000000000000000000000000000000000000000000000000000000000000000000000000000000000000000000000000000000000000000000000000000000000000000000000000000000000000000000000000000000000000000000000000000000000000000000000000000000000000000000000000000000000000000000000000000000000000000000000000000000000000000000000000000000000000000000000000000000000000000000000000000000000000000000000000000000000000000000000000000000000000000000000000000000000000000000000000000000000000000000000000000000000000000000000000000000000000000000000000000000000000000000000000000000000000000000000000000000000000000000000000000000000000000000000000000000000000000000000000000000000000000000000000000000000000000000000000000000000000000000000000000000000000000000000000000000000000000000000000000000000000000000000000000000000000000000000000000000000000000000000000000000000000000000000000000000000000000000000000000000000000000000000000000000000000000000000000000000000000000000000000000000000000000000000000000000000000000000000000000000000000000000000000000000000000000000000000000000000000000000000000000000000000000000000000000000000000000000000000000000000000000000000000000000000000000000000000000000000000000000000000130000000000000000000000000000000000000000000000000000000000000000000000000000000000000000000000000000000000000000000000000000000000000000000000000000000000000000000000000000000000000000000000000000000000000000000000000000000000000000000000000000000000000000000000000000000000000000000000000000000000000000000000000000000000000000000000000000000000000000000000000000000000000000000000000000000000000000000000000000000000000000000000000000000000000000000000000000000000000000000000
#02015:00000000000000000000000000000013
#07616:23000013
#07612:00132300
#07614:0000000000130013
#0761b:13001323
#07619:0013001300000000
#07617:00230000
#07217:23000013
#0721b:00132300
#07219:0000000000130013
#07212:13001323
#07214:0013001300000000
#07216:00230000
#04818:00130000
#04815:00130000
#0481b:1300000000130000
#04812:1300000000130000
#04712:13000013
#04713:0013
#04714:0000130000000013
#04719:0013000000001300
#0471a:0013
#0471b:13130000
#04718:0000001300130000
#04715:0000001300130000
#04717:0000000000000013
#04716:0013000000000000
#01817:13130000
#01816:0013000000130000
#01812:1313
#0181b:0000001300001300
#01819:0000000000000014
#01813:0000000000000014
#00317:0000001313000000
#00316:1313000000001313
#0031b:1313000000000013
#00312:0013
#06815:00130000
#06812:1300000000000013
#06818:00130000
#0681b:1300000000000013
#01616:0000001300000000
#0161b:13131313
#01612:13
#01012:0013
#0101b:0000000000001313
#01016:0000000000000013
#00412:0000000000130000
#00417:0023000000130000
#0041b:0000002313000000
#00416:0000001323000000
#00419:0000130000000013
#00414:0000230000000013
#00116:0013000000000000
#00112:2300001313000000
#0011b:2313000013001300
#00114:0000000000000013
#00212:13001313
#0021b:1313
#00214:0000000000000013
#00218:0013001300000000
#00215:00130000
#09312:0013001300000000
#0931b:0000230000002313
#09318:1313001300000000
#09315:00130000
#09316:0000000000000023
#0831b:0000000000000013
#08318:0000001300000000
#08315:0000000013131300
#08312:1313130000000000
#0841b:0000000013131300
#08418:1313130000000000
#08415:0000000000000013
#08412:0000001300000000
#07818:0000000000000013
#07814:0000000000130000
#07812:0013
#07815:0000001300000000
#07819:0013000000000000
#0781b:13
#07816:00000013
#07817:00130000
#07912:0000000000000013
#07915:0000001300000000
#07918:0000000013131300
#0791b:1313130000000000
#07718:00131300
#07715:0013000000000013
#0771b:2300001300131300
#07712:13130000
#07512:00132300
#07515:2300000000000013
#07514:00000013
#07513:0000000000130000
#07517:0013
#07518:0000001300000000
#0751a:0013000000000000
#0751b:13000023
#07519:00230000
#0711b:00132300
#07118:2300000000000013
#07119:00000013
#0711a:0000000000130000
#07116:0013
#07115:0000001300000000
#07113:0013000000000000
#07112:13000023
#07114:00230000
#0741b:1300000000000013
#07415:2313130000000000
#07418:0000231313002300
#07412:0000000023131300
#07312:2313131300001300
#07318:0013
#0731b:2300230000132313
#07315:0023
#07018:2313130000000000
#07012:1300000000000013
#07015:0000231313002300
#0701b:0000000023131300
#07010:41
#0691b:2313131300001300
#06915:0013
#06912:2300230000132313
#0691f:21
#06918:0023
#01712:00000000001600002300000000160000
#01718:00160000000000000016000000000000
#01714:0023220000232200
#0171a:2222
#01719:0000002300000023
#0171b:00000023
#01717:00230000
#01716:23
#00818:0000000000000013
#00815:00000013
#0081b:0000001300000000
#00819:13130000
#00817:0013000000000000
#00816:0000001300000000
#00814:13130000
#00812:0013000000000000
#00612:0000130000130000
#0061b:0000230000130000
#00615:1313
#0061a:0013001300000000
#00618:2323
#00613:0023002300000000
#0421b:0000000000130000
#04212:0000001300000013
#04216:0000000000130000
#04217:0000131300000000
#04112:13
#04116:0000001300000013
#04117:1300000000130000
#0411b:0000131300000000
#04418:00000000000000000000000000130013
#04415:1300000000001313
#04413:0000001300000000
#04412:0000130000130000
#0441b:0000130000130000
#0441a:0013000000000000
#04419:1313
#04414:0013
#0451a:0000000000130013
#0451b:0013000000001300
#04513:0000000000130013
#04512:0000001313000000
#04615:0000000000130013
#04618:0000000000130013
#04614:0013001300000000
#04619:0013001300000000
#04612:1313
#0461b:00130013
#03916:00130000
#03913:0000001300130000
#03919:0000130000130000
#0391b:0000001300000000
#03915:1313
#03918:1313
#03917:00000013
#0391a:0013000000000013
#03914:0013000000001300
#03912:0000000000000013
#03910:41
#04015:1300000000000013
#04018:13000013
#0401b:0000130000130000
#04012:00130000
#0381b:0000000000130013
#03812:0000000000130013
#0381a:0013001300000000
#03813:0013001300000000
#03815:00130013
#03818:1313
#03719:0000000000130013
#03714:0000000000130013
#03718:0000001313000000
#03715:0013000000001300
#03712:53
#03516:00130000
#03515:0000000000000013
#03514:0000001300001300
#03513:0000000000130000
#03512:0013
#02717:00130000
#02718:0000000000000013
#02719:0000001300001300
#0271a:0000000000130000
#0271b:0013
#02710:41
#02817:13
#02812:13
#02818:00000000000000000000000000000013
#02815:0000000000000013
#08612:0013000000001300
#0861b:0013
#08618:00000000000013000000005300000000
#08615:00000000130000000000000000000053
#0861a:24000000000000000053000000000000
#08617:00000053
#08614:0000000000000053
#08613:00000000000000000000000000530000
#08619:0000000000530000
#09412:0013000000000013
#09415:00000013
#09418:0000000000130000
#0941b:0000001313000000
#09416:0000002300000000
#09417:0023000000000000
#02617:00000000000000000000000000000013
#02612:0000000000000013
#0261a:0000001300000000
#02619:00130000
#02618:0013000000000000
#0261b:0013
#02616:0000003300000000
#02614:00330000
#04312:0000001300000013
#04318:00130013
#04314:00130013
#0431b:0013000000130000
#04319:1313
#04315:1313
#02517:0013
#02512:0013
#02516:00000013
#0251b:1313000000000013
#02312:0013000013000013
#02317:0000000013000013
#0231b:0000001300000000
#02316:00000013
#02412:0000001313000000
#02417:0000001313000000
#0241b:0013000000000013
#02416:00000000000000000000000000000013
#02419:00130000
#02414:00130000
#06715:0013001300000000
#06718:13130000
#0671a:0000000000130013
#06713:0000000000130013
#06719:00000013
#06714:00000013
#0671b:0013
#06712:0013
#0661b:13000013
#06615:00000013
#06612:00131300
#06618:00130000
#0651b:13000013
#06515:00000013
#06512:00131300
#06518:00130000
#04914:14
#03214:0000001300000000
#03219:0000001300000000
#03212:0013130000000013
#0321b:00130000
#03217:00000000000000000000000000000013
#03012:00131300
#03017:00131300
#03016:0000001300000000
#0301b:0000001300000000
#0291b:0013000000001313
#02912:2300001313000000
#02916:0000000000000013
#02917:0013
#02218:0000000000000013
#02215:00000000000000000000000000000013
#0221b:00131300
#02216:00131300
#02217:0000001300000000
#02212:0000001300000000
#02112:0013000000001313
#0211b:2300001313000000
#02117:0000000000000013
#02116:0013
#08516:00140014
#0851a:2424
#08510:41
#0151b:0000001313000013
#01512:1313
#01510:41
#0521a:00000024
#05212:00000024
#0961c:00000052
#09612:00000052
#0145a:14
#01452:14
#01458:0014
#01454:0014
#01459:00140000
#01453:00140000
#0345b:00000013
#03456:00000013
#03452:0053
#03457:0053
#00854:63631300
#00859:63631300
#0085b:0000002300000000
#00857:0023000000000000
#00856:0000002300000000
#00852:0023000000000000
#0285b:00000013
#02856:00000013
#02857:53
#02852:53
#06852:5333
#0685b:6343
#06855:00230000
#06858:00230000
#04152:5300000000130000
#04156:0000006300000063
#04157:0000000000530000
#0415b:0000006300000000
#05154:1414
#05158:00140014
#03056:0000002300001300
#0305b:0000002300001300
#03052:00535300
#03057:00535300
#02652:00000013
#02657:00000013
#0265b:0023
#0245b:00000013
#02456:00000013
#02452:0053
#02457:0053
#03254:0000000000120000
#03258:00000012
#02257:0000002300001300
#02252:0000002300001300
#0225b:00636300
#02256:00636300
#05254:14
#0525a:00000044
#05252:00000034
#08756:13
#09456:0000001300000000
#09457:0013000000000000
#09356:0000000000000013
#09352:0000005300000000
#00959:00220000
#00955:22
#00956:0000006800000000
#00952:0058000000000000
#00456:0063
#00452:0000000000230000
#00457:0000000000230000
#0045b:0063
#0775b:13000013
#07752:00130000
#0735b:13
#06952:13
#01754:00220022
#0175a:2222
#01752:00000000005600000000000000560000
#01758:00660000000000000066000000000000
#00658:0053
#00652:0000000000230000
#0065b:0000000000230000
#00655:0063
#02952:1353
#0295b:0063000000000063
#0215b:1363
#02152:0053000000000053
#00557:53
#00556:00630000
#00756:63
#00757:00530000
#09157:13
#08256:00130000
#08257:00000013
#08152:00000013
#0815b:00130000
#08056:00000000000000000000000000000000000000000000000000000000000000000000000000000024000000000000000000000000000000000000000000000000
#08057:00000000000000000000000000000000000000000000000000000000000000000000000000520000000000000000000000000000000000000000000000000000
#08052:00000013
#08055:00130000
#0115b:0000630000000023
#01157:0000002300005300
#01156:6300000000230000
#01152:0023000053000000
#03352:0053000000000000
#03357:0053000000000000
#03356:0063
#0315b:0063000000000063
#03156:0063
#02052:005600000000000000000000000000000000000000000000000000000000000000000000000000000000000000000000000000000000000000000000000000000000000000000000000000000000000000000000000000000000000000000000000000000000000000000000000000000000000000000000000000000000000000000000000000000000000000000000000000000000000000000000000000000000000000000000000000000000000000000000000000000000000000000000000000000000000000000000000000000000000000000000000000000000000000000000000000000000000000000000000000000000000000000000000000000000000000000000000000000000000000000000000000000000000000000000000000000000000000000000000000000000000000000000000000000000000000000000000000000000000000000000000000000000000000000000000000000000000000000000000000000000000000000000000000000000000000000000000000000000000000000000000000000000000000000000000000000000000000000000000000000000000000000000000000000000000000000000000000000000000000000000000000000000000000000000000000000000000000000000000000000000000000000000000000000000000000000000000000000000000000000000000000000000000000000000000000000000000000000000000000000000000000000000000000000000000000000000000000000000000000000000000000000000000000000000000000000000000000000000000000000000000000000000000000000000000000000000000000000000000000000000000000000000000000000000000000000000000000000000000000000000000000000000000000000000000000000000000000000000000000000000000000000000000000000000000000000000000000000000000000000000000000000000000000000000000000000000000000000000000000000000000000000000000000000000000000000000000000000000000000000000000000000000000000000000000000000000000000000000000000000000000000000000000000000000000000000000000000000000000000000000000000000000000000000000000000000000000000000000000000000000000000000000000000000000000000000000000000000000000000000000000000000000000000000000000000000000000000000000000000000000000000000000000000000000000000000000000000000000000000000000000000000000000000000000000000000000000000000000000000000000000000000000000000000000000000000000000000000000000000000000000000000000000000000000000000000000000000000000000000000000000000000000000000000000000000000000000000000000000000000000000000000000000000000000000000000000000000000000000000000000000000000000000000000000000000000000000000000000000000000000000000000000000000000000000000000000000000000000000000000000000000000000000000000000000000000000000000000000000000000000000000000000000000000000000000000000000000000000000000000000000000000000000000000000000000000000000000000000000000000000000000000000000000000000000000000000000000000000000000000000000000000000000000000000000000000000000000000000000000000000000000000000000000000000000000000000000000000000000000000000000000000000000000000000000000000000000000000000000000000000000000000000000000000000000000000000000000000000000000000000000000000000000000000000000000000000000000000000000000000000000000000000000000000000000000000000000000000000000000000000000000000000000000000000000000000000000000000000000000000000000000000000000000000000000000000000000000000000000000000000000000000000000000000000000000000000000000000000000000000000000000000000000000000000000000000000000000000000000000000000000000000000000000000000000000000000000000000000000000000000000000000000000000000000000000000000000000000000000000000000000000000000000000000000000000000000000000000000000000000000000000000000000000000000000000000000000000000000000000000000000000000000000000000000000000000000000000000000000000000000000000000000000000000000000000000000000000000000000000000000000000000000000000000000000000000000000000000000000000000000000000000000000000000000000000000000000000000000000000000000000000000000000000000000000000000000000000000000000000000000000000000000000000000000000000000000000000000000000000000000000000000000000000000000000000000000000000000000
#02058:006600000000000000000000000000000000000000000000000000000000000000000000000000000000000000000000000000000000000000000000000000000000000000000000000000000000000000000000000000000000000000000000000000000000000000000000000000000000000000000000000000000000000000000000000000000000000000000000000000000000000000000000000000000000000000000000000000000000000000000000000000000000000000000000000000000000000000000000000000000000000000000000000000000000000000000000000000000000000000000000000000000000000000000000000000000000000000000000000000000000000000000000000000000000000000000000000000000000000000000000000000000000000000000000000000000000000000000000000000000000000000000000000000000000000000000000000000000000000000000000000000000000000000000000000000000000000000000000000000000000000000000000000000000000000000000000000000000000000000000000000000000000000000000000000000000000000000000000000000000000000000000000000000000000000000000000000000000000000000000000000000000000000000000000000000000000000000000000000000000000000000000000000000000000000000000000000000000000000000000000000000000000000000000000000000000000000000000000000000000000000000000000000000000000000000000000000000000000000000000000000000000000000000000000000000000000000000000000000000000000000000000000000000000000000000000000000000000000000000000000000000000000000000000000000000000000000000000000000000000000000000000000000000000000000000000000000000000000000000000000000000000000000000000000000000000000000000000000000000000000000000000000000000000000000000000000000000000000000000000000000000000000000000000000000000000000000000000000000000000000000000000000000000000000000000000000000000000000000000000000000000000000000000000000000000000000000000000000000000000000000000000000000000000000000000000000000000000000000000000000000000000000000000000000000000000000000000000000000000000000000000000000000000000000000000000000000000000000000000000000000000000000000000000000000000000000000000000000000000000000000000000000000000000000000000000000000000000000000000000000000000000000000000000000000000000000000000000000000000000000000000000000000000000000000000000000000000000000000000000000000000000000000000000000000000000000000000000000000000000000000000000000000000000000000000000000000000000000000000000000000000000000000000000000000000000000000000000000000000000000000000000000000000000000000000000000000000000000000000000000000000000000000000000000000000000000000000000000000000000000000000000000000000000000000000000000000000000000000000000000000000000000000000000000000000000000000000000000000000000000000000000000000000000000000000000000000000000000000000000000000000000000000000000000000000000000000000000000000000000000000000000000000000000000000000000000000000000000000000000000000000000000000000000000000000000000000000000000000000000000000000000000000000000000000000000000000000000000000000000000000000000000000000000000000000000000000000000000000000000000000000000000000000000000000000000000000000000000000000000000000000000000000000000000000000000000000000000000000000000000000000000000000000000000000000000000000000000000000000000000000000000000000000000000000000000000000000000000000000000000000000000000000000000000000000000000000000000000000000000000000000000000000000000000000000000000000000000000000000000000000000000000000000000000000000000000000000000000000000000000000000000000000000000000000000000000000000000000000000000000000000000000000000000000000000000000000000000000000000000000000000000000000000000000000000000000000000000000000000000000000000000000000000000000000000000000000000000000000000000000000000000000000000000000000000000000000000000000000000000000000000000000000000000000000000000000000000000000000000000000000000000000000000000000000000000000000000000000000000000000000000000000000000000000000000000000000000000000000000000000
#04858:00230000
#04855:00230000
#0485b:6300000000630000
#04852:5300000000530000
#04752:53000053
#04753:0053
#04754:0000530000000023
#04759:0023000000006300
#0475a:0063
#0475b:63630000
#04758:0000002300230000
#04755:0000002300230000
#04757:0000000000000023
#04756:0023000000000000
#01656:0000002300000000
#01652:53
#01052:0053
#00356:0063000000000063
#00357:0053
#0015b:0063000000000000
#00152:0053
#0025b:0063
#0845b:00000013
#08458:00130000
#08355:00000013
#08352:00130000
#07856:00000013
#07857:00130000
#07958:00000013
#0795b:00130000
#01856:0023000000230000
#01852:5353
#0185b:0000002300000000
#01857:00530000
#01859:0000000000000064
#01853:0000000000000054
#0425b:0000000000630000
#0455a:0000000000000023
#0455b:00000063
#04553:0000000000230000
#04552:0053
#04655:0000000000230000
#04652:5353
#04658:0000000000000023
#0465b:00630063
#04654:0023000000000000
#04659:0000002300000000
#03956:00630000
#03953:0000002300230000
#03959:0000530000230000
#0395b:0000002300000000
#03955:6363
#03958:5353
#03957:00000053
#0395a:0023000000000023
#03954:0023000000006300
#03952:0000000000000023
#04055:63
#04058:53
#0405b:00230000
#04052:00230000
#03852:0000000000000023
#03855:00630063
#0385b:0000000000230000
#03858:5353
#03853:0000002300000000
#0385a:0023000000000000
#03754:0000000000000023
#03755:00000063
#03759:0000000000230000
#03758:0053
#03656:63
#02557:0053
#0255b:0023000000000000
#02352:0053000000000053
#02357:0053
#06652:0013
#08556:00140014
#01552:1313
#0013b0:0013000000000000
#001370:0000002300000000
#001320:0013
#001360:00000023
#0023b0:0013
#002370:00000023
#003360:0013000000000000
#003320:0000002300000000
#003370:0013
#0033b0:00000023
#003360:0000000000000013
#004320:0023000000000000
#0043b0:00001323
#004370:0000000000530000
#004361:00001323
#004321:0000000000530000
#005371:13
#0053b1:00230000
#005360:00130000
#005320:0023
#006380:00001323
#0063b0:0000000000530000
#006351:00001323
#006321:0000000000530000
#007361:13
#007321:00230000
#007370:00130000
#0073b0:0023
#008340:13332300
#008320:0033000000000000
#008360:0000003300000000
#008391:13332300
#008371:0033000000000000
#0083b1:0000003300000000
#009351:12220000
#009321:0058000000000000
#009390:00122200
#009360:0000005800000000
#009320:0000000000001323
#009381:0000000000000013
#010381:23
#010350:1323000000000000
#0103b1:0013230000000000
#010320:0000132300000000
#010381:0000001323000000
#010320:0013
#010360:00000023
#011360:13230000
#011320:0053000000000000
#0113b1:00132300
#011371:0000005300000000
#011320:00001323
#011360:0000000000530000
#011371:00000013
#0113b1:0000000000000053
#012371:23
#012320:13230000
#012381:00132300
#012350:00000000000000001333333323000000
#0123b1:00000000000000000000000013333333
#0133b1:23
#013321:0000000014240000
#013380:0000000000142400
#013341:0000000000001424
#0133a0:0000000000000014
#0143a0:24
#015380:0013230000000000
#015351:0000132300000000
#015381:0000000000132300
#015350:0000000000001323
#016320:13000023
#016360:0000005300000000
#0173a0:1222000000000000
#017380:00560000000000000000000000000000
#017340:0000122200000000
#017320:00000000005600000000000000000000
#0173a0:0000000012220000
#017380:00000000000000000056000000000000
#017340:0000000000001222
#017320:00000000000000000000000000560000
#018320:13230000
#018360:0053000000000000
#018371:00132300
#0183b1:0000005300000000
#018320:00001323
#018360:0000000000530000
#018330:0000000000000014
#018320:000000000000000000000000000000000000000000000000000000000000000000000000000000000000000000000000000000000000000000000000000000000000000000000000000000000000000000000000000000000000000000000000000000000000000000000000000000000000000000000000000000000000000000000000000000000000000000000000000000000000000000000000000000000000000000000000000000000000000000000000000000000000000000000000000000000000000000000000000000000000000000000000000000000000000000000000000000000000000000000000000000000000000000000000000000000000000000000000000000000000000000000000000000000000000000000000000000000000000000000000000000000000000000000000000000000000000000000000000000000000000000000000000000000000000000000000000000000000000000000000000000000000000000000000000000000000000000000000000000000000000000000000000000000000000000000000000000000000000000000000000000000000000000000000000000000000000000000000000000000000000000000000000000000000000000000000000000000000000000000000000000000000000000000000000000000000000000000000000000000000000000000000000000000000000000000000000000000000000000000000000000000000000000000000000000000000000000000000000000000000000000000000000000000000000000000000000000000000000000000000000000000000000000000000000000000000000000000000000000000000000000000000000000000000000000000000000000000000000000000000000000000000000000000000000000000000000000000000000000000000000000000000000000000000000000000000000000000000000000000000000000000000000000000000000000000000000000000000000000000000000000000000000000000000000000000000000000000000000000000000000000000000000000000000000000000000000000000000000000000000000000000000000000000000000000000000000000000000000000000000000000000000000000000000000000000000000000000000000000000000000000000000000000000000000000000000000000000000000000000000000000000000000000000000000000000000000000000000000000000000000000000000000000000000000000000000000000000000000000000000000000000000000000000000000000000000000000000000000000000000000000000000000000000000000000000000000000000000000000000000000000000000000000000000000000000000000000000000000000000000000000000000000000000000000000000000000000000000000000000000000000000000000000000000000000000000000000000000000000000000000000000000000000000000000000000000000000000000000000000000000000000000000000000000000000000000000000000000000000000000000000000000000000000000000000000000000000000000000000000000000000000000000000000000000000000000000000000000000000000000000000000000000000000000000000000000000000000000000000000000000000000000000000000000000000000000000000000000000000000000000000000000000000000000000000000000000000000000000000000000000000000000000000000000000000000000000000000000000000000000000000000000000000000000000000000000000000000000000000000000000000000000000000000000000000000000000000000000000000000000000000000000000000000000000000000000000000000000000000000000000000000000000000000000000000000000000000000000000000000000000000000000000000000000000000000000000000000000000000000000000000000000000000000000000000000000000000000000000000000000000000000000000000000000000000000000000000000000000000000000000000000000000000000000000000000000000000000000000000000000000000000000000000000000000000000000000000000000000000000000000000000000000000000000000000000000000000000000000000000000000000000000000000000000000000000000000000000000000000000000000000000000000000000000000000000000000000000000000000000000000000000000000000000000000000000000000000000000000000000000000000000000000000000000000000000000000000000000000000000000000000000000000000000000000000000000000000000000000000000000000000000000000000000000000000000000000000000000000000000000000000000000000000000000000000000000000000000000000000000000000000000000000000000000000000000000000000000000000000000000000000000000000000000000000000000000000000000000000000000056
#019350:3600000000340000
#019320:0056000000000000000000000000000000000000000000000000000000000000000000000000000000000000000000000000000000000000000000000000000000000000000000000000000000000000000000000000000000000000000000000000000000000000000000000000000000000000000000000000000000000000000000000000000000000000000000000000000000000000000000000000000000000000000000000000000000000000000000000000000000000000000000000000000000000000000000000000000000000000000000000000000000000000000000000000000000000000000000565856000000000000000000000000000000000000000000000000000000000000000000000000000000000000000000000000000000000000000000000000000000000000000000000000000000000000000000000000000000000000000000000000000000000000000000000000000000000000000000000000000000000000000000000000000000000000000000000000000000000000000000000000000000000000000000000000000000000000000000000000000000000000000000000000000000000000000000000000000000000000000000000000000000000000000000000000000000000000000000565856000000000000000000000000000000000000000000000000000000000000000000000000000000000000000000000000000000000000000000000000000000000000000000000000000000000000000000000000000000000000000000000000000000000000000000000000000000000000000000000000000000000000000000000000000000000000000000000000000000000000000000000000000000000000000000000000000000000000000000000000000000000000000000000000000000000000000000000000000000000000000000000000000000000000000000000000000000000000000000560056000000000000000000000000000000000000000000000000000000000000000000000000000000000000000000000000000000000000000000000000000000000000000000000000000000000000000000000000000000000000000000000000000000000000000000000000000000000000000000000000000000000000000000000000000000000000000000000000000000000000000000000000000000000000000000000000000000000000000000000000000000000000000000000000000000000000000000000000000000000000000000000000000000000000000000000000000000000000000000000000000000000000000000000000000000000000000000000000000000000000000000000000000000000000000000000000000000000000000000000000000000000000000000000000000000000000000000000000000000000000000000000000000000000000000000000000000000000000000000000000000000000000000000000000000000000000000000000000000000000000000000000000000000000000000000000000000000000000000000000000000000000000000000000000000000000000000000000000000000000000000000000000000000000000000000000000000000000000000000560056000000000000000000000000000000000000000000000000000000000000000000000000000000000000000000000000000000000000000000000000000000000000000000000000000000000000000000000000000000000000000000000000000000000000000000000000000000000000000000000000000000000000000000000000000000000000000000000000000000000000000000000000000000000000000000000000000000000000000000000000000000000000000000000000000000000000000000000000000000000000000000000000000000000000000000000000000000000000000000563a56000000000000000000000000000000000000000000000000000000000000000000000000000000000000000000000000000000000000000000000000000000000000000000000000000000000000000000000000000000000000000000000000000000000000000000000000000000000000000000000000000000000000000000000000000000000000000000000000000000000000000000000000000000000000000000000000000000000000000000000000000000000000000000000000000000000000000000000000000000000000000000000000000000000000000000000000000000000000000000563c5600000000000000000000000000000000000000000000000000000000000000000000000000000000000000000000000000000000000000000000000000000000000000000000000000000000000000000000000000000000000000000000000000000000000000000000000000000000000000000000000000000000000000000000000000000000000000000000000000000000000000000000000000000000000000000000000000000000000000000000000000000000000000000000000000000000000000000000000000000000000000000000000000000000000000000000000000000000000000000056
#019340:0000003200000000
#020330:32
#020320:005600000000000000000000000000000000000000000000000000000000000000000000000000000000000000000000000000000000000000000000000000000000000000000000000000000000000000000000000000000000000000000000000000000000000000000000000000000000000000000000000000000000000000000000000000000000000000000000000000000000000000000000000000000000000000000000000000000000000000000000000000000000000000000000000000000000000000000000000000000000000000000000000000000000000000000000000000000000000000000000000000000000000000000000000000000000000000000000000000000000000000000000000000000000000000000000000000000000000000000000000000000000000000000000000000000000000000000000000000000000000000000000000000000000000000000000000000000000000000000000000000000000000000000000000000000000000000000000000000000000000000000000000000000000000000000000000000000000000000000000000000000000000000000000000000000000000000000000000000000000000000000000000000000000000000000000000000000000000000000000000000000000000000000000000000000000000000000000000000000000000000000000000000000000000000000000000000000000000000000000000000000000000000000000000000000000000000000000000000000000000000000000000000000000000000000000000000000000000000000000000000000000000000000000000000000000000000000000000000000000000000000000000000000000000000000000000000000000000000000000000000000000000000000000000000000000000000000000000000000000000000000000000000000000000000000000000000000000000000000000000000000000000000000000000000000000000000000000000000000000000000000000000000000000000000000000000000000000000000000000000000000000000000000000000000000000000000000000000000000000000000000000000000000000000000000000000000000000000000000000000000000000000000000000000000000000000000000000000000000000000000000000000000000000000000000000000000000000000000000000000000000000000000000000000000000000000000000000000000000000000000000000000000000000000000000000000000000000000000000000000000000000000000000000000000000000000000000000000000000000000000000000000000000000000000000000000000000000000000000000000000000000000000000000000000000000000000000000000000000000000000000000000000000000000000000000000000000000000000000000000000000000000000000000000000000000000000000000000000000000000000000000000000000000000000000000000000000000000000000000000000000000000000000000000000000000000000000000000000000000000000000000000000000000000000000000000000000000000000000000000000000000000000000000000000000000000000000000000000000000000000000000000000000000000000000000000000000000000000000000000000000000000000000000000000000000000000000000000000000000000000000000000000000000000000000000000000000000000000000000000000000000000000000000000000000000000000000000000000000000000000000000000000000000000000000000000000000000000000000000000000000000000000000000000000000000000000000000000000000000000000000000000000000000000000000000000000000000000000000000000000000000000000000000000000000000000000000000000000000000000000000000000000000000000000000000000000000000000000000000000000000000000000000000000000000000000000000000000000000000000000000000000000000000000000000000000000000000000000000000000000000000000000000000000000000000000000000000000000000000000000000000000000000000000000000000000000000000000000000000000000000000000000000000000000000000000000000000000000000000000000000000000000000000000000000000000000000000000000000000000000000000000000000000000000000000000000000000000000000000000000000000000000000000000000000000000000000000000000000000000000000000000000000000000000000000000000000000000000000000000000000000000000000000000000000000000000000000000000000000000000000000000000000000000000000000000000000000000000000000000000000000000000000000000000000000000000000000000000000000000000000000000000000000000000000000000000000000000000000000000000000000000000000000000000000000000000000000000000000000
#020350:0023
#018391:0000000000000014
#018381:000000000000000000000000000000000000000000000000000000000000000000000000000000000000000000000000000000000000000000000000000000000000000000000000000000000000000000000000000000000000000000000000000000000000000000000000000000000000000000000000000000000000000000000000000000000000000000000000000000000000000000000000000000000000000000000000000000000000000000000000000000000000000000000000000000000000000000000000000000000000000000000000000000000000000000000000000000000000000000000000000000000000000000000000000000000000000000000000000000000000000000000000000000000000000000000000000000000000000000000000000000000000000000000000000000000000000000000000000000000000000000000000000000000000000000000000000000000000000000000000000000000000000000000000000000000000000000000000000000000000000000000000000000000000000000000000000000000000000000000000000000000000000000000000000000000000000000000000000000000000000000000000000000000000000000000000000000000000000000000000000000000000000000000000000000000000000000000000000000000000000000000000000000000000000000000000000000000000000000000000000000000000000000000000000000000000000000000000000000000000000000000000000000000000000000000000000000000000000000000000000000000000000000000000000000000000000000000000000000000000000000000000000000000000000000000000000000000000000000000000000000000000000000000000000000000000000000000000000000000000000000000000000000000000000000000000000000000000000000000000000000000000000000000000000000000000000000000000000000000000000000000000000000000000000000000000000000000000000000000000000000000000000000000000000000000000000000000000000000000000000000000000000000000000000000000000000000000000000000000000000000000000000000000000000000000000000000000000000000000000000000000000000000000000000000000000000000000000000000000000000000000000000000000000000000000000000000000000000000000000000000000000000000000000000000000000000000000000000000000000000000000000000000000000000000000000000000000000000000000000000000000000000000000000000000000000000000000000000000000000000000000000000000000000000000000000000000000000000000000000000000000000000000000000000000000000000000000000000000000000000000000000000000000000000000000000000000000000000000000000000000000000000000000000000000000000000000000000000000000000000000000000000000000000000000000000000000000000000000000000000000000000000000000000000000000000000000000000000000000000000000000000000000000000000000000000000000000000000000000000000000000000000000000000000000000000000000000000000000000000000000000000000000000000000000000000000000000000000000000000000000000000000000000000000000000000000000000000000000000000000000000000000000000000000000000000000000000000000000000000000000000000000000000000000000000000000000000000000000000000000000000000000000000000000000000000000000000000000000000000000000000000000000000000000000000000000000000000000000000000000000000000000000000000000000000000000000000000000000000000000000000000000000000000000000000000000000000000000000000000000000000000000000000000000000000000000000000000000000000000000000000000000000000000000000000000000000000000000000000000000000000000000000000000000000000000000000000000000000000000000000000000000000000000000000000000000000000000000000000000000000000000000000000000000000000000000000000000000000000000000000000000000000000000000000000000000000000000000000000000000000000000000000000000000000000000000000000000000000000000000000000000000000000000000000000000000000000000000000000000000000000000000000000000000000000000000000000000000000000000000000000000000000000000000000000000000000000000000000000000000000000000000000000000000000000000000000000000000000000000000000000000000000000000000000000000000000000000000000000000000000000000000000000000000000000000000000000000000000000000000000000000000000000000000000000000000000000000000000000056
#0193b1:32
#019381:005600000000000000000000000000000000000000000000000000000000000000000000000000000000000000000000000000000000000000000000000000000000000000000000000000000000000000000000000000000000000000000000000000000000000000000000000000000000000000000000000000000000000000000000000000000000000000000000000000000000000000000000000000000000000000000000000000000000000000000000000000000000000000000000000000000000000000000000000000000000000000000000000000000000000000000000000000000000000000000056005600000000000000000000000000000000000000000000000000000000000000000000000000000000000000000000000000000000000000000000000000000000000000000000000000000000000000000000000000000000000000000000000000000000000000000000000000000000000000000000000000000000000000000000000000000000000000000000000000000000000000000000000000000000000000000000000000000000000000000000000000000000000000000000000000000000000000000000000000000000000000000000000000000000000000000000000000000000000000000056005600000000000000000000000000000000000000000000000000000000000000000000000000000000000000000000000000000000000000000000000000000000000000000000000000000000000000000000000000000000000000000000000000000000000000000000000000000000000000000000000000000000000000000000000000000000000000000000000000000000000000000000000000000000000000000000000000000000000000000000000000000000000000000000000000000000000000000000000000000000000000000000000000000000000000000000000000000000000000000056005600000000000000000000000000000000000000000000000000000000000000000000000000000000000000000000000000000000000000000000000000000000000000000000000000000000000000000000000000000000000000000000000000000000000000000000000000000000000000000000000000000000000000000000000000000000000000000000000000000000000000000000000000000000000000000000000000000000000000000000000000000000000000000000000000000000000000000000000000000000000000000000000000000000000000000000000000000000000000000056005600000000000000000000000000000000000000000000000000000000000000000000000000000000000000000000000000000000000000000000000000000000000000000000000000000000000000000000000000000000000000000000000000000000000000000000000000000000000000000000000000000000000000000000000000000000000000000000000000000000000000000000000000000000000000000000000000000000000000000000000000000000000000000000000000000000000000000000000000000000000000000000000000000000000000000000000000000000000000000056005600000000000000000000000000000000000000000000000000000000000000000000000000000000000000000000000000000000000000000000000000000000000000000000000000000000000000000000000000000000000000000000000000000000000000000000000000000000000000000000000000000000000000000000000000000000000000000000000000000000000000000000000000000000000000000000000000000000000000000000000000000000000000000000000000000000000000000000000000000000000000000000000000000000000000000000000000000000000000000000000000000000000000000000000000000000000000000000000000000000000000000000000000000000000000000000000000000000000000000000000000000000000000000000000000000000000000000000000000000000000000000000000000000000000000000000000000000000000000000000000000000000000000000000000000000000000000000000000000000000000000000000000000000000000000000000000000000000000000000000000000000000000000000000000000000000000000000000000000000000000000000000000000000000000000000000000000000000000000000000000000000000000000000000000000000000000000000000000000000000000000000000000000000000000000000000000000000000000000000000000000000000000000000000000000000000000000000000000000000000000000000000000000000000000000000000000000000000000000000000000000000000000000000000000000000000000000000000000000000000000000000000000000000000000000000000000000000000000000000000000000000000000000000000000000000000000000000000000000000000000000000000000000000000000000000000000000000000000000000056
#0193a1:0034340000000000
#019361:0000003600000000
#019341:003a
#019391:0000000000340000
#020351:36
#020381:005600000000000000000000000000000000000000000000000000000000000000000000000000000000000000000000000000000000000000000000000000000000000000000000000000000000000000000000000000000000000000000000000000000000000000000000000000000000000000000000000000000000000000000000000000000000000000000000000000000000000000000000000000000000000000000000000000000000000000000000000000000000000000000000000000000000000000000000000000000000000000000000000000000000000000000000000000000000000000000000000000000000000000000000000000000000000000000000000000000000000000000000000000000000000000000000000000000000000000000000000000000000000000000000000000000000000000000000000000000000000000000000000000000000000000000000000000000000000000000000000000000000000000000000000000000000000000000000000000000000000000000000000000000000000000000000000000000000000000000000000000000000000000000000000000000000000000000000000000000000000000000000000000000000000000000000000000000000000000000000000000000000000000000000000000000000000000000000000000000000000000000000000000000000000000000000000000000000000000000000000000000000000000000000000000000000000000000000000000000000000000000000000000000000000000000000000000000000000000000000000000000000000000000000000000000000000000000000000000000000000000000000000000000000000000000000000000000000000000000000000000000000000000000000000000000000000000000000000000000000000000000000000000000000000000000000000000000000000000000000000000000000000000000000000000000000000000000000000000000000000000000000000000000000000000000000000000000000000000000000000000000000000000000000000000000000000000000000000000000000000000000000000000000000000000000000000000000000000000000000000000000000000000000000000000000000000000000000000000000000000000000000000000000000000000000000000000000000000000000000000000000000000000000000000000000000000000000000000000000000000000000000000000000000000000000000000000000000000000000000230000000000000000000000000000000000000000000000000000000000000000000000000000000000000000000000000000000000000000000000000000000000000000000000000000000000000000000000000000000000000000000000000000000000000000000000000000000000000000000000000000000000000000000000000000000000000000000000000000000000000000000000000000000000000000000000000000000000000000000000000000000000000000000000000000000000000000000000000000000000000000000000000000000000000000000000000000000000000000000000000000000000000000000000000000000000000000000000000000000000000000000000000000000000000000000000000000000000000000000000000000000000000000000000000000000000000000000000000000000000000000000000000000000000000000000000000000000000000000000000000000000000000000000000000000000000000000000000000000000000000000000000000000000000000000000000000000000000000000000000000000000000000000000000000000000000000000000000000000000000000000000000000000000000000000000000000000000000000000000000000000000000000000000000000000000000000000000000000000000000000000000000000000000000000000000000000000000000000000000000000000000000000000000000000000000000000000000000000000000000000000000000000000000000000000000000000000000000000000000000000000000000000000000000000000000000000000000000000000000000000000000000000000000000000000000000000000000000000000000000000000000000000000000000000000000000000000000000000000000000000000000000000000000000000000000000000000000000000000000000000000000000000000000000000000000000000000000000000000000000000000000000000000000000000000000000000000000000000000000000000000000000000000000000000000000000000000000000000000000000000000000000000000000000000000000000000000000000000000000000000000000000000000000000000000000000000000000000000000000000000000000000000000000000000000000000000000000000000000000000000000000000000000000000000000000000000000000000000000000000000000000000000000000000000000000000000000000000000000000000
#021321:0013000000000000
#021361:0000002300000000
#0213b1:0013
#021371:00000023
#021321:0000000000000013
#022361:0033330033000000
#022321:0000003300002300
#0223b0:0013330033000000
#022370:0000003300002300
#0233b0:13
#023380:0023000000000000
#023321:0013000000000000
#023361:0000002300000000
#023371:0013
#0233b1:00000023
#023321:0000000000000013
#024361:0023000000000000
#024371:0013
#0243b1:00000023
#024320:0013
#024360:00000023
#0253b0:0013000000000000
#025370:0000002300000000
#025361:0013000000000000
#025321:0000002300000000
#025371:0013
#0253b1:00000023
#025361:0000000000000013
#026321:0033000000002300
#026341:00330000
#026361:0000003333000000
#0263b0:0013
#026370:00000023
#027320:13
#028320:33
#028360:00000023
#028371:13
#0283b1:00000023
#0293b1:0013000000000000
#029371:0000002300000000
#029321:0013
#029361:00000023
#0293b1:0000000000000013
#030371:0033330033000000
#0303b1:0000003300002300
#030320:0013330033000000
#030360:0000003300002300
#031320:13
#031350:0023000000000000
#0313b1:0013000000000000
#031371:0000002300000000
#031361:0013
#031321:00000023
#0313b1:0000000000000013
#032371:0023000000000000
#032361:0012
#032341:0000000000220000
#032380:00001222
#033320:0013000000000000
#033360:0000002300000000
#033371:0013000000000000
#0333b1:0000002300000000
#033361:0013
#033321:00000023
#033371:0000000000000013
#0343b1:0033000000002300
#034391:00330000
#034371:0000003333000000
#034320:0013
#034360:00000023
#0353b0:13
#0363b0:23
#036361:13
#036321:0023
#037381:13230000
#037350:00132300
#037381:00001323
#037391:0000000000530000
#037350:00000013
#037340:0000000000000053
#038350:23
#038381:13230000
#0383a1:0053000000000000
#038350:00132300
#038330:0000005300000000
#038381:00001323
#0383b1:0000000000530000
#038350:00000013
#038320:0000000000000053
#039350:3333
#039340:0053000000003300
#039360:00330000
#039330:0000005300530000
#039320:0000000000000053
#040350:3323
#040320:00530000
#039381:1333
#0393a1:0053000000000053
#039391:0000330000530000
#0393b1:0000005300000000
#039371:00000033
#040381:3323
#0403b1:00530000
#041321:1300000000230000
#041361:0000333300000000
#0413b0:0000001300000023
#041370:0000000000330000
#041361:0000000000000013
#042321:00230000
#0423b1:0000000000130000
#042371:0000000000000023
#045321:13230000
#0453b0:00132300
#045321:00001323
#045331:0000000000530000
#0453b0:00000013
#0453a0:0000000000000053
#0463b0:23
#046321:13230000
#046341:0053000000000000
#0463b0:00132300
#046390:0000005300000000
#046321:00001323
#046351:0000000000530000
#0463b0:00000013
#046380:0000000000000053
#0473b0:33330000
#047390:0053000000003300
#047380:0000005300530000
#0473a0:0033
#047370:0000000000000053
#0483b0:3323
#048380:00530000
#047321:13000033
#047361:0053000000000000
#047341:0000330000000053
#047351:0000005300530000
#047331:0033
#048321:3323
#048351:00530000
#0483b1:0000000000130000
#048381:0000000000000023
#048320:0000000000130000
#048350:0000000000000023
#049380:14
#0493a0:0054240000000000
#049341:00140000
#049321:0000005424000000
#049380:0014
#0493a0:0000000000542400
#049341:00000014
#049321:0000000000000054
#050321:24
#0503a0:14
#050380:0054240000000000
#050321:00140000
#050341:0000005424000000
#0503a0:0014
#050380:0000000000542400
#050321:00000014
#050341:0000000000000054
#051341:24
#051380:14240000
#051341:00142400
#051380:00001424
#051341:00000014
#052341:24
#0523a0:14240000
#052360:00543454000000000000000000000000
#052321:00142400
#052361:00000000005434540000000000000000
#0523a0:00001424
#052360:00000000000000000054345400000000
#0533b0:13
#057370:23
#057321:13
#061361:23
#061390:13
#063370:27
#063341:13
#065321:27
#068321:1323
#068351:00530000
#0683b0:1323
#068380:00530000
#077350:00001323
#077320:00000000000000000053005300000000
#078320:13230000
#078350:00530053000000000000000000000000
#0783b0:00001323
#078380:00000000000000000053005300000000
#079320:13
#079350:0053230000000000
#079350:0013
#079320:0000000000532300
#080380:13
#0803b0:0053230000000000
#080370:00000000000000000000000000000000000000000000000000000000000000001200000000520000005200000000000022000000000000000000000000000000
#080360:00000000000000000000000000000000000000000000000000000000000000000000000000000054000000000000000000000000000000000000000000000000
#081380:00001323
#0813b0:00000000000000000053005300000000
#0823b0:13230000
#082380:00530053000000000000000000000000
#082320:00001323
#082350:00000000000000000053005300000000
#0833b0:13
#083380:0053230000000000
#083380:0013
#0833b0:0000000000532300
#084350:13
#084320:0053230000000000
#084320:0013
#084350:0000000000532300
#085320:14
#086320:24
#0873b0:00001323
#0883b0:00001323
#0893b0:13230000
#091320:00001323
#093320:0000001300000000
#093360:00000023
#095380:16
#0963c0:00000022
#095321:16
#096321:00000022
#036970:0013
#0369b0:00000023
#036961:00000013
#037921:23
#0869b1:0013
#086971:00000023
#086920:00000013
#087960:23
#0909b0:0000000000130000
#090980:00000023
