This file was generated by Ched 2.7.0.0.
#TITLE ""
#ARTIST ""
#DESIGNER ""
#DIFFICULTY 0
#PLAYLEVEL
#SONGID ""
#WAVE ""
#WAVEOFFSET 0
#JACKET ""
#REQUEST "ticks_per_beat 480"
#00002: 4
#BPM01: 145
#00008: 01
#TIL00: ""
#VOLUME: ""
#HISPEED 00
#MEASUREHS 00
#01418:00140000
#01414:0014
#0651b:13
#06518:00130000
#06515:0013
#06512:00000013
#01018:0000001300000013
#0101b:13130000
#01015:0013000013000000
#0261b:0013
#02618:0000130000000013
#02615:0000001300000000
#02612:0000000000000013
#02218:0000001300000013
#02215:00131300
#0241b:0013000000000013
#02412:0013
#02418:0000001300000000
#02415:00130000
#02515:1300000000000013
#0251b:0013000000000000
#02518:0013
#02818:1300130013000013
#02812:13131300
#02813:00130013001300130013001300000000
#02814:0013001300130000
#02819:00130013001300130013001300000000
#0281a:0013001300130000
#04015:1300000000130013
#04018:13000013
#0401b:00130000
#04012:00130000
#04215:0000001300000000
#04218:0000000000130000
#06615:13
#06618:00130000
#0661b:0013
#04315:1300130013000013
#04318:0013001300001300
#0431b:0000000000130000
#09418:00001313
#09415:0000000000130013
#0941a:0024000000000000
#09412:0000002400000000
#08714:0013
#08715:0000001300000000
#0871b:0000001300000000
#08713:0013000000000013
#08719:0013000000000013
#0871a:0013
#08718:23000013
#08712:23000013
#08814:13
#08819:0013000000000000
#08813:00130000
#08818:0000001300000000
#08815:0000000000000013
#08812:0013
#0881b:00000013
#0891b:1300000000000013
#08915:0000000000130000
#08918:0000001300001300
#08912:00131300
#09015:13130013
#09018:0013001300000013
#09012:0013
#0901b:0013
#0411b:0000000000000013
#04112:0000001300000000
#04118:13
#0061b:0013
#00618:13130000
#00615:0013000000000000
#00612:0000001300000000
#0831b:0013
#08315:0000001300001300
#08312:0000000000000013
#08318:1300000000130000
#08415:0000000000000013
#0841b:13
#08417:0000001300000000
#09312:0000001300000024
#09315:13
#09318:0013000000000000
#0931b:00130000
#09316:0000000000130000
#00218:0000001300001300
#00215:0000000013000013
#0021b:13130000
#00212:0013000000000000
#00112:0000001313000000
#00115:2313000000000013
#0011b:2313000000000000
#00118:0000001313001300
#00419:00130000
#00414:0000001300000000
#0041b:0013
#00412:0013000000000000
#00413:00230000
#0041a:0000002300000000
#00415:0023
#00418:0023000000000000
#0131a:14
#01312:00140000
#00515:0000000000130000
#00518:13
#0051b:00130013
#00512:0000000000000013
#00510:41
#00312:1313000000001313
#00318:1313000000001313
#0031b:0000001313000000
#00315:0000001313000000
#00812:0013
#00815:13130000
#00818:0013000000000000
#0081b:0000001300000000
#00718:0000000000130000
#00715:13
#00712:00130013
#0071b:0000000000000013
#0091b:13
#00918:00130013
#00912:0000000000130000
#00915:0000000000000013
#01112:13
#01115:00130013
#0111b:0000000000130000
#01118:0000000000000013
#01212:13
#01216:0000001300000000
#0161b:13
#01617:0000001300000000
#01518:1300130000130000
#01515:0013001300001300
#0151b:0013
#01512:0000000000000013
#01510:41
#01712:0018000000000000
#01716:0000000000180000
#01715:22
#01719:0022
#0181b:1313
#01815:1313
#01812:00130000
#01818:0000130000000013
#01915:1300130000130000
#01918:0013001300001300
#01912:0013
#0191b:0000000000000013
#02012:13
#02016:0000001300000000
#02115:0013000000000000
#02112:0013
#0211b:0000000000000013
#02118:23
#02312:0000001313000000
#02315:1300000000001313
#0231b:0013000000000013
#02318:0013
#02712:1313
#02718:1313
#0271b:00130013
#02715:00130013
#02710:41
#03412:0013
#03415:0000130000000013
#03418:0000001300000000
#0341b:0000000000000013
#03212:0013000000000013
#0321b:0013
#03218:00130000
#03215:0000001300000000
#03318:1300000000000013
#03312:0013000000000000
#03315:0013
#02918:0013000000000000
#0291b:0013
#02912:0000000000000013
#02915:23
#03018:00131300
#03015:0000001300000000
#0311b:0000001313000000
#03118:1300000000001313
#03112:0013000000000013
#03115:0013
#0361b:13131300
#0361a:00130013001300130013001300000000
#03619:0013001300130000
#03615:13131300
#03614:00130013001300130013001300000000
#03613:0013001300130000
#0351b:1313
#03515:1313
#03512:00130013
#03518:00130013
#0481b:13
#04815:00130000
#04812:13
#04818:00130000
#05214:14
#0521a:14
#05213:00240000
#05219:00240000
#06415:0013
#06418:13
#06315:0013
#06318:13
#06212:0013
#0621b:13
#06112:0013
#0611b:13
#06015:13
#0571b:13
#0531b:13
#05312:13
#0531f:11
#05918:13
#05812:13
#07215:0000000013000013
#0721b:0013
#07412:0013000013000013
#07418:0013000013000013
#0741b:00000000001300000000000000000000
#07415:00000000001300000000000000000000
#0741a:0000333300000000
#07414:0000333300000000
#07612:13131300
#07613:00130013001300130013001300000000
#07614:0013001300130000
#07618:13131300
#07619:00130013001300130013001300000000
#0761a:0013001300130000
#07615:0000000000000013
#07512:1300130000130000
#07518:1300130000130000
#0751b:0013000013001300
#07515:0013000013001300
#07912:0000001300000013
#07915:0000130000130000
#07918:0013000013001300
#0791b:13
#07315:0000000000000013
#07312:0013000000000000
#0731b:0013
#07318:23
#08012:0013
#08018:0000000013000013
#08517:0017000000000000
#08515:0000000000130000
#08519:23
#08512:0023
#08510:41
#08615:0000000000000013
#08618:00000013
#0861b:23
#08612:23
#09119:0013
#09118:0000001300000000
#09112:0000001300000000
#09115:13000013
#0911a:0013000000000013
#0911b:13000013
#09114:0013000000000013
#09113:0013
#09219:13
#09214:0013000000000000
#0921a:00130000
#09215:0000001300001300
#0921b:0013
#09212:0000000000130000
#09218:0000000000000013
#06715:00001313
#06718:0000000000130013
#06712:13130000
#0671b:0013001300000000
#06812:13
#06818:0000000000000013
#07015:0000000013000013
#07012:00130000
#07018:00130000
#0701b:0013
#07014:0000003300000000
#0701a:0000003300000000
#07010:41
#07118:1313
#07115:0013000000000013
#0691b:0013000000000013
#06912:0013
#06915:23
#0691f:21
#07712:0013000000000013
#0771b:0013
#07718:23
#07815:00130000
#07812:0013
#0781b:00130000
#07818:0013
#07813:0000003300000000
#07819:0000003300000000
#08215:0013000013000013
#08212:00000000001300000000000000000000
#0821b:0013000013000000
#08218:00000000001300000000000000000000
#08213:0000333300000000
#08219:0000333300000000
#08118:0000000000000013
#0811b:0013000000000000
#08112:0013
#08115:23
#03910:41
#09616:00000052
#09618:00000052
#01454:1414
#01458:00140000
#0265b:0023
#02452:0053
#0415b:0000000000000063
#04152:0000005300000000
#04155:0000000000130000
#04158:53
#0065b:0063
#09352:0000005300000014
#09356:0000000000230000
#0045b:0063
#00455:0063
#00558:53
#0055b:00630000
#00852:0053
#00755:63
#00752:00530000
#0095b:63
#00958:00530000
#01152:53
#01155:00630000
#01055:0063
#01252:53
#01256:0000002300000000
#0165b:63
#01657:0000002300000000
#01752:0058000000000000
#01755:22
#01756:0000000000680000
#01759:0022
#02052:53
#02056:0000002300000000
#02155:0063000000000000
#02152:0053
#0215b:0000000000000063
#02255:0063
#0255b:0063000000000000
#02558:0053
#02555:0000000000000063
#02852:23232300
#02853:00530053005300530053005300000000
#02854:0023002300230000
#02858:23232300
#02859:00530053005300530053005300000000
#0285a:0023002300230000
#02752:5353
#02758:5353
#0275b:00630063
#02755:00630063
#03452:0023
#0325b:0063
#02958:0053000000000000
#0295b:0063
#02952:0000000000000053
#03058:0053
#03352:0053000000000000
#03355:0063
#03358:0000000000000053
#0365b:23232300
#0365a:00630063006300630063006300000000
#03659:0023002300230000
#03655:23232300
#03654:00630063006300630063006300000000
#03653:0023002300230000
#0355b:6363
#03555:6363
#03552:00530053
#03558:00530053
#04058:53
#0405b:00230000
#04055:63
#04052:00230000
#04258:0000000000530000
#04355:0000000000000063
#0485b:63
#04855:00230000
#04852:53
#04858:00230000
#05253:00000044
#05259:00000044
#07652:23232300
#07653:00530053005300530053005300000000
#07654:0023002300230000
#07658:23232300
#07659:00530053005300530053005300000000
#0765a:0023002300230000
#07552:5300530000230000
#07558:5300530000230000
#0755b:0023000063006300
#07555:0023000063006300
#07458:0053000053000000
#0745b:00000000002300000000000000000000
#07452:0053000053000000
#07455:00000000002300000000000000000000
#07355:0000000000000063
#07352:0053000000000000
#0735b:0063
#08052:0053
#08058:0053
#07952:0000000000000053
#0865b:0013
#08652:0013
#08557:0027000000000000
#08555:0000000000230000
#08559:53
#08552:0053
#08358:53
#0845b:63
#08457:0000002300000000
#0665b:0013
#06852:53
#06855:0013
#0695b:0063000000000063
#06952:0053
#07052:00530000
#07058:00530000
#0705b:0063
#07055:0063
#07155:0063000000000063
#07158:0053
#0725b:0063
#07255:0063
#07752:0053000000000053
#0775b:0063
#07855:00630000
#07852:0053
#0785b:00630000
#07858:0053
#08255:0063000063000000
#08252:00000000002300000000000000000000
#0825b:0063000063000000
#08258:00000000002300000000000000000000
#08158:0000000000000053
#0815b:0063000000000000
#08152:0053
#0945a:0014000000000000
#09452:0000001400000000
#004350:0013
#004320:00000023
#0043b1:0013
#004381:00000023
#005381:1323
#0053b1:00330000
#0063b1:0013
#006381:00000023
#007351:1323
#007321:00330000
#008321:0013
#008351:00000023
#0093b1:1323
#009381:00330000
#010351:0013
#010321:00000023
#011321:1323
#011351:00330000
#012321:13000023
#012361:0000005300000000
#013381:00001424
#013340:00000014
#014340:24
#0163b0:13000023
#016370:0000005300000000
#017350:12220000
#017320:0058000000000000
#017390:00001222
#017360:0000000000580000
#020320:13000023
#020360:0000005300000000
#021350:0013000000002300
#021320:0000003333000000
#0213b0:0000000000000013
#022380:0023000000000000
#022350:0013
#022320:00000023
#024320:0013
#024350:00000023
#0253b0:0013000000002300
#025380:0000003333000000
#025350:0000000000000013
#026320:0023000000000000
#0263b0:0013
#026380:00000023
#027320:1333
#027350:00330033
#028320:33535323
#028330:00530053005300530053005300000000
#028340:0053005300530000
#027381:1333
#0273b1:00330033
#028381:33535323
#028391:00530053005300530053005300000000
#0283a1:0053005300530000
#029381:0013000000002300
#0293b1:0000003333000000
#029321:0000000000000013
#030351:0023000000000000
#030381:0013
#0303b1:00000023
#0323b1:0013
#032381:00000023
#033321:0013000000002300
#033351:0000003333000000
#033381:0000000000000013
#0343b1:0023000000000000
#034321:0013
#034351:00000023
#0353b1:1333
#035381:00330033
#0363b1:33535323
#0363a1:00530053005300530053005300000000
#036391:0053005300530000
#035350:1333
#035320:00330033
#036350:33535323
#036340:00530053005300530053005300000000
#036330:0053005300530000
#037380:1323
#037390:00330000
#037351:0013
#037341:00000033
#038351:23
#038380:1323
#0383a0:00330000
#038351:0013
#038331:00000033
#039351:23
#039380:1323
#0393b0:00330000
#039351:0013
#039321:00000033
#040351:5323
#040321:00530000
#040380:1323
#0403b0:00530000
#041380:13
#0413b0:00230000
#041320:0000001300000000
#041350:0000000000230000
#0413b0:0000000000000013
#042380:00230000
#042380:0000000000130000
#0423b0:0000000000000023
#043350:0000000000000013
#044320:00000023
#045390:1323
#045380:00330000
#045341:0013
#045351:00000033
#046341:23
#0463a0:1323
#046380:00330000
#046331:0013
#046351:00000033
#047331:23
#0473b0:1323
#047380:00330000
#047321:0013
#047351:00000033
#048321:5323
#048351:00530000
#0483b0:1323
#048380:00530000
#049380:1400005434000000
#0493a0:0054340000542400
#050340:1400005434000000
#050320:0054340000542400
#051370:14
#0513a0:0054240000000000
#051321:14
#051351:0054240000000000
#051351:0014
#051321:0000000000542400
#0513a0:0014
#051370:0000000000542400
#052330:00143424
#052340:00000000005400540000000000000000
#052320:00000000000000000054005400000000
#052391:00143424
#0523a1:00000000005400540000000000000000
#052381:00000000000000000054005400000000
#068321:13
#068351:0023
#0693b1:0013000000000000
#069381:0000002300000000
#069321:0013
#069351:00000023
#0693b1:0000000000000013
#070381:0033330000002300
#0703a1:0000003300000000
#0703b1:0033
#070320:0013330000002300
#070340:0000003300000000
#070350:0033
#071350:0013000000000000
#071320:0000002300000000
#071380:0013
#0713b0:00000023
#071350:0000000000000013
#072320:0033000000002300
#072330:00330000
#072340:0000003300000000
#072350:0033
#072381:0013000000002300
#072391:00330000
#0723a1:0000003300000000
#0723b1:0033
#073321:0013000000000000
#073351:0000002300000000
#0733b1:0013
#073381:00000023
#073351:0000000000000013
#074321:0033000033000000
#074341:0000333300000000
#074351:00000000005300000000000023000000
#074380:0013000033000000
#0743a0:0000333300000000
#0743b0:00000000005300000000000023000000
#075320:1300330000530000
#075350:0053000033003300
#076320:33535323
#076330:00530053005300530053005300000000
#076340:0053005300530000
#075381:1300330000530000
#0753b1:0053000033003300
#076381:33535323
#076391:00530053005300530053005300000000
#0763a1:0053005300530000
#077321:0013000000000000
#077351:0000002300000000
#0773b1:0013
#077381:00000023
#077321:0000000000000013
#078351:0033330000002300
#078331:0000003300000000
#078321:0033
#0783b0:0013330000002300
#078390:0000003300000000
#078380:0033
#079320:0000000000000013
#080350:0033000000002300
#080340:00330000
#080330:0000003300000000
#080320:0033
#0803b1:0013000000002300
#0803a1:00330000
#080391:0000003300000000
#080381:0033
#0813b1:0013000000000000
#081381:0000002300000000
#081321:0013
#081351:00000023
#081381:0000000000000013
#0823b1:0033000033000000
#082391:0000333300000000
#082381:00000000005300000000000023000000
#082350:0013000033000000
#082330:0000333300000000
#082320:00000000005300000000000023000000
#083380:13
#0833b0:00230000
#0843b0:13000023
#084370:0000005300000000
#085390:13230000
#085370:0057000000000000
#085320:00001323
#085350:0000000000530000
#0863b0:1323
#086380:00530000
#086321:1323
#086351:00530000
#093321:0000001300000024
#093361:0000000000530000
#095321:13
#096361:00000022
#0953b0:13
#096380:00000022
