This file was generated by Ched 2.7.0.0.
#TITLE ""
#ARTIST ""
#DESIGNER ""
#DIFFICULTY 0
#PLAYLEVEL
#SONGID ""
#WAVE ""
#WAVEOFFSET 0
#JACKET ""
#REQUEST "ticks_per_beat 480"
#00002: 4
#BPM01: 145
#00008: 01
#TIL00: ""
#VOLUME: ""
#HISPEED 00
#MEASUREHS 00
#0571a:14
#05912:14
#06118:1414
#06214:1414
#0631a:1414
#06412:1414
#0771a:00140000
#07716:0014
#07712:24000014
#07818:14
#07814:00140000
#0781a:0014
#07812:00000014
#0811a:14
#08118:00140000
#08116:0014
#08114:00000014
#08412:14
#0841a:14
#08414:00140000
#08418:00140000
#0791a:14
#07916:00140000
#07912:0014
#07918:00000014
#08012:14
#08016:00140000
#0801a:0014
#08014:00000014
#08212:14
#08214:00140000
#08216:0014
#08218:00000014
#08618:00140000
#08612:00140000
#08614:14
#0861a:14
#08514:14
#0851a:14
#08518:0014
#08512:0014
#08510:41
#08712:2414
#08718:0014
#0871a:24
#0881a:14
#08814:00140000
#08818:0014
#08812:00000014
#0891a:14
#08912:1414
#08918:0014
#09012:14
#09014:00140000
#09016:0014
#09018:00000014
#09112:14
#0911a:1414
#09114:0014
#09212:14
#09218:00140000
#09214:0014
#0921a:00000014
#09312:14
#0931a:14
#09314:00140000
#09318:0014
#09414:0014
#09418:00000014
#06912:00140000
#06916:0014
#0691a:24000014
#0691f:21
#07014:14
#07018:00140000
#07012:0014
#0701a:00000014
#07010:41
#07312:14
#07314:00140000
#07316:0014
#07318:00000014
#0761a:14
#07612:14
#07618:00140000
#07614:00140000
#07112:14
#07116:00140000
#0711a:0014
#07114:00000014
#0721a:14
#07216:00140000
#07212:0014
#07218:00000014
#0741a:14
#07418:00140000
#07416:0014
#07414:00000014
#00112:0014
#00118:0014
#0011a:24
#00114:24
#0121a:14
#0021a:14
#00216:00140000
#00212:0014
#0031a:14
#00314:14
#00312:0014
#00318:0014
#00412:14
#00416:00140000
#0041a:0014
#00512:1414
#0051a:00140014
#00510:41
#00614:1414
#00618:00140000
#0071a:1414
#00712:00140014
#00818:1414
#00814:00140000
#00914:1414
#00918:00140014
#01012:1414
#0101a:00140000
#01118:1414
#01114:00140014
#01414:14
#01418:00140000
#01412:0014
#01516:00000014
#0151a:0014
#01512:00140000
#01518:14
#01510:41
#01612:14
#01818:14
#01814:00140000
#0181a:0014
#01916:00000014
#01912:0014
#0191a:00140000
#01914:14
#0201a:14
#0211a:00140000
#02114:0014
#02118:00000014
#02112:24
#02212:14
#02216:00140000
#0221a:0014
#02312:14
#02318:00140000
#02314:0014
#0231a:00000014
#02416:14
#0241a:00140000
#02412:0014
#02518:14
#02514:00140000
#0251a:0014
#02512:00000014
#0261a:14
#02616:00140000
#02612:0014
#02912:00140000
#02918:0014
#02914:00000014
#0291a:24
#0301a:14
#03016:00140000
#03012:0014
#0311a:14
#03114:00140000
#03118:0014
#03112:00000014
#03216:14
#03212:00140000
#0321a:0014
#03314:14
#03318:00140000
#03312:0014
#0331a:00000014
#03412:14
#03416:00140000
#0341a:0014
#04014:00000014
#0431a:14
#04316:00140014
#04312:0014
#04818:00000014
#05118:00160016
#05112:2616
#0411a:14
#04116:00140014
#04112:0014
#0421a:14
#04214:00140000
#04218:0014
#04212:00000014
#04912:14
#04916:00140014
#0491a:0014
#05012:14
#05018:00140000
#05014:0014
#0501a:00000014
#0531a:14
#0531f:11
#06518:1414
#06514:00140014
#06618:14
#06614:00140000
#0661a:0014
#06712:14
#06716:00140014
#0671a:0014
#06812:14
#06012:14
#0581a:14
#05213:00360000
#03910:41
#02710:41
#08452:54
#0845a:64
#08454:00240000
#08458:00240000
#07752:14
#08658:00240000
#08652:00240000
#08654:64
#0865a:64
#08554:64
#0855a:64
#08558:0054
#08552:0054
#0765a:64
#07652:54
#07658:00240000
#07654:00240000
#0695a:14
#0125a:64
#0045a:0014
#01652:54
#0205a:64
#02152:14
#0295a:14
#0665a:0014
#06852:54
#0123a0:14
#012380:0024
#013320:14240000
#0133a0:00001424
#016320:14
#016340:0024
#0173a0:14240000
#017320:00001424
#0203a0:14
#020380:0024
#027380:14
#0273a0:00240000
#027340:0014
#027320:00000024
#0283a0:14
#028380:0024
#028321:14
#028341:0024
#035341:14
#035321:00240000
#035381:0014
#0353a1:00000024
#036321:14
#036341:0024
#0363a0:14
#036380:0024
#0373a0:14000034
#037380:00343400
#0383a0:34000034
#038380:00343400
#0393a0:3434
#039380:00340034
#0403a0:34
#040380:0024
#0443a0:1424
#045320:14000034
#045340:00343400
#046320:34000034
#046340:00343400
#047320:3434
#047340:00340034
#048320:34
#048340:0024
#052320:16
#052330:00360000
#052340:00003626
#068320:14
#068340:0024
#075320:14
#075340:00240000
#0753a0:0014
#075380:00000024
#076320:1424
#076340:00540000
#0763a1:1424
#076381:00540000
#0833a1:14
#083381:00240000
#083321:0014
#083341:00000024
#0843a1:1424
#084381:00540000
#084320:1424
#084340:00540000
#085340:14
#085320:00240000
#0853a1:14
#085381:00240000
#085381:0014
#0853a1:00000024
#085320:0014
#085340:00000024
#086340:1424
#086320:00540000
#0863a1:1424
#086381:00540000
#095321:16
#096321:00000024
