This file was generated by Ched 2.7.0.0.
#TITLE ""
#ARTIST ""
#DESIGNER ""
#DIFFICULTY 0
#PLAYLEVEL
#SONGID ""
#WAVE ""
#WAVEOFFSET 0
#JACKET ""
#REQUEST "ticks_per_beat 480"
#00002: 4
#BPM01: 174
#00008: 01
#TIL00: ""
#VOLUME: ""
#HISPEED 00
#MEASUREHS 00
#01018:14
#01114:14
#0121a:14
#01312:14
#01918:14
#02012:14
#0211a:14
#02214:14
#02318:14
#02412:14
#0251a:14
#03418:0014
#03412:24
#03512:14
#0361a:14
#03614:0014
#0371a:14
#03812:14
#03818:0014
#03810:41
#03912:14
#0401a:14
#04014:0014
#0411a:14
#0501a:0014
#0501f:11
#05014:24
#05114:14
#05218:14
#05212:0014
#05318:14
#05818:2616
#0581f:21
#05912:1616
#05910:41
#06018:16
#06012:0016
#06318:1616
#06212:2616
#06412:16
#06418:0016
#06618:16
#06612:0016
#06718:16
#06712:0016
#06818:1616
#06912:1616
#0771a:0014
#07714:14
#0761a:0014
#07614:14
#07518:0014
#07512:14
#07418:0014
#07412:14
#07812:14
#07818:0014
#07914:14
#0791a:0014
#08012:14
#08018:0014
#08114:14
#01814:24
#01810:41
#04810:41
#07010:41
#02910:41
#0023a0:14
#0033a0:24
#004320:14
#005320:24
#006380:14
#007380:24
#008340:14
#009340:24
#014380:14
#0153a0:34
#016380:34
#0173a0:24
#026340:14
#027320:24
#028380:14
#0293a0:24
#030320:14
#031340:24
#0323a0:14
#033380:24
#042320:14
#043340:34
#044340:34
#045320:24
#0463a0:14
#047380:34
#048380:34
#0493a0:24
#054340:14
#054330:0034
#055320:34
#055330:0034
#056340:34
#057320:24
#061380:1626
#065320:1626
#070380:1626
#071320:1626
#072380:1636
#073380:26
#082380:14
#083380:24
#084320:14
#085320:24
#0863a0:14
#0873a0:24
#088340:14
#089340:3424
