This file was generated by Ched 2.7.0.0.
#TITLE ""
#ARTIST ""
#DESIGNER ""
#DIFFICULTY 0
#PLAYLEVEL
#SONGID ""
#WAVE ""
#WAVEOFFSET 0
#JACKET ""
#REQUEST "ticks_per_beat 480"
#00002: 4
#BPM01: 174
#00008: 01
#TIL00: ""
#VOLUME: ""
#HISPEED 00
#MEASUREHS 00
#01815:0000001300000000
#01818:0000000013130000
#0181b:13230023
#01816:0013000000000000
#01812:0000530000001313
#01810:41
#01814:00000053000000000000000000000000
#01915:0013001300130013
#01918:1313
#01912:00001313
#0191b:00230023
#00514:0000001200000000
#0051c:00000012
#00516:0012000000000000
#00518:00120000
#00512:0000000000120000
#0051a:0012
#00718:0012001200000000
#00714:00000012
#00716:00120000
#00719:0000000000000012
#00816:1212
#0081b:00120000
#0081a:00000012
#00915:0000001200000000
#00919:00120000
#00913:12000012
#0091b:0012
#0201b:13230023
#02015:0000001300000000
#02018:0000000013130000
#02016:0013000000000000
#02012:0000530000001313
#02014:00000053000000000000000000000000
#02115:1300001300000000
#02118:0013000000130000
#02112:00131313
#0211b:13231323
#02715:13
#02718:0013000000130000
#0271b:00130000
#02712:0000000000000013
#03018:0013
#03015:0000000000130013
#0301b:23000023
#03012:00230000
#03016:23
#03118:1300001300130000
#03115:0013000000000013
#03112:00230013
#0311b:00000023
#03218:1300001300000000
#03215:0000000000130000
#03212:0000230000000013
#0321b:0013000000002300
#03418:0013000000130013
#0341b:2300001300000000
#03415:0013
#03412:23130013
#04015:0000130000130013
#04018:0000001300001300
#0401b:0013
#04012:0013
#03515:13
#0351b:0013000000000013
#03517:0000001300130000
#03512:00130013
#00318:00120012
#00316:0000001200000012
#0031a:0012000012000000
#00314:0000000000120000
#00614:0000000000000012
#0061a:0000000000000012
#00612:1200000000120000
#0061c:0000121200000000
#00618:12
#00616:0000001200000000
#01018:00130013
#01015:0000001300130000
#0101b:0013000013000013
#01016:0000000000000013
#01012:0013
#01112:00130000
#01117:0013001300000000
#0111b:00000013
#01118:0000000000000013
#01116:0000000000130000
#01413:0013
#01414:00130000
#01415:13
#01518:13
#01519:00130000
#0151a:0013
#01317:00000013
#01315:0013000000000000
#01318:00130000
#01312:0000002400130000
#0131a:0000002400000000
#03615:0013000000130013
#03612:2300001300000000
#03618:0013
#0361b:23130013
#03718:1313
#03712:0013000000001300
#03715:0000001300130013
#0371b:00130013
#0381b:0000001300000000
#03818:00001313
#03815:0000130000130000
#03812:0000000000001313
#03810:41
#03915:1300130000130000
#03918:0013000013001300
#0391b:0000131300000000
#05018:0013000013000013
#0501b:00130013
#05015:0000001300000000
#0501f:11
#05012:24230023
#05115:13
#05117:0013000000000000
#05119:00130000
#05118:0000000000000013
#0511b:0000001300000000
#05112:00230023
#05218:0000000000130000
#05212:0000001300001300
#05215:1300000000000013
#0521b:00230023
#05318:1300001300000000
#05315:0013000013000013
#05312:00130000
#0531b:00230023
#05512:00130013
#05515:0023
#0561a:0014000014000000
#05612:0000140000140000
#05618:0000000000000014
#05614:00000000000000000000000000000014
#05615:13
#05718:14
#05716:0000000034343434000000000000000064000000540000006400000000000000
#05815:0000130000130000
#05818:0013000000001300
#0581b:2313
#05812:23
#0581f:21
#05919:0013000000000000
#05917:00130000
#05914:0000001300000000
#05918:0000000000130000
#0591b:00001313
#05912:13130013
#05916:0013
#05915:0000000000000013
#05910:41
#0601b:1300001300130000
#06015:00000013
#06018:0000000000000013
#06012:1300001300130000
#06112:1313
#0611b:13130000
#06116:00130013
#06119:0000001300000000
#06117:0013
#06114:0013000000130000
#06215:0000000000130013
#06217:00130000
#06312:0013000000000000
#06318:00000013
#06315:0000000000000013
#0631b:00130000
#06316:0000001300000000
#06412:1300000000130000
#0641b:13230023
#06415:00130000
#06417:0000001300000013
#06416:0023
#06514:0000001300000000
#0651b:00130000
#06512:1313
#06618:00130013
#06615:0000001300130000
#0661b:0013000013000000
#06612:0000000013000013
#06616:23
#06712:0013000000000000
#06717:00130000
#0671b:0000001300130000
#06718:00000013
#06715:0000000000000013
#06816:0000000000130023
#0681b:00000013
#06818:13
#06817:0000132300000000
#06918:0013000000000000
#06915:00130000
#06916:0000000000131300
#0691b:0000002300001300
#06912:0000002300000000
#07112:00000014
#07115:14
#07114:00140000
#07113:0014
#0701a:00000014
#07018:00140000
#07019:0014
#07010:41
#0821a:00120000
#08218:5212
#08216:00000012
#08212:52
#08314:1200000000000012
#08319:0012000000000000
#08316:0000120000120000
#0861c:00120000
#0861a:0012
#08618:00000012
#08614:1200000000000012
#08616:0000000000120000
#08712:0000000000000012
#0871a:12
#08716:0012000000000000
#0871c:00120000
#08718:0000000000120000
#08818:12
#08814:0012000000000000
#0881a:00120000
#08816:0000001200001200
#0881c:0000000000120000
#07416:13
#07417:0023
#00213:0012000000000000
#00215:00120000
#00217:0000001200000012
#0021b:0000000000120000
#00219:00000012
#00416:00120000
#0041a:1200000000120000
#0041c:0000001200000000
#00414:00000012
#00418:0000000000000012
#02818:1313000000001300
#02815:0000130013130000
#0281b:0000001300000000
#02812:0000000000000013
#0291b:13
#02918:0013000013000000
#02915:0000130000130000
#02912:0000001300000000
#02910:41
#08416:1212
#08418:0012000000000000
#08414:0000000000000012
#0851a:00120000
#08514:0000001200000000
#08518:0012
#08516:0000000000120000
#0851c:12
#08512:0012000000000000
#00118:00000000000000000000000000000000000000000000000000160000000000000000000000000000000000000000160000000000000000000000000000000000
#00119:00000000000000001414140000000000
#01218:00130000
#01212:0000002400130000
#01215:00000013
#0121a:0000002400000000
#02218:0000001300000000
#02215:0000000013130000
#02212:13230023
#02217:0013000000000000
#0221b:0000530000001313
#02219:00000053000000000000000000000000
#02318:0013001300130013
#02315:1313
#0231b:00001313
#02312:00230023
#02412:13230023
#02417:0013000000001300
#02419:00000053000000000000130000001300
#02416:0013
#02414:0000001300000000
#0241b:00531300
#02512:13000033330000000000000000000000
#02513:00000000003300000000000000000000
#02514:0000003300000000
#02515:00000000000000330000000000000000
#03318:13005300535353005300535353000000
#04512:0013
#04515:00000013
#04517:0053
#04518:00000000000000000000000000000000000000000000000000000000000000000063000000000000000000000000000000000000000000000000000000000000
#04612:13
#0461b:0013
#04618:00000013
#04616:0053
#04615:00000000000000000000000000000000000000000000000000000000000000000063000000000000000000000000000000000000000000000000000000000000
#0471b:13
#04712:0013
#04715:00000013
#04717:0053
#04718:00000000000000000000000000000000000000000000000000000000000000000063000000000000000000000000000000000000000000000000000000000000
#04812:13
#0481b:0013
#04818:00000013
#04810:41
#04816:0053
#04815:00000000000000000000000000000000000000000000000000000000000000000063000000000000000000000000000000000000000000000000000000000000
#0491b:13
#04912:0013
#04916:00000014
#04917:0053
#04918:00000000000000000000000000000000000000000000000000000000000000000063000000000000000000000000000000000000000000000000000000000000
#05418:13000013
#0541b:0023
#07215:00130013001300130000000000000000
#07218:2313231300000000
#07212:00000000000000000013001300130013
#0721b:0000000023132313
#01712:14000066
#01718:00000000000000330000130026000000
#01719:00340000
#01715:00000000000000000053730000000000
#01714:0000005400000000
#01713:00000054000000000000000000000000
#0411b:0013000023000000
#04112:0023
#0421b:0013
#04216:0053
#04215:00000000000000000000000000000000000000000000000000000000000000000063000000000000000000000000000000000000000000000000000000000000
#04312:0013
#04317:0053
#04318:00000000000000000000000000000000000000000000000000000000000000000063000000000000000000000000000000000000000000000000000000000000
#0441b:0013
#04416:0053
#04415:00000000000000000000000000000000000000000000000000000000000000000063000000000000000000000000000000000000000000000000000000000000
#02617:23
#02612:23
#07318:23005353000000000000000000000000
#07319:00000000005300000000000000000000
#0731b:00000000000000535300530063000000
#07512:0023
#0761b:0023
#07716:0023
#07817:23
#07816:0023
#0791b:0023
#08012:0023
#08115:53
#0811b:53
#0891a:0052
#08914:0052
#0305b:13
#03056:13
#02657:13
#02652:13
#04055:0000130000000063
#04058:00000013
#01357:00000053
#0565a:0014000014000000
#05652:0000140000140000
#06656:13
#0025a:12
#07456:13
#07457:0013
#00758:0000006200000000
#01056:1200000000000063
#01157:0000006300000000
#05252:0000006300000000
#05255:63
#05355:0023
#00652:52
#0065c:0000005200000000
#06457:0000002300000023
#06452:0000000000230000
#0645b:00530053
#06456:0053
#06552:53
#0695b:00000053
#00158:00000000000000000000000000000000000000000000000000560000000000000000000000000000000000000000560000000000000000000000000000000000
#00159:00000000000000005454540000000000
#0185b:13
#00953:00000052
#0095b:0052
#02252:13
#04555:00000023
#04552:0053
#04652:53
#0465b:0063
#04658:00000023
#0475b:63
#04752:0053
#04755:00000023
#04852:53
#0485b:0063
#04858:00000023
#0495b:63
#04952:0053
#04956:00000024
#05052:34
#0515b:0000005300000000
#05158:0000000000130000
#05458:13
#05758:54
#05852:13
#0605b:53
#06052:63
#06356:0000005300000000
#07057:44
#07059:0044
#07058:00440000
#0705a:00000044
#07155:34
#07154:00340000
#07153:0034
#07152:00000034
#03452:00130013
#03552:00130013
#0365b:00130013
#0375b:00130013
#03855:00130000
#03858:00000013
#03955:00130000
#03958:00000013
#0085b:00520000
#0085a:00000052
#00856:0052
#01758:0000000000231600
#01755:0000000000230000
#01752:00000016
#04152:0013
#0415b:0013
#0425b:0053
#04352:0063
#0445b:0053
#06156:00130013
#06157:0013
#0625b:1300000000000013
#06252:0000001300000000
#07552:0013
#0765b:0013
#07756:0013
#07857:13
#07856:0013
#0795b:0013
#08052:0013
#0013a0:00000000000000000000000000000000000000000000000012000000000000520000005200000052000000005200000000000000520000000000000000000000
#001380:00000000000000000000000000000000000000000000000000560000000000000000000000000000000000000000560000000000000000000000000000000000
#001390:00000000000000005454540000000000
#0023a0:22
#006320:12
#006360:00220000
#0063c0:0000001200000000
#006380:0000000000220000
#007380:0000001200000000
#0073b0:00000022
#0083b0:00120000
#008380:0022
#008361:0012
#008331:00000022
#0083a0:00000012
#009370:22
#0093b0:0012
#009380:00000022
#009331:00000012
#010361:22
#010361:0000000000000013
#011321:0023000000000000
#011371:0000001300000000
#0113b1:0000000000230000
#012351:13230000
#012381:0000000000000013
#013381:0023000000000000
#013371:00000013
#0143b1:33000023
#014320:00000013
#015320:00000023
#0153b1:00000013
#0163b1:23
#016360:13
#016350:00330000000000000000000000000000
#016340:0033000000000000
#016330:00000033000000000000000000000000
#016320:00230000
#016371:00130000
#016381:00000000003300000000000000000000
#016391:0000003300000000
#0163a1:00000000000000330000000000000000
#0163b1:0023
#016360:0014
#016350:00000000000000000034000000000000
#016340:0000000000340000
#016330:00000000000000000000003400000000
#016320:00000024
#016361:00000014
#016371:00000000000000000000000000340000
#016381:0000000000000034
#016391:00000000000000000000000000000034
#0173a1:34
#017391:00340000
#017381:00000000000054330000330026000000
#0253b1:1300000000000000000000000000000000000000000000530000000000000000
#025391:00000033
#025371:0000000000000000000000000000000000000000000000000053000000000000
#026371:23
#025320:0000000013003300330000000000000000000000000000000053000000000000
#025330:00000000003300000000000000000000
#025340:0000003300003300
#025350:00000000000000330000000000000000
#025360:0000000000000000000000000000000033000000000000530000000000000000
#026320:23
#0263b0:00130000
#026380:0023
#026321:0013
#026351:00000023
#026380:00000013
#027380:23
#027350:0000001300230000
#0293b0:00000013
#0303b0:23
#038380:13
#0383b0:00230000
#039320:00000013
#040320:23
#0403b1:13230000
#040351:0000000000000013
#041321:0033330023000000
#0413b0:00132300
#0423b0:1333
#043370:5323
#042361:1323
#043321:1333
#044361:5323
#0443b0:1333
#045370:5323
#045321:1333
#045351:00000053
#046321:33
#046361:0023
#0463b0:1333
#046380:00000053
#0473b0:33
#047370:0023
#047321:1333
#047351:00000053
#048321:33
#048361:0023
#0483b0:1333
#048380:00000053
#0493b0:33
#049370:0023
#049321:1333
#049361:00000034
#050321:24
#0513b1:0000001300000000
#051381:0000000000230000
#052351:13
#052321:00230000
#052321:0000001300000000
#052351:0000000000230000
#053351:0013
#053321:00000023
#054321:00130033
#054361:0033
#055361:23
#0553b0:1333
#055370:00330023
#057380:14
#057360:000000000000000000000000340000340000340000340000340000003400000034000000340000000000340000000000240000000000000000000000000000000000000000000000000000000000000000000000000000000000000000000000
#058320:0000001323000000
#0583b0:0000000000000013
#0593b0:23
#0603b0:13
#060380:00230000
#060321:13
#060351:00230000
#0613b1:00000013
#0623b1:23
#062360:13
#062320:0053002300000000
#062371:0000001300000000
#0623b1:0000000053000023
#063361:0000001300000000
#063321:00000023
#0643b1:00132300
#064371:0000005300000000
#064360:00001323
#064320:0000000000530000
#0643b1:00000013
#064371:0000000000000053
#0653b1:23
#065320:13
#065360:00230000
#0653b0:0013
#065370:0000000000532300
#065321:00000013
#065361:0000000000000053
#066361:23
#0663b1:0000000000000013
#067371:0023000000000000
#067321:0000001300000000
#067361:0000000000230000
#068321:1300002300000000
#068370:0000001300000000
#0683b0:0000000000230000
#068360:0000000000000013
#069320:0023000000000000
#0693b0:00000013
#070370:24
#070321:14000024
#0713a1:14000024
#0743b1:13330000
#074371:000053230000
#074360:00130000
#074320:000000000000000053000000330000000000330000330000
#074350:000000000000000000000000000000000000000000000053
#075350:33330000
#075320:000053230000
#074371:00000013
#0743b1:000000000053
#0753b1:330000000053
#075381:005300330000330000330000
#0763b1:330053230000
#076371:005300330000000000000000
#075320:0000000000001333
#075360:000000000000000000000000000000000000000000000053
#076360:33
#076320:000053000000330000000000000000000000000000000053
#076350:000000000000000053330000330000000000330000330000
#077320:33330000
#077360:000053230000
#0763b1:00000013
#076381:000000000053
#077381:33
#0773b1:005300330000330000330000
#077371:000000000053
#078371:23
#077360:00000013
#077320:000000000053
#078320:33330000
#078360:000053230000
#078371:00130000
#0783b1:000000000000000053000000330000000000330000330000
#078381:000000000000000000000000000000000000000000000053
#079381:33330000
#0793b1:000000000000000000000000000000005300330000330000230000000000000000000000000000000000000000000000
#078360:00000013
#078320:000000000053
#079320:330000000053
#079350:005300330000330000330000
#080320:330053230000
#080360:005300330000000000000000
#0793b1:0000000000001333
#079371:00000000000000000000000000000053
#080371:33
#0803b1:000053000000330000000000000000000000000000000053
#080381:00000000005300003300000033003300
#0813b1:23
#080320:00000013
#080350:000000000053
#081350:23
#0833b0:0000001200220000
#0843a0:00122200
#084380:0000000000120022
#085380:00000012
#0863b0:22
#087340:0000001200220000
#0883a0:0000000000000012
#0893a0:0022
#089341:1222
#017920:140000000000000000000000000000000000000000000000000000000000000000000000000000000000000000000000000000000000000000000000000000000000000000000000000000000000000000000000000000000000000000000000000000000000000000000000000000000000000000000000000000000000000000000000000000000000000000000000000000000000000000000000000000000000000000000000000000000000000000000000000000000000000000000000000000000000000000000000000000000000000000000000000000000000000000000000000000000000000000000000000000000000000000000000000000000000000000000000000000000000000000000000000000000000000000000000000000000000000000000000000000000000000000000000000000000000000000000000000000000000000000000000000000000000000000000000000000000000000000000000000000000000000000000000000000000000000000000000000000000000000000000000000000000000000000000000000000000000000000000000000000000000000000000000000000000000000000000000000000000000000000000000000000000000000000000000000000000000000000000000000000000000000000000000000000000000000000000000000000000000000000000000000000000000000000000000000000000000000000000000000000000000000000000000000000000000000000000000000000000000000000000000000000000000000000000000000000000000000000000000000000000000000000000000000000000000000000000000000000000000000000000000000000000000000000000000000000000000000000000000000000000000000000000000000000000000000000000000000000000000000000000000000000000000000000000000000000000000000000000000000000000000000000000000000000000000000000000000000000000000000000000000000000000000000000000000000000000000000000000000000000000000000000000000000000000000000000000000000000000000000000000000000000000000000000000000000000000000000000000000000000000000000000000000000000000000000000000000000000000000000000000000000000000000000000000000000000000000000000000000000000000000000000000000000000000000000000000000000000000000000000000000000000000000000000000000000000000000000000000000000000000000000000000000000000000000000000000000000000000000000000000000000000000000000000000000000000000000000000000000000000000000000000000000000000000000000000000000000000000000000000000000000000000000000000000000000000000000000000000000000000000000000000000000000000000000000000000000000000000000000000000000000000000000000000000000000000000000000000000000000000000000000000000000000000000000000000000000000000000000000000000000000000000000000000000000000000000000000000000000000000000000000000000000000000000000000000000000000000000000000000000000000000000000000000000000000000000000000000000000000000000000000000000000000000000000000000000000000000000000000000000000000000000000000000000000000000000000000000000000000000000000000000000000000000000000000000000000000000000000000000000000000000000000000000000000000000000000000000000000000000000000000000000000000000000000000000000000000000000000000000000000000000000000000000000000000000000000000000565656260000000000000000000000000000000000000000000000000000000000000000000000000000000000000000000000000000000000000000000000000000000000000000000000000000000000000000000000000000000000000000000000000000000000000000000000000000000000000000000000000000000000000000000000000000000000000000000000000000000000000000000000000000000000000000000000000000000000000000000000000000000000000000000000000000000000000000000000000000000000000000000000000000000000000000000000000000000000000000000000000000000000000000000000000000000000000000000000000000000000000000000000000000000000000000000000000000000000000000000000000000000000000000000000000000000000000000000000000000000000000000000000000000000000000000000000000000000000000000000000000000000000000000000000000000000000000000000000000000000000000000000000000000000000000000000000000000000000000000000000000000000000000000000000000000000000000000000000000000000000000000000000000000000000000000000000000000000000000000000000
#017940:0000005400000000
#017950:00000000000000000053530000000000
#018960:0013000000000000
#018920:00230000
#020960:0013000000000000
#020920:00230000
#022970:0013000000000000
#0229b0:00230000
#024970:0013000000000000
#0249b0:00230000
#033980:13000023
#042960:0013
#042930:0000000000000000000000000000000000230000000000000000000000000000
#043970:0013
#0439a0:0000000000000000000000000000000000230000000000000000000000000000
#044960:0013
#044930:0000000000000000000000000000000000230000000000000000000000000000
#045970:0013
#0459a0:0000000000000000000000000000000000230000000000000000000000000000
#046960:0013
#046930:0000000000000000000000000000000000230000000000000000000000000000
#047970:0013
#0479a0:0000000000000000000000000000000000230000000000000000000000000000
#048960:0013
#048930:0000000000000000000000000000000000230000000000000000000000000000
#049970:0013
#0499a0:0000000000000000000000000000000000230000000000000000000000000000
#057960:000000000000000000000000000000000000000000000000000000000000000000000000000000000000000000000000000000000000000000000000000000000000000000000000000000000000000000000000000000000000000000000000000000000000000000000000000000000000000000000000000000000000000000000000000000000000000000000000000000000000000000000000000000000000000000000000000000000000000000000000000000000000000000000000000000000000000000000000000000000000000000000000000000000000000000000000000000000000000000000000000000000000000000000000000000000000000000000000000000000000000000000000000000000000000000000000000000000000000000000000000000000000000000000000000000000000000000000000000000000000000000000000000000000000000000000000000000000000000000000000000000000000000000000000000000000000000000000000000000000000000000000000000000000000000000000000000000000000000000000000000000000000000000000000000000000000000000000000000000000000000000000000000000000000000000000000000000000000000000000000000000000000000000000000000000000000000000000000000000000000000000000000000000000000000000000000000000000000000000000000000000000000000000000000000000000000000000000000000000000000000000000000000000000000000000000000000000000000000000000000000000000000000000000000000000000000000000000000000000000000000000000000000000000000000000000000000000000000000000000000000000000000000000000000000000000000000000000000000000000000000000000000000000000000000000000000000000000000000000000000000000000000000000000000000000000000000000000000000000000000000000000000000000000000000000000000000000000000000000000000000000000000000000000000000000000000000000000000000000000000000000000000000000000000000000000000000000000000000000000000000000000000000000000000000000000000000000000000000000000000000000000000000000000000000000000000000000000000000000000000000000000000000000000000000000000000000000000000000000000000000000000000000000000000000000000000000000000000000000000000001400000000000000000000000000000000000000000000000000000000000000000000000000000000000000000000000000000000000000000000000000000000000000000000000000000000000000000000000000000000000000000000000000000000000000000000000000000000000000000000000000000000000000000000000000000000000000000000000000000000000000000000000000000000000000000000000000000000000000000000000000000000000000000000000000000000000000000000000000000000000000000000000000000000000000000000000000000000000000000000000000000000000000000000000000000000000000000000000000000000000000000000000000000000000000000000000000000000000000000000000000000000000000000000000000000000000000000000000000000000000000000000000000000000000000000000000000000000000000000000000000000000000000000000000000000000000000000000000000000000000000000000000000000000000000000000000000000000000000000000000000000000000000000000000000000000000000000000000000000000000000000000000000000000000000000000000000000000000000000000240000000000000000000000000000000000000000000000000000000000000000000000000000000000000000000000000000000000000000000000000000000000000000000000000000000000000000000000000000000000000000000000000000000000000000000000000000000000000000000000000000000000000000000000000000000000000000000000000000000000000000000000000000000000000000000000000000000000000000000000000000000000000000000000000000000000000000000000000000000000000000000000000000000000000000000000000000000000000000000000000000000000000000000000000000000000000000000000000000000000000000000000000000000000000000000000000000000000000000000000000000000000000000000000000000000000000000000000000000000000000000000000000000000000000000000000000000000000000000000000000000000000000000000000000000000000000000000000000000000000000000000000000000000000000000000000000000000000000000000000000000000000000000000000000000000000000000000000000000000000000000000000000000000000000000000000000000000000000000000000
#073980:001300000000000000000000000000000000000000000000000000000000000000000000000000000000000000000000000000000000000000000000000000000000000000000000000000000000000000000000000000000000000000000000000000000000000000000000000000000000000000000000000000000000000000000000000000000000000000000000000000000000000000000000000000000000000000000000000000000000000000000000000000000000000000000000000000000000000000000000000000000000000000000000000000000000000000000000000000000000000000000000000000000000000000000000000000000000000000000000000000000000000000000000000000000000000000000000000000000000000000000000000000000000000000000000000000000000000000000000000000000000000000000000000000000000000000000000000000000000000000000000530000000000000000000000000000000000000000000000000000000000000000000000000000000000000000000000000000000000000000000000000000000000000000000000000000000000000000000000000000000000000000000000000000000000000000000000000000000000000000000000530000000000000000000000000000000000000000000000000000000000000000000000000000000000000000000000000000000000000000000000000000000000000000000000000000000000000000000000000000000000000000000000000000000000000000000000000000000000000000000000000000000000000000000000000000000000000000000000000000000000000000000000000000000000000000000000000000000000000000000000000000000000000000000000000000000000000000000000000000000000000000000000000000000000000000000000000000000000000000000000000000000000000000000000000000000000000000000000000000000000000000000000000000000000000000000000000000000000000000000000000000000000000000000000000000000000000000000000000000000000000000000000000000000000000000000000000000000000000000000000000000000000000000000000000000000000000000000000000000000000000000000000000000000000000000000000000000000000000000000000000000000000000000000000000000000000000000000000000000000000000000000000000000000000000000000000000000000000000000000000000000000000000000000000000000000000000000000000000000000000000000000000000000000000000000000000000000000000000000000000000000000000000000000000000000000000000000000000000000000000000000000000000000000000000000000000000000000000000000000000000000000000000000000000000000000000000000000000000000000000000000000000000000000000000000000000000000000000000000000000000000000000000000000000000000000000000000000000000000000000000000000000000000000000000000000000000000000000000000000000000000000000000000000000000000000000000000000000000000000000000000000000000000000000000000000000000000000000000000000000000000000000000000000000000000000000000000000000000000000000000000000000000000000000000000000000000000000000000000000000000000000000000000000000000000000000000000000000000000000000000000000000000000000000000000000000000000000000000000000000000000000000000000000000000000000000000000000000000000000000000000000000000000000000000000000000000000000000000000000000000000000000000000000000000000000000000000000000000000000000000000000000000000000000000000000000000000000000000000000000000000000000000000000000000000000000000000000000000000000000000000000000000000000000000000000000000000000000000000000000000000000000000000000000000000000000000000000000000000000000000000000000000000000000000000000000000000000000000000000000000000000000000000000000000000000000000000000000000000000000000000000000000000000000000000000000000000000000000000000000000000000000000000000000000000000000000000000000000000000000000000000000000000000000000000000000000000000000000000000000000000000000000000000000000000000000000000000000000000000000000000000000000000000000000000000000000000000000000000000000000000000000000000000000000000000000000000000000000000000000000000000000000000000000000000000000000000000000000000000000000000000000000000000000000000000000000000000000000000000000000000000000000000000000000000000000000000000000000000000000
#0739a0:0000005300000000
#0739b0:000000000000000000000000000000000000000000000000000000000000000000000000000000000000000000000000000000000000000000000000000000000000000000000000000000000000000000000000000000000000000000000000000000000000000000000000000000000000000000000000000000000000000000000000000000000000000000000000000000000000000000000000000000000000000000000000000000000000000000000000000000000000000000000000000000000000000000000000000000000000000000000000000000000000000000000000000000000000000000000000000000000000000000000000000000000000000000000000000000000000000000000000000000000000000000000000000000000000000000000000000000000000000000000000000000000000000000000000000000000000000000000000000000000000000000000000000000000000000000000000000000000000000000000000000000000000000000000000000000000000000000000000000000000000000000000000000000000000000000000000530000000000000000000000000000000000000000000000000000000000000000000000000000000000000000000000000000000000000000000000000000000000000000000000000000000000000000000000000000000000000000000000000000000000000000000000000000000000000000000000000000000000000000000000000000000000000000000000000000000000000000000000000000000000000000000000000000000000000000000000000000000000000000000000000000000000000000000000000000000000000000000000000000000000000000000000000000000000000000000000000000000000000000000000000000000000000000000000000000000000000000000000000000000000000000000000000000000000000000005353230000000000000000000000000000000000000000000000000000000000000000000000000000000000000000000000000000000000000000000000000000000000000000000000000000000000000000000000000000000000000000000000000000000000000000000000000000000000000000000000000000000000000000000000000000000000000000000000000000000000000000000000000000000000000000000000000000000000000000000000000000000000000000000000000000000000000000000000000000000000000000000000000000000000000000000000000000000000000000000000
#081950:13
#082920:22
#0819b1:13
#082981:22
