This file was generated by Ched 2.7.0.0.
#TITLE ""
#ARTIST ""
#DESIGNER ""
#DIFFICULTY 0
#PLAYLEVEL
#SONGID ""
#WAVE ""
#WAVEOFFSET 0
#JACKET ""
#REQUEST "ticks_per_beat 480"
#00002: 4
#BPM01: 174
#00008: 01
#TIL00: ""
#VOLUME: ""
#HISPEED 00
#MEASUREHS 00
#01812:0000001300000013
#0181b:1313
#01815:0013000000130000
#01818:00130013
#01810:41
#01918:0000000000130013
#01915:00002323
#03018:23001313
#03015:0000000000130013
#0301b:00130000
#03012:00130000
#0311b:00003313330000000000000000000000
#03115:0000000000130000
#03118:1300000000000013
#04015:0000001300000013
#04012:1300000000130000
#04018:13000013
#0401b:0013
#01018:0000001300130000
#01015:00130013
#01012:0013
#0101b:0013000000000000
#01115:00130013
#01118:0000000000000013
#05815:0000130000130000
#05818:0013000000001300
#0581b:0000001300000000
#05812:2400000000000013
#0581f:21
#0591b:0013000000000013
#05915:00130013
#05918:0000001300130000
#05912:0013
#05910:41
#06018:0000001400000000
#06014:0000000000140000
#0601b:00000013
#06015:1300000000000013
#06118:13131300
#06112:0013001300000000
#0611b:00000013
#06115:0000000000130000
#06412:14
#0641a:00140000
#06414:0014
#06418:00000014
#0631a:0000140000000014
#06318:14
#06314:0014000000000000
#06312:0000001400000000
#06514:0000001400000000
#06518:00140000
#0651a:0014
#06512:14000014
#06615:24130013
#06618:0000001300130000
#0661b:0013000000000013
#06612:0013
#06715:00000013
#06712:00140000
#06718:0000001300000013
#06814:0000000000140000
#06818:00000014
#06815:13
#06812:0000000000000014
#0681a:0000002400000000
#06918:0000000000130000
#06915:00000013
#0691a:00140000
#06912:0000002400000000
#08214:00120012
#0821a:0012
#08217:53
#08314:0000000000000012
#0831a:12120000
#08316:0012001200000000
#08318:0000000000120000
#0041a:12
#00414:00120000
#00418:00000012
#00416:0012
#0841a:12120000
#08416:0012000000000000
#08414:0000000012000012
#08418:0000000000120000
#08518:0000120000120000
#08516:0012
#0851a:12
#01215:0000000000130000
#01218:00000013
#0121a:0000002400000000
#01318:0000130000130000
#01315:00000013
#01312:0000002400000000
#04416:14
#04414:0014
#04616:14
#0461a:0014
#04612:0014
#00118:0000001616161600
#00119:00000000000000140014001400000000
#0031a:12
#00318:0012
#00314:00120000
#00316:00000012
#00216:00120000
#00218:0012
#00214:00000012
#0051a:12000012
#00518:0012
#00516:0000120000120000
#01715:0000000000130000
#01718:0000000000132500
#01713:00000025
#02218:0000001300000013
#02215:00130013
#02212:1313
#0221b:0013000000130000
#02618:00000013
#0261a:14
#02612:14130000
#02615:0013
#03212:00003313330000000000000023000000
#03215:13
#03218:0000000000230000
#0321b:0000000000000023
#03315:13005300535353005300535353000000
#03415:0013001300000013
#03418:1313
#03412:0000000000130000
#0341b:00230023
#03518:13
#03512:0013000000000013
#03515:0000001300130000
#0351b:00230023
#03618:0013001300000013
#03615:1313
#0361b:0000000000130000
#03612:00230023
#03715:1313
#0371b:0013000000000013
#03718:0000001300130000
#03712:00230023
#03812:0000000000130000
#03815:1300001300000013
#03818:0013
#0381b:00230023
#03810:41
#03918:1313
#03912:0013000000000000
#03915:0000001300130000
#0391b:00230023
#04214:0014
#04318:0014
#04516:14
#04518:0014
#04712:14
#04716:0014
#0471a:0014
#0481a:14
#04816:0014
#04812:0014
#04810:41
#04916:14
#0491a:0014
#06212:0000000000000014
#06218:0000140000140000
#06214:1400001400000000
#0701b:13
#07015:00130000
#07018:0013
#07012:00000013
#07010:41
#07114:00140000
#07118:0014
#07112:00000014
#0711a:14
#07214:0014001400000000
#07212:0000000000140014
#07218:24240000
#0721a:00002424
#07417:00000014
#07413:0000000000000014
#07519:0000000000000014
#07515:00000014
#07613:0000000000000014
#07617:00000014
#0781a:00000014
#07815:0000000000000014
#07712:00000014
#07717:0000000000000014
#07912:00000014
#07917:0000000000000014
#0801a:00000014
#08015:0000000000000014
#0811a:14
#0861a:00120012
#08614:0012
#08714:12120000
#08718:0012001200000000
#08716:0000000000120000
#0871a:0000000000000012
#08814:1200000000000012
#08818:0012000000000000
#08816:0000120000120000
#0881a:0000001200001200
#00814:12
#0081a:00120000
#00816:00000012
#00818:0012
#00714:12
#00716:0012
#0071a:00120000
#00718:00000012
#00618:00120000
#00616:0012
#0061a:00000012
#00614:12
#00914:12
#0091a:0012
#00918:00120000
#00916:0000001200000000
#0201b:0000001300000013
#02012:1313
#02018:0013000000130000
#02015:00130013
#02315:0000000000130013
#02318:00002323
#02415:0000001300000013
#02418:00130013
#0241b:1313
#02412:0013000000130000
#02518:13
#02512:00001434340000000000000000000000
#02516:00000024
#02513:00000000003400000000000000000000
#02514:0000003400000000
#02515:00000000000000340000000000000000
#0271b:1300000000000013
#02712:0013000000000000
#02718:00130000
#02815:13
#02818:0013
#02813:0033000000000000
#02812:0000333300000000
#0281a:0000000000330000
#0281b:0000000000003333
#02915:13
#02918:0013
#02912:0000133300000000
#0291b:00000013
#02913:0033000000000000
#0291a:0000000000330000
#02910:41
#04112:00130000000000000000000000000000
#04115:0023
#0531b:0000001300000000
#0531a:0013000000000000
#05313:13
#05314:00130000
#05318:0000000000000013
#05315:0013
#0501b:0000001300000013
#05018:0013000000000000
#05015:00131300
#0501f:11
#05012:23
#05218:0000001300130000
#05219:0000000000000013
#0521b:13
#05215:00131300
#05212:00000013
#05115:1300000000000013
#05118:0013002300000000
#05112:00130000
#05415:13
#05618:1400260000260000
#05612:0026000026000026
#07318:24005454005400545400540054000000
#02118:0023
#02115:0000000000230000
#0211b:00000023
#05718:260000000000000000000000360000360000360000360000360000003600000036000000360000000000360000000000360000000000000000000000360000000000000000000000000000000000000000000000000000000000000000000000
#05715:00000066
#01619:00330000000000330000000000000000
#0161a:0033003300000000
#0161b:00000033003300000000000000000000
#01614:00000000000000000033000000000033
#01613:0000000000330033
#01612:00000000000000000000003300330000
#01514:0033003300330033
#08918:0052
#04055:0000000000000063
#06655:14
#0665b:0000000000000053
#04456:54
#04656:64
#0465a:0024
#05852:14
#04155:0013
#04152:00230000000000000000000000000000
#0025a:12
#00158:0000005656565600
#00159:00000000000000240024002400000000
#01056:12
#01755:0000000000230000
#01753:00000015
#01758:0000000000231500
#03158:53
#0315b:00000023000000000000000000000000
#03252:00000023000000000000000000000000
#03255:63
#04556:64
#04752:64
#04756:0024
#0485a:54
#04856:0024
#04956:54
#0655a:0054
#06552:00000064
#06055:53
#06254:1400001400000000
#06352:0000005400000000
#0645a:00140000
#06454:0014
#06458:00000014
#07452:0014
#0755a:0014
#07655:0014
#07757:0014
#07855:0014
#0785a:0014
#07952:0014
#07957:0014
#08055:0014
#0805a:0014
#02252:13
#02552:0064000000000000
#02556:00000014
#0265a:14
#02652:14
#02855:63
#02858:0053
#02955:63
#02958:0053
#02952:00230000
#0295b:00000023
#03058:13
#02755:0000000000130000
#05055:0063
#0515b:0000000000130000
#05158:0000006300000000
#05355:0063
#05455:13
#0705b:13
#07055:00130000
#07058:0013
#07052:00000013
#0715a:14
#07154:00140000
#07158:0014
#07152:00000014
#05758:56
#06855:53
#06852:0000000000000054
#06758:0000005300000000
#001380:0000001656565600
#001390:00000000000000540054005400000000
#0023a0:22
#009360:00000012
#010360:22
#0103b0:0000000000000013
#011380:0023000000000000
#011380:0000001300000000
#0113b0:0000000000230000
#012350:13
#012320:00230000
#012320:0000000000000013
#013350:0023000000000000
#014380:1333
#0143b0:00330033
#015380:23
#015351:1333
#015341:0033003300330033
#015321:00330033
#016351:23
#016380:1323
#016390:00330000000000330000000000000000
#0163a0:0033003300000000
#0163b0:00000033333300000000000000000000
#016351:0013
#016341:00000000000000000033000000000033
#016331:0000000000330033
#016321:00000000000000000000003333330000
#017351:33000000330000330000330000000000
#017331:00000025
#017380:13000033000033000033530025000000
#0193b0:1333000000000000
#019380:0000332300000000
#021320:1333000000000000
#021350:0000332300000000
#023320:1300002300000000
#023350:0033330000000000
#025320:00001434340000000000000000000000
#025330:00000000003400000000000000000000
#025340:0000003400000000
#025350:00000000000000340000000000000000
#025360:00003424
#027350:0000001300230000
#028350:13
#028330:0033000000000000
#028320:0000333323000000
#028381:0013
#0283a1:0000000000330000
#0283b1:0000000000003333
#0293b1:23
#029350:1323
#029330:0033000000000000
#029320:0000333300000000
#029381:0013
#0293a1:0000000000330000
#0293b1:00000033
#030381:23
#031381:1300002300000000
#0313b1:00003353330000000000000000000000
#032351:1300002300000000
#032321:00003353330000000000000000000000
#040351:0000000000000013
#041321:00530000000000000000000000000000
#041351:00332300
#0423a1:14
#0433a1:24
#043320:14
#044320:24
#044361:14
#0453a1:24
#045360:14
#046320:24
#046361:14
#0463a1:0054
#047361:24
#047320:14
#047360:0054
#048320:24
#0483a1:14
#048361:0054
#0493a1:24
#049360:14
#049320:0024
#050350:0013
#050320:00000023
#051380:0000001300000000
#0513b0:0000000000230000
#053350:0013
#053320:00000023
#0543a0:00140034
#054360:0034
#055360:24
#055321:1434
#055361:00340024
#057381:160000000000000000000000360000360000360000360000360000003600000036000000360000000000360000000000360000000000000000000000360000000000000000000000000000000000000000000000000000000000000000000000
#057351:00000026
#060351:13
#060321:00230000
#063321:0000001400000000
#063361:00000024
#0653a1:0014
#065371:00000024
#065320:00000014
#066350:24
#0663b0:0000000000000013
#067380:0023000000000000
#067380:0000001300000000
#0673b0:0000000000230000
#068350:13
#068320:00230000
#068320:0000000000000014
#069350:0024000000000000
#074350:14340000
#074320:0000005424000000
#075370:14340000
#0753a0:0000005424000000
#076350:1400003424000000
#076320:0054340000000000
#077370:1400003424000000
#0773a0:0054340000000000
#078320:14
#078350:0054343424000000
#0783a1:00142400
#0793a1:14
#079371:0054343424000000
#079320:00142400
#080320:14
#080350:0054343424000000
#0803a1:00142400
#085341:00000012
#086341:22
#089381:1222
#033950:13000023
#073980:001400000000000000000000000000000000000000000000000000000000000000000000000000000000000000000000000000000000000000000000000000000000000000000000000000000000000000000000000000000000000000000000000000000000000000000000000000000000000000000000000000000000000000000000000000000000000000000000000000000000000000000000000000000000000000000000000000000000000000000000000000000000000000000000000000000000000000000000000000000000000000000000000000000000000000000000000000000000000000000000000000000000000000000000000000000000000000000000000000000000000000000000000000000000000000000000000000000000000000000000000000000000000000000000000000000000000000000000000000000000000000000000000000000000000000000000000000000000000000000000000000000000000000000000000000000000000000000000000000000000000000000000000000000000000000000000000000000000000000000000000000000000000000000000000000000000000000000000000000000000000000000000000000000000000000000000000000000000000000000000000000000000000000000000000000000000000000000000000000000000000000000000000000000000000000000000000000000000000000000000000000000000000000000000000000000000000000000000000000000000000000000000000000000000000000000000000000000000000000000000000000000000000000000000000000000000000000000000000000000000000000000000000000000000000000000000000000000000000000000000000000000000000000000000000000000000000000000000000000000000000000000000000000000000000000000000000000000000000000000000000000000000000000000000000000000000000000000000000000000000000000000000000000000000000000000000000000000000000000000000000000000000000000000000000000000000000000000000000000000000000000000000000000000000000000000000000000000000000000000000000000000000000000000000000000000000000000000000000000000000000000000000000000000000000000000000000000000000000000000000000000000000000000000000000000000000000000000000000000000000000000000000000000000000000000000000000000000000000000000000000000000000000000000000000000000000000000000000000000000000000000000000000000000000000000000000000000000000000000000000000000000000000000000000000000000000000000000000000000000000000000000000000000000000000000000000000000000000000000000000000000000000000000000000000000000000000000000000000000000000000000000000000000000000000000000000000000000000000000000000000000000000000000000000000000000000000000000000000000000000000000000000000000000000000000000000000000000000000000000000000000000000000000000000000000000000000000000000000000000000000000000000000000000000000000000000000000000000000000000000000000000000000000000000000000000000000000000000000000000000000000000000000000000000000000000000000000000000000000000000000000000000000000000000000000000000000000000000000000000000000000000000000000000000000000000000000000000000000000000000000000000000000000000000000000000000000000000000000000000000000000000000000000000000000000000000000000000000000000000000240000000000000000000000000000000000000000000000000000000000000000000000000000000000000000000000000000000000000000000000000000000000000000000000000000000000000000000000000000000000000000000000000000000000000000000000000000000000000000000000000000000000000000000000000000000000000000000000000000000000000000000000000000000000000000000000000000000000000000000000000000000000000000000000000000000000000000000000000000000000000000000000000000000000000000000000000000000000000000000000000000000000000000000000000000000000000000000000000000000000000000000000000000000000000000000000000000000000000000000000000000000000000000000000000000000000000000000000000000000000000000000000000000000000000000000000000000000000000000000000000000000000000000000000000000000000000000000000000000000000000000000000000000000000000000000000000000000000000000000000000000000000000000000000000000000000000000000000000000000000000000000000000000000000000000000000000000000000000000000000
#0819a0:14
#082970:23
