This file was generated by Ched 2.7.0.0.
#TITLE ""
#ARTIST ""
#DESIGNER ""
#DIFFICULTY 0
#PLAYLEVEL
#SONGID ""
#WAVE ""
#WAVEOFFSET 0
#JACKET ""
#REQUEST "ticks_per_beat 480"
#00002: 4
#BPM01: 174
#00008: 01
#TIL00: ""
#VOLUME: ""
#HISPEED 00
#MEASUREHS 00
#0101a:14
#01012:0014
#01118:14
#01114:0014
#0121a:14
#01212:0014
#01318:14
#01314:0014
#0181a:14
#01814:0014
#01810:41
#0191a:14
#01914:0014
#02018:14
#02012:0014
#02118:14
#02112:0014
#0221a:14
#02214:0014
#02318:14
#02312:0014
#0241a:14
#02414:0014
#02812:14
#02818:0014
#02614:0014
#0261a:24
#0301a:14
#03014:0014
#0311a:14
#03212:14
#03218:0014
#03312:14
#0381a:14
#03814:0014
#03818:00000014
#03810:41
#04018:0014
#04014:00000014
#04012:14
#04117:00000014
#0411a:0014
#05814:00140014
#0581a:2414
#0581f:21
#05918:1414
#05912:00140014
#05910:41
#0601a:14
#06014:00140000
#06018:0014
#06012:00000014
#06118:14
#06114:00140000
#0611a:0014
#06112:00000014
#0631a:14
#06312:00000014
#06314:00140000
#06318:0014
#0641a:14000024
#06412:00240000
#06416:0024
#0651a:00140000
#06514:0014
#06518:00000014
#06512:14
#06618:00140014
#06612:2414
#06714:1414
#0671a:00140014
#06812:14
#06818:00140000
#06814:0014
#0681a:00000014
#06914:14
#06918:00140000
#06912:0014
#0691a:00000014
#0741a:14
#07512:14
#07714:14
#07618:14
#08218:0014
#08314:14
#08318:0014
#08412:14
#08416:0014
#0851a:14
#08516:0014
#08612:14
#08618:0014
#08714:14
#0871a:0014
#08814:14
#08818:0014
#02518:14
#0341a:00140014
#03414:2414
#03512:1414
#03512:0014
#03518:00140000
#0361a:14
#03614:00140000
#03618:0014
#03612:00000014
#0371a:14
#03714:00140000
#03718:0014
#03712:00000014
#03912:14
#0391a:00140000
#03914:0014
#03918:00000014
#0501a:00140014
#05014:0014
#0501f:11
#05012:24
#05112:14
#05118:00140000
#0521a:14
#05212:00140014
#05218:0014
#0531a:14
#05314:00140000
#08114:00140000
#08112:14
#08113:0014
#04612:14
#0471a:14
#04812:14
#04818:14
#04810:41
#04914:14
#0491a:14
#01714:00000024
#04214:0024
#04318:0024
#0451a:0024
#06218:24
#06214:0024
#04412:0024
#07012:00343400
#07010:41
#0711a:00343400
#07215:00000034
#07214:0034
#07213:00340000
#00219:0034
#00318:34
#00413:0034
#00514:34
#00619:0034
#0071a:34
#00813:0034
#00912:34
#02910:41
#0105a:14
#01754:00000014
#0265a:14
#0315a:54
#03352:64
#03454:14
#0425a:14
#0415a:0054
#04157:00000024
#0555a:0014
#05452:0014
#0585a:14
#06652:14
#0745a:54
#07458:0014
#07552:64
#07554:0014
#07754:54
#07752:0014
#07658:64
#0765a:0014
#07858:0014
#07954:0014
#0805a:0014
#02558:54
#0385a:14
#04052:14
#05052:14
#08154:00240000
#08152:64
#08153:0064
#08252:14
#04652:64
#0475a:54
#04852:64
#04858:54
#04954:64
#0495a:54
#0023a0:14
#002390:0034
#003380:3424
#004320:14
#004330:0034
#005340:3424
#006380:14
#006390:0034
#0073a0:3424
#008340:14
#008330:0034
#009320:3424
#0143a0:1424
#015320:1424
#016380:1424
#017340:14000024
#025380:14
#0253a0:00000034
#0263a0:24
#0273a0:1424
#029320:1424
#0313a0:14
#031380:0024
#033320:14
#033340:0054
#034340:24
#0413a0:1434
#041370:00000054
#0423a0:24
#046320:14
#046340:0024
#0473a0:14
#047380:0024
#048320:14
#048340:0024
#048381:14
#0483a1:0024
#049341:14
#049321:0024
#0493a0:14
#049380:0024
#051340:00001424
#053380:00001424
#054320:1424
#0553a0:1424
#056340:1434340000000034
#056320:0000000034340000
#057340:34000024
#062380:14240000
#062340:00001424
#070340:14
#070320:00343424
#071380:14
#0713a0:00343424
#072320:14
#072330:00340000
#072340:0034
#072350:00000034
#073350:36000026
#0743a0:14
#074380:00342400
#075320:14
#075340:00342400
#076380:14
#0763a0:00342400
#077340:14
#077320:00342400
#078380:1424
#0783a0:00340000
#079340:1424
#079320:00340000
#0803a0:1424
#080380:00340000
#081320:14000054
#081340:00540000
#081330:0054
#082320:24
#089320:1424
